VERSION	0.00.00	1.03.00
FES_MODE	0
BPM_DEF	200.000	200.000	200.000	200.000
MET_DEF	4	4
RESOLUTION	384
CLK_DEF	384
COMPATIBLE_CODE	MA2

BPM	0	0	200.000
MET	0	0	4	4

TAP	1	0	5
TAP	1	96	5
TAP	1	192	3
TAP	1	192	5
TAP	1	240	3
TAP	1	240	5
TAP	1	336	4
TAP	2	48	4
TAP	2	48	5
TAP	2	96	4
TAP	2	96	5
HLD	2	192	3	48
HLD	2	192	6	48
TAP	3	0	2
TAP	3	96	2
TAP	3	192	2
TAP	3	192	4
TAP	3	240	2
TAP	3	240	4
TAP	3	336	3
TAP	4	48	2
TAP	4	48	3
TAP	4	96	2
TAP	4	96	3
HLD	4	192	1	96
HLD	4	192	4	48
TAP	5	0	5
TAP	5	96	5
TAP	5	192	3
TAP	5	192	5
TAP	5	240	3
TAP	5	240	5
TAP	5	336	4
TAP	6	48	4
TAP	6	48	5
TAP	6	96	4
TAP	6	96	5
HLD	6	192	3	48
HLD	6	192	6	48
TAP	7	0	2
TAP	7	96	2
TAP	7	192	2
TAP	7	192	4
TAP	7	240	2
TAP	7	240	4
TAP	7	336	3
TAP	8	48	2
TAP	8	48	3
TAP	8	96	2
TAP	8	96	3
XTP	8	192	1
XTP	8	192	4
TAP	9	0	6
TAP	9	96	6
TAP	9	192	3
TAP	9	192	5
TAP	9	240	3
TAP	9	240	5
TAP	9	336	6
TAP	10	48	6
TAP	10	48	7
TAP	10	96	6
TAP	10	96	7
HLD	10	192	3	48
HLD	10	192	6	48
TAP	11	0	1
TAP	11	96	1
TAP	11	192	2
TAP	11	192	4
TAP	11	240	2
TAP	11	240	4
TAP	11	336	1
TAP	12	48	0
TAP	12	48	1
TAP	12	96	0
TAP	12	96	1
HLD	12	192	1	48
HLD	12	192	4	48
TAP	13	0	6
TAP	13	96	6
TAP	13	192	3
TAP	13	192	5
TAP	13	240	3
TAP	13	240	5
TAP	13	336	6
TAP	14	48	6
TAP	14	48	7
TAP	14	96	6
TAP	14	96	7
HLD	14	192	3	48
HLD	14	192	6	48
TAP	15	0	3
TAP	15	0	4
TAP	15	96	2
TAP	15	96	5
TAP	15	192	1
TAP	15	192	6
HLD	15	288	0	96
STR	15	288	7
SCL	15	288	7	96	192	1
XTP	16	192	0
TTP	17	0	1	B	0	M1
TTP	17	96	3	E	0	M1
TTP	17	96	3	B	0	M1
TTP	17	192	6	B	0	M1
TTP	17	288	4	B	0	M1
TTP	17	288	5	E	0	M1
TTP	18	0	1	B	0	M1
TTP	18	96	3	E	0	M1
TTP	18	96	3	B	0	M1
TTP	18	192	6	B	0	M1
TTP	18	288	4	B	0	M1
TTP	18	288	5	E	0	M1
TAP	19	0	2
TAP	19	0	3
TAP	19	48	2
TAP	19	48	3
TAP	19	96	2
TAP	19	96	3
TAP	19	192	4
TAP	19	192	5
TAP	19	240	4
TAP	19	240	5
TAP	19	288	4
TAP	19	288	5
HLD	20	0	0	96
HLD	20	0	7	96
BRK	20	192	1
BRK	20	192	6
TTP	21	0	6	B	0	M1
TTP	21	96	4	B	0	M1
TTP	21	96	5	E	0	M1
TTP	21	192	1	B	0	M1
TTP	21	288	3	B	0	M1
TTP	21	288	3	E	0	M1
TTP	22	0	6	B	0	M1
TTP	22	96	4	B	0	M1
TTP	22	96	5	E	0	M1
TTP	22	192	1	B	0	M1
TTP	22	288	3	B	0	M1
TTP	22	288	3	E	0	M1
HLD	23	0	1	48
HLD	23	0	7	48
HLD	23	96	0	48
HLD	23	96	6	48
HLD	23	192	1	48
HLD	23	192	7	48
HLD	23	288	0	48
HLD	23	288	6	48
HLD	24	0	1	96
HLD	24	0	7	96
BRK	24	192	0
BRK	24	192	6
TTP	25	0	1	B	0	M1
TTP	25	96	3	B	0	M1
TTP	25	96	3	E	0	M1
TTP	25	192	5	B	0	M1
TTP	25	288	7	B	0	M1
TTP	25	288	7	E	0	M1
TTP	26	0	1	B	0	M1
TTP	26	96	3	E	0	M1
TTP	26	96	3	B	0	M1
TTP	26	192	5	B	0	M1
TTP	26	288	7	B	0	M1
TTP	26	288	7	E	0	M1
TAP	27	0	3
TAP	27	0	4
TAP	27	48	3
TAP	27	48	4
TAP	27	96	3
TAP	27	96	4
HLD	27	192	3	48
HLD	27	192	4	48
HLD	27	288	3	48
HLD	27	288	4	48
HLD	28	0	2	96
HLD	28	0	5	96
BRK	28	192	7
TAP	29	0	2
TAP	29	0	4
XTP	29	96	0
TAP	29	192	3
TAP	29	192	5
XTP	29	288	7
TAP	30	0	2
TAP	30	0	4
XTP	30	96	0
TAP	30	192	3
TAP	30	192	5
XTP	30	288	0
XTP	30	288	7
TAP	31	0	1
TAP	31	48	1
TAP	31	96	6
TAP	31	144	6
TAP	31	192	0
TAP	31	216	7
TAP	31	240	0
TAP	31	264	7
TAP	31	288	0
TAP	31	312	7
TAP	31	336	0
TAP	31	360	7
STR	32	0	0
SI_	32	0	0	96	96	4
BRK	32	192	7
TTP	33	0	6	B	0	M1
TTP	33	0	7	E	0	M1
TTP	33	96	5	E	0	M1
TTP	33	96	5	B	0	M1
TTP	33	192	0	B	0	M1
TTP	33	192	7	B	0	M1
TTP	33	288	3	B	0	M1
TTP	33	288	4	B	0	M1
TTP	34	0	1	B	0	M1
TTP	34	0	1	E	0	M1
TTP	34	96	2	B	0	M1
TTP	34	96	3	E	0	M1
TTP	34	192	0	C	1	M1
TTP	35	0	1	E	0	M1
TTP	35	0	1	B	0	M1
TTP	35	96	2	B	0	M1
TTP	35	96	3	E	0	M1
TTP	35	192	0	B	0	M1
TTP	35	192	7	B	0	M1
TTP	35	288	3	B	0	M1
TTP	35	288	4	B	0	M1
TTP	36	0	6	B	0	M1
TTP	36	0	7	E	0	M1
TTP	36	96	5	E	0	M1
TTP	36	96	5	B	0	M1
TTP	36	192	0	C	1	M1
HLD	37	0	6	96
HLD	37	96	4	96
HLD	37	192	3	96
TAP	37	288	1
HLD	38	0	1	96
HLD	38	0	3	96
HLD	38	144	4	96
HLD	38	144	6	96
TAP	38	288	0
TAP	38	288	7
HLD	39	0	1	96
HLD	39	96	3	96
HLD	39	192	4	96
TAP	39	288	6
HLD	40	0	4	96
HLD	40	0	6	96
HLD	40	144	1	96
HLD	40	144	3	96
TAP	40	288	0
TAP	40	288	7
STR	41	0	0
SI_	41	0	0	96	288	4
TAP	43	0	5
TAP	44	0	6
STR	45	0	6
SI_	45	0	6	96	288	2
TAP	47	0	1
TAP	48	0	0
TTP	49	0	2	E	0	M1
TTP	49	0	3	E	0	M1
TTP	49	96	4	B	0	M1
TTP	49	96	7	E	0	M1
TTP	49	192	1	E	0	M1
TTP	49	192	3	B	0	M1
TTP	49	288	5	E	0	M1
TTP	49	288	6	E	0	M1
TTP	50	0	2	E	0	M1
TTP	50	0	3	E	0	M1
TTP	50	96	4	B	0	M1
TTP	50	96	7	E	0	M1
TTP	50	192	1	E	0	M1
TTP	50	192	3	B	0	M1
TTP	50	288	5	E	0	M1
TTP	50	288	6	E	0	M1
TAP	51	0	6
TAP	51	0	7
TAP	51	96	4
TAP	51	96	5
TAP	51	192	2
TAP	51	192	3
TAP	51	288	0
TAP	51	288	1
TAP	52	0	7
TAP	52	48	7
TAP	52	96	0
TAP	52	144	0
XTP	52	192	1
XTP	52	192	6
TAP	52	288	3
TAP	52	288	4
TTP	53	0	5	E	0	M1
TTP	53	0	6	E	0	M1
TTP	53	96	1	E	0	M1
TTP	53	96	3	B	0	M1
TTP	53	192	4	B	0	M1
TTP	53	192	7	E	0	M1
TTP	53	288	2	E	0	M1
TTP	53	288	3	E	0	M1
TTP	54	0	5	E	0	M1
TTP	54	0	6	E	0	M1
TTP	54	96	1	E	0	M1
TTP	54	96	3	B	0	M1
TTP	54	192	4	B	0	M1
TTP	54	192	7	E	0	M1
TTP	54	288	2	E	0	M1
TTP	54	288	3	E	0	M1
TAP	55	0	0
TAP	55	0	1
TAP	55	96	2
TAP	55	96	3
TAP	55	192	4
TAP	55	192	5
TAP	55	288	6
TAP	55	288	7
TAP	56	0	0
TAP	56	48	0
TAP	56	96	7
TAP	56	144	7
XTP	56	192	1
XTP	56	192	6
TAP	56	288	2
TAP	56	288	3
TTP	57	0	5	E	0	M1
TTP	57	0	7	E	0	M1
TTP	57	96	0	B	0	M1
TTP	57	96	3	B	0	M1
TTP	57	192	4	B	0	M1
TTP	57	192	7	B	0	M1
TTP	57	288	1	E	0	M1
TTP	57	288	3	E	0	M1
TTP	58	0	5	E	0	M1
TTP	58	0	7	E	0	M1
TTP	58	96	0	B	0	M1
TTP	58	96	3	B	0	M1
TTP	58	192	4	B	0	M1
TTP	58	192	7	B	0	M1
TTP	58	288	1	E	0	M1
TTP	58	288	3	E	0	M1
TAP	59	0	0
TAP	59	0	7
TAP	59	96	5
TAP	59	96	6
TAP	59	192	3
TAP	59	192	4
TAP	59	288	1
TAP	59	288	2
TAP	60	0	0
TAP	60	48	0
TAP	60	96	7
TAP	60	144	7
XTP	60	192	1
XTP	60	192	6
TAP	60	288	4
TAP	60	288	5
TTP	61	0	1	E	0	M1
TTP	61	0	3	E	0	M1
TTP	61	96	4	B	0	M1
TTP	61	96	7	B	0	M1
TTP	61	192	0	B	0	M1
TTP	61	192	3	B	0	M1
TTP	61	288	5	E	0	M1
TTP	61	288	7	E	0	M1
TTP	62	0	1	E	0	M1
TTP	62	0	3	E	0	M1
TTP	62	96	4	B	0	M1
TTP	62	96	7	B	0	M1
TTP	62	192	0	B	0	M1
TTP	62	192	3	B	0	M1
TTP	62	288	5	E	0	M1
TTP	62	288	7	E	0	M1
TAP	63	0	0
TAP	63	0	7
TAP	63	96	1
TAP	63	96	2
TAP	63	192	3
TAP	63	192	4
TAP	63	288	5
TAP	63	288	6
TAP	64	0	7
TAP	64	48	7
TAP	64	96	0
TAP	64	144	0
XTP	64	192	2
XTP	64	192	5
HLD	65	0	6	96
HLD	65	96	4	96
HLD	65	192	3	96
TAP	65	288	1
TTP	66	0	3	E	0	M1
TTP	66	0	7	E	0	M1
TTP	66	96	4	E	0	M1
TTP	66	96	6	E	0	M1
TTP	66	192	0	C	1	M1
TTP	66	192	5	E	0	M1
HLD	67	0	6	96
TAP	67	0	7
TAP	67	96	4
TAP	67	192	0
HLD	67	192	1	96
TAP	67	288	3
TTP	68	0	0	B	0	M1
TTP	68	0	7	B	0	M1
TTP	68	96	3	B	0	M1
TTP	68	96	4	B	0	M1
TTP	68	192	0	C	1	M1
HLD	69	0	1	96
HLD	69	96	3	96
HLD	69	192	4	96
TAP	69	288	6
TTP	70	0	2	E	0	M1
TTP	70	0	6	E	0	M1
TTP	70	96	3	E	0	M1
TTP	70	96	5	E	0	M1
TTP	70	192	0	C	1	M1
TTP	70	192	4	E	0	M1
TAP	71	0	0
HLD	71	0	1	96
TAP	71	96	3
HLD	71	192	6	96
TAP	71	192	7
TAP	71	288	4
THO	72	0	0	192	C	1	M1
HLD	73	0	6	48
HLD	73	0	7	48
HLD	73	96	4	48
HLD	73	96	5	48
TAP	73	192	3
TAP	73	192	6
TAP	73	240	3
TAP	73	240	6
HLD	73	336	2	48
HLD	73	336	4	48
TAP	74	48	3
TAP	74	48	5
TAP	74	96	3
TAP	74	96	5
TTP	74	192	0	C	1	M1
TTP	74	192	2	B	0	M1
TTP	74	192	6	B	0	M1
HLD	75	0	0	48
HLD	75	0	1	48
HLD	75	96	2	48
HLD	75	96	3	48
TAP	75	192	1
TAP	75	192	4
TAP	75	240	1
TAP	75	240	4
HLD	75	336	3	48
HLD	75	336	5	48
TAP	76	48	2
TAP	76	48	4
TAP	76	96	2
TAP	76	96	4
TTP	76	192	0	C	1	M1
TTP	76	192	1	B	0	M1
TTP	76	192	5	B	0	M1
HLD	77	0	6	48
HLD	77	0	7	48
HLD	77	96	4	48
HLD	77	96	5	48
TAP	77	192	3
TAP	77	192	6
TAP	77	240	3
TAP	77	240	6
HLD	77	336	2	48
HLD	77	336	4	48
TAP	78	48	3
TAP	78	48	5
TAP	78	96	3
TAP	78	96	5
TTP	78	192	0	C	1	M1
TTP	78	192	2	B	0	M1
TTP	78	192	6	B	0	M1
HLD	79	0	0	48
HLD	79	0	1	48
HLD	79	96	2	48
HLD	79	96	3	48
TAP	79	192	1
TAP	79	192	4
TAP	79	240	1
TAP	79	240	4
HLD	79	336	3	48
HLD	79	336	5	48
TAP	80	48	2
TAP	80	48	4
TAP	80	96	2
TAP	80	96	4
TTP	80	192	0	C	1	M1
TTP	80	192	1	B	0	M1
TTP	80	192	5	B	0	M1
TAP	81	0	6
TAP	81	0	7
HLD	81	96	2	48
HLD	81	96	3	48
TAP	81	192	0
TAP	81	192	7
TAP	81	240	1
TAP	81	240	6
HLD	81	336	3	48
HLD	81	336	4	48
TAP	82	48	2
TAP	82	48	5
TAP	82	96	2
TAP	82	96	5
TTP	82	192	0	C	1	M1
TTP	82	192	3	B	0	M1
TTP	82	192	7	B	0	M1
TAP	83	0	0
TAP	83	0	1
HLD	83	96	4	48
HLD	83	96	5	48
TAP	83	192	0
TAP	83	192	7
TAP	83	240	1
TAP	83	240	6
HLD	83	336	3	48
HLD	83	336	4	48
TAP	84	48	2
TAP	84	48	5
TAP	84	96	2
TAP	84	96	5
TTP	84	192	0	B	0	M1
TTP	84	192	0	C	1	M1
TTP	84	192	4	B	0	M1
TAP	85	0	6
TAP	85	0	7
HLD	85	96	2	48
HLD	85	96	3	48
TAP	85	192	0
TAP	85	192	7
TAP	85	240	1
TAP	85	240	6
HLD	85	336	3	48
HLD	85	336	4	48
TAP	86	48	2
TAP	86	48	5
TAP	86	96	2
TAP	86	96	5
TTP	86	192	0	C	1	M1
TTP	86	192	3	B	0	M1
TTP	86	192	7	B	0	M1
TAP	87	0	0
TAP	87	0	7
TAP	87	96	1
TAP	87	96	2
TAP	87	192	3
TAP	87	192	4
TAP	87	288	5
TAP	87	288	6
TAP	88	0	0
TAP	88	0	7
TAP	88	96	3
TAP	88	96	4
TAP	88	192	1
TAP	88	192	6
TTP	89	0	0	E	0	M1
TTP	89	0	0	C	1	M1
TTP	89	0	4	E	0	M1

T_REC_TAP	271
T_REC_BRK	6
T_REC_XTP	16
T_REC_HLD	91
T_REC_XHO	0
T_REC_STR	4
T_REC_BST	0
T_REC_XST	0
T_REC_TTP	167
T_REC_THO	1
T_REC_SLD	4
T_REC_ALL	560
T_NUM_TAP	458
T_NUM_BRK	6
T_NUM_HLD	92
T_NUM_SLD	4
T_NUM_ALL	560
T_JUDGE_TAP	464
T_JUDGE_HLD	127
T_JUDGE_SLD	4
T_JUDGE_ALL	595
TTM_EACHPAIRS	153
TTM_SCR_TAP	229000
TTM_SCR_BRK	15600
TTM_SCR_HLD	92000
TTM_SCR_SLD	6000
TTM_SCR_ALL	342600
TTM_SCR_S	331750
TTM_SCR_SS	342000
TTM_RAT_ACV	10017

