VERSION	0.00.00	1.03.00
FES_MODE	0
BPM_DEF	200.000	200.000	200.000	200.000
MET_DEF	4	4
RESOLUTION	384
CLK_DEF	378
COMPATIBLE_CODE	MA2

BPM	0	0	200.000
MET	0	0	4	4

TTP	1	0	5	B	0	L1
TTP	1	192	3	B	0	L1
TTP	2	0	1	B	0	L1
TTP	3	0	2	B	0	L1
TTP	3	192	4	B	0	L1
TTP	4	0	6	B	0	L1
TTP	5	0	5	B	0	L1
TTP	5	192	3	B	0	L1
TTP	6	0	2	B	0	L1
TTP	6	192	4	B	0	L1
TTP	7	0	2	B	0	L1
TTP	7	0	5	B	0	L1
TTP	7	192	1	B	0	L1
TTP	7	192	6	B	0	L1
TTP	8	0	0	C	1	L1
HLD	9	0	5	192
TAP	9	192	4
TAP	10	0	3
TAP	10	0	4
TAP	10	192	3
TAP	10	192	4
HLD	11	0	2	192
TAP	11	192	3
TAP	12	0	3
TAP	12	0	4
TAP	12	192	3
TAP	12	192	4
HLD	13	0	5	192
TAP	13	192	4
TAP	14	0	3
TAP	14	0	4
TAP	14	192	3
TAP	14	192	4
TAP	15	0	3
TAP	15	96	3
TAP	15	192	4
TAP	15	288	4
TAP	16	0	3
TAP	16	0	4
TAP	16	96	2
TAP	16	96	5
XTP	16	192	1
XTP	16	192	6
TAP	17	0	1
TAP	17	96	1
TAP	17	192	1
TAP	17	288	0
TAP	17	288	1
TAP	18	0	7
TAP	18	96	7
TAP	18	192	1
TAP	18	192	6
TAP	19	0	5
TAP	19	96	4
TAP	19	192	3
TAP	19	288	2
TAP	20	0	3
TAP	20	0	4
BRK	20	192	1
BRK	20	192	6
TAP	21	0	2
TAP	21	96	2
TAP	21	192	2
TAP	21	288	2
TAP	21	288	3
TAP	22	0	4
TAP	22	96	4
TAP	22	192	2
TAP	22	192	5
TAP	23	0	6
TAP	23	96	7
TAP	23	192	0
TAP	23	288	1
TAP	24	0	0
TAP	24	0	7
XTP	24	192	1
XTP	24	192	6
TAP	25	0	6
TAP	25	96	6
TAP	25	192	6
TAP	25	192	7
TAP	25	288	6
TAP	25	288	7
TAP	26	0	0
TAP	26	96	0
TAP	26	96	7
TAP	26	192	1
TAP	26	192	6
TAP	27	0	2
TAP	27	96	3
TAP	27	192	4
TAP	27	288	5
TAP	28	0	3
TAP	28	0	4
XTP	28	192	1
XTP	28	192	6
TAP	29	0	2
TAP	29	96	2
TAP	29	192	2
TAP	29	192	3
TAP	29	288	2
TAP	29	288	3
TAP	30	0	4
TAP	30	96	5
TAP	30	192	4
TAP	30	192	5
TAP	30	288	4
TAP	30	288	5
XTP	31	0	6
XTP	31	96	7
XTP	31	192	0
XTP	31	288	1
XTP	32	0	0
XTP	32	0	7
XTP	32	96	0
XTP	32	96	7
BRK	32	192	1
BRK	32	192	6
TTP	33	0	5	B	0	L1
TTP	33	192	3	B	0	L1
TTP	34	0	4	B	0	L1
TTP	35	0	2	B	0	L1
TTP	35	192	4	B	0	L1
TTP	36	0	3	B	0	L1
TTP	37	0	6	B	0	L1
TTP	37	192	4	B	0	L1
TTP	38	0	2	B	0	L1
TTP	38	192	0	B	0	L1
TTP	39	0	6	B	0	L1
THO	39	192	0	192	C	0	L1
STR	41	0	0
SI_	41	0	0	96	288	4
TAP	43	0	5
TAP	44	0	6
STR	45	0	6
SI_	45	0	6	96	288	2
TAP	47	0	1
TAP	48	0	0
TAP	49	0	1
TAP	49	96	0
TAP	49	96	1
TAP	49	192	7
TAP	49	288	0
TAP	49	288	7
TAP	50	0	6
TAP	50	96	6
TAP	50	96	7
TAP	50	192	0
TAP	50	192	5
HLD	51	0	5	96
TAP	51	96	4
HLD	51	192	3	96
TAP	51	288	4
STR	52	0	3
SI_	52	0	3	96	144	0
STR	52	0	4
SI_	52	0	4	96	144	7
TAP	53	0	6
TAP	53	96	6
TAP	53	96	7
TAP	53	192	0
TAP	53	288	0
TAP	53	288	7
TAP	54	0	1
TAP	54	96	0
TAP	54	96	1
TAP	54	192	2
TAP	54	192	7
HLD	55	0	2	96
TAP	55	96	3
HLD	55	192	4	96
TAP	55	288	3
TAP	56	0	3
TAP	56	0	4
TAP	56	96	2
TAP	56	96	5
BRK	56	192	1
BRK	56	192	6
TAP	57	0	1
TAP	57	96	0
TAP	57	96	1
TAP	57	192	2
TAP	57	288	2
TAP	57	288	3
TAP	58	0	4
TAP	58	96	3
TAP	58	96	4
TAP	58	192	2
TAP	58	192	5
HLD	59	0	5	96
TAP	59	96	4
HLD	59	192	2	96
TAP	59	288	3
STR	60	0	3
SI_	60	0	3	96	144	0
STR	60	0	4
SI_	60	0	4	96	144	7
TAP	61	0	6
TAP	61	96	6
TAP	61	96	7
TAP	61	192	5
TAP	61	288	4
TAP	61	288	5
TAP	62	0	3
TAP	62	96	3
TAP	62	96	4
TAP	62	192	2
TAP	62	192	5
HLD	63	0	2	96
TAP	63	96	3
HLD	63	192	5	96
TAP	63	288	4
TAP	64	0	3
TAP	64	0	4
TAP	64	96	2
TAP	64	96	5
BRK	64	192	1
BRK	64	192	6
STR	65	0	1
SI_	65	0	1	96	144	4
STR	66	0	5
SI_	66	0	5	96	144	7
STR	67	0	0
SI_	67	0	0	96	144	3
TAP	68	0	4
TAP	68	96	4
TAP	68	192	4
STR	69	0	5
SI_	69	0	5	96	144	0
STR	70	0	1
SI_	70	0	1	96	144	3
STR	71	0	4
SI_	71	0	4	96	144	7
XTP	72	0	0
XTP	72	96	0
BRK	72	192	0
TAP	73	0	0
TAP	73	96	1
TAP	73	192	2
TAP	73	288	2
TAP	73	288	3
TAP	74	0	4
TAP	74	96	5
XTP	74	192	6
XTP	74	192	7
TAP	75	0	5
TAP	75	96	4
TAP	75	192	3
TAP	75	288	3
TAP	75	288	4
TAP	76	0	2
TAP	76	96	1
XTP	76	192	1
XTP	76	192	7
TAP	77	0	7
TAP	77	96	6
TAP	77	192	5
TAP	77	288	4
TAP	77	288	5
TAP	78	0	3
TAP	78	96	2
XTP	78	192	0
XTP	78	192	1
TAP	79	0	2
TAP	79	96	3
TAP	79	192	4
TAP	79	288	3
TAP	79	288	4
TAP	80	0	5
TAP	80	96	6
XTP	80	192	0
XTP	80	192	6
TAP	81	0	7
TAP	81	96	6
TAP	81	192	5
TAP	81	288	4
TAP	82	0	3
TAP	82	96	2
TAP	82	192	1
XTP	82	288	0
XTP	82	288	7
TAP	83	0	0
TAP	83	96	1
TAP	83	192	2
TAP	83	288	3
TAP	84	0	4
TAP	84	96	5
TAP	84	192	6
XTP	84	288	0
XTP	84	288	7
TAP	85	0	7
TAP	85	96	6
TAP	85	192	5
TAP	85	288	4
TAP	86	0	3
TAP	86	96	2
TAP	86	192	1
TAP	86	288	0
XTP	87	0	7
XTP	87	96	7
XTP	87	192	0
XTP	87	288	0
XTP	88	0	0
XTP	88	0	7
XTP	88	96	1
XTP	88	96	6
BRK	88	192	2
BRK	88	192	5
TTP	89	0	0	C	1	L1

T_REC_TAP	199
T_REC_BRK	11
T_REC_XTP	36
T_REC_HLD	11
T_REC_XHO	0
T_REC_STR	12
T_REC_BST	0
T_REC_XST	0
T_REC_TTP	27
T_REC_THO	1
T_REC_SLD	12
T_REC_ALL	309
T_NUM_TAP	274
T_NUM_BRK	11
T_NUM_HLD	12
T_NUM_SLD	12
T_NUM_ALL	309
T_JUDGE_TAP	285
T_JUDGE_HLD	32
T_JUDGE_SLD	12
T_JUDGE_ALL	329
TTM_EACHPAIRS	67
TTM_SCR_TAP	137000
TTM_SCR_BRK	28600
TTM_SCR_HLD	12000
TTM_SCR_SLD	18000
TTM_SCR_ALL	195600
TTM_SCR_S	188700
TTM_SCR_SS	194500
TTM_RAT_ACV	10056

