VERSION	0.00.00	1.03.00
FES_MODE	0
BPM_DEF	156.000	186.000	186.000	108.727
MET_DEF	4	4
RESOLUTION	384
CLK_DEF	384
COMPATIBLE_CODE	MA2

BPM	0	0	156.000
BPM	2	0	161.000
BPM	2	192	167.000
BPM	2	288	161.000
BPM	3	0	160.000
BPM	3	96	166.000
BPM	3	288	162.000
BPM	4	96	171.000
BPM	4	192	156.000
BPM	4	288	135.000
BPM	5	0	145.000
BPM	6	0	155.000
BPM	6	96	165.000
BPM	6	288	150.000
BPM	7	0	130.000
BPM	7	96	155.000
BPM	7	192	129.000
BPM	7	288	141.000
BPM	9	96	186.000
BPM	66	0	178.478
BPM	66	96	168.416
BPM	66	192	162.607
BPM	66	288	140.856
BPM	67	0	126.931
BPM	67	96	108.727
BPM	67	192	119.510
BPM	68	0	186.000
MET	0	0	4	4
MET	9	0	2	4
MET	9	192	4	4

TTP	2	0	2	B	0	M1
TTP	3	0	5	B	0	M1
TTP	4	0	0	B	0	M1
TTP	4	0	7	B	0	M1
TTP	4	192	1	B	0	M1
TTP	4	192	6	B	0	M1
TTP	5	0	2	B	0	M1
TTP	5	0	5	B	0	M1
TTP	5	192	0	C	0	M1
TTP	5	192	3	B	0	M1
TTP	5	192	4	B	0	M1
TTP	6	0	0	E	0	M1
TTP	6	0	7	B	0	M1
TTP	6	192	5	B	0	M1
TTP	6	192	6	E	0	M1
TTP	7	0	3	B	0	M1
TTP	7	0	4	E	0	M1
TTP	7	144	1	B	0	M1
TTP	7	168	2	B	0	M1
TTP	7	192	3	B	0	M1
THO	7	288	0	480	C	0	M1
TTP	7	288	1	B	0	M1
TTP	7	288	2	B	0	M1
TTP	7	288	5	B	0	M1
TTP	7	288	6	B	0	M1
TAP	9	96	6
TAP	9	96	7
XTP	9	192	0
XTP	9	192	5
XTP	9	240	0
XTP	9	240	5
TAP	10	0	1
TAP	10	24	0
TAP	10	48	1
TAP	10	72	0
TAP	10	96	1
TAP	10	144	2
XTP	10	192	3
XTP	10	192	6
XTP	10	240	3
XTP	10	240	6
TAP	11	0	6
TAP	11	24	7
TAP	11	48	6
TAP	11	72	7
TAP	11	96	6
TAP	11	144	5
XTP	11	192	1
XTP	11	192	4
XTP	11	240	1
XTP	11	240	4
TAP	12	0	1
TAP	12	24	0
TAP	12	48	1
TAP	12	72	0
TAP	12	96	1
TAP	12	144	2
XTP	12	192	3
XTP	12	192	6
XTP	12	240	3
XTP	12	240	6
TAP	12	288	7
TAP	12	312	0
TAP	12	336	7
TAP	12	360	0
STR	13	0	7
SI_	13	0	7	96	48	3
BRK	13	96	0
TAP	13	192	4
TAP	13	240	5
TAP	13	288	3
HLD	13	288	6	96
TAP	14	0	7
TAP	14	24	6
TAP	14	48	7
TAP	14	72	6
TAP	14	96	7
TAP	14	144	5
TAP	14	192	3
TAP	14	240	2
HLD	14	288	1	96
TAP	14	288	4
TAP	15	0	0
TAP	15	24	1
TAP	15	48	0
TAP	15	72	1
TAP	15	96	0
TAP	15	144	2
XTP	15	192	3
TAP	15	216	4
TAP	15	240	3
TAP	15	264	4
TAP	15	288	3
XTP	15	336	6
TAP	15	360	4
TAP	16	0	6
TAP	16	24	4
TAP	16	48	6
XTP	16	96	1
TAP	16	120	3
TAP	16	144	1
TAP	16	168	3
TAP	16	192	1
XTP	16	240	7
TAP	16	264	0
TAP	16	288	7
TAP	16	312	0
BRK	16	336	1
BRK	16	336	6
TAP	17	192	2
TAP	17	192	3
TAP	17	288	2
TAP	17	336	3
TAP	18	0	2
TAP	18	0	3
TAP	18	96	2
TAP	18	144	3
TAP	18	192	2
TAP	18	192	3
TAP	18	288	1
TAP	18	288	3
TAP	19	0	2
TAP	19	0	3
TAP	19	96	3
TAP	19	96	4
TAP	19	192	4
TAP	19	192	5
TAP	19	288	5
TAP	19	336	4
TAP	20	0	4
TAP	20	0	5
TAP	20	96	5
TAP	20	144	4
TAP	20	192	4
TAP	20	192	5
TAP	20	288	4
TAP	20	288	6
TAP	21	0	4
TAP	21	0	5
TAP	21	96	2
STR	21	96	3
SCR	21	96	3	96	96	7
TAP	21	192	1
TAP	21	288	2
TAP	22	0	3
STR	22	96	4
SCL	22	96	4	96	96	0
TAP	22	96	5
TAP	22	192	6
TAP	22	288	5
TAP	23	0	4
TAP	23	96	2
TAP	23	96	3
TAP	23	192	1
TAP	23	192	3
TAP	23	288	3
TAP	23	288	5
TAP	23	336	4
TAP	24	0	3
TAP	24	96	2
TAP	24	96	4
TAP	24	144	3
TAP	24	192	4
TAP	24	240	4
TAP	24	288	3
TAP	24	336	3
TAP	25	0	5
TAP	25	24	4
TAP	25	48	5
XTP	25	96	3
XTP	25	96	6
TAP	25	192	2
TAP	25	192	3
TAP	25	288	2
TAP	25	336	3
TAP	26	0	2
TAP	26	0	4
TAP	26	96	2
TAP	26	144	3
TAP	26	192	2
STR	26	192	4
SCR	26	192	4	96	96	6
TAP	26	288	3
TAP	27	0	4
TAP	27	96	4
TAP	27	96	5
TAP	27	192	3
TAP	27	192	5
TAP	27	288	5
TAP	27	336	4
TAP	28	0	3
TAP	28	0	5
TAP	28	96	5
TAP	28	144	4
STR	28	192	3
SCL	28	192	3	96	96	1
TAP	28	192	5
TAP	28	288	4
TAP	29	0	3
STR	29	96	2
SCL	29	96	2	96	96	6
TAP	29	96	3
TAP	29	192	6
TAP	29	288	4
TAP	29	336	4
TAP	30	0	4
TAP	30	96	4
STR	30	96	5
SCR	30	96	5	96	96	1
TAP	30	192	1
TAP	30	288	3
TAP	30	336	3
TAP	31	0	3
TAP	31	96	2
TAP	31	96	3
TAP	31	192	4
TAP	31	192	5
TAP	31	288	1
TAP	31	288	3
TAP	31	336	2
TAP	32	0	4
TAP	32	96	4
TAP	32	96	6
TAP	32	144	5
TAP	32	192	3
TAP	32	240	3
TAP	32	288	4
TAP	32	336	4
TAP	33	0	2
TAP	33	24	3
TAP	33	48	2
XTP	33	96	1
XTP	33	96	4
HLD	33	192	6	96
TAP	33	192	7
TAP	33	288	2
HLD	33	336	1	96
TAP	33	336	3
TAP	34	48	4
HLD	34	96	3	192
HLD	34	96	5	192
TAP	35	0	6
TAP	35	0	7
TAP	35	96	2
TAP	35	96	3
TAP	35	192	0
HLD	35	192	1	96
TAP	35	288	5
TAP	35	336	4
HLD	35	336	6	96
TAP	36	48	3
HLD	36	96	2	192
HLD	36	96	4	192
TTP	37	0	1	E	0	M1
TTP	37	32	2	E	0	M1
TTP	37	64	3	E	0	M1
TTP	37	96	7	E	0	M1
TTP	37	128	6	E	0	M1
TTP	37	160	5	E	0	M1
HLD	37	192	1	576
TTP	37	288	0	E	0	M1
TTP	38	0	2	E	0	M1
TTP	38	96	6	E	0	M1
TTP	38	192	4	E	0	M1
TTP	39	0	0	C	0	M1
TAP	39	192	2
TAP	39	192	3
TAP	39	240	2
TAP	39	240	3
TAP	39	288	1
TAP	39	288	4
TAP	39	336	1
TAP	39	336	4
TAP	40	0	0
TAP	40	0	5
TAP	40	48	0
TAP	40	48	5
TAP	40	96	6
TAP	40	96	7
TAP	40	144	6
TAP	40	144	7
BRK	40	192	0
BRK	40	192	5
STR	41	0	1
SI_	41	0	1	96	48	4
TAP	41	0	5
BRK	41	96	1
STR	41	96	6
SI_	41	96	6	96	48	3
TAP	41	192	2
BRK	41	192	6
STR	41	288	0
SI_	41	288	0	96	48	4
TAP	41	336	7
TAP	42	0	0
TAP	42	0	6
TAP	42	72	5
STR	42	96	5
SI_	42	96	5	96	48	0
TAP	42	144	4
TAP	42	192	3
TAP	42	192	5
TAP	42	264	1
TAP	42	288	1
TAP	42	336	7
TAP	43	0	4
TAP	43	0	6
TAP	43	96	3
TAP	43	96	4
TAP	43	144	2
TAP	43	192	0
HLD	43	192	1	96
TTP	43	288	0	E	0	M1
TAP	43	336	1
TTP	44	0	6	E	0	M1
TAP	44	48	1
TTP	44	96	4	E	0	M1
TAP	44	144	1
STR	44	192	4
SI_	44	192	4	96	48	0
TAP	44	288	0
TAP	45	0	2
TAP	45	0	6
STR	45	96	0
SI_	45	96	0	96	48	4
SI_	45	96	0	96	48	5
TAP	45	96	7
TAP	45	192	0
TAP	45	288	0
STR	45	288	7
SI_	45	288	7	96	48	2
SI_	45	288	7	96	48	3
TAP	46	0	7
STR	46	96	1
SI_	46	96	1	96	48	5
TAP	46	144	1
STR	46	192	4
SI_	46	192	4	96	48	7
TAP	46	240	4
TAP	46	288	1
TAP	46	336	2
TAP	47	0	3
TAP	47	0	7
TAP	47	96	1
TAP	47	96	4
TAP	47	144	0
TAP	47	144	5
TAP	47	192	6
TAP	47	192	7
TAP	47	240	5
TAP	47	264	4
TAP	47	288	5
TAP	47	336	6
TAP	47	360	7
TAP	48	0	6
TAP	48	48	5
TAP	48	72	3
TAP	48	96	5
TAP	48	144	6
TAP	48	168	0
TAP	48	192	6
TAP	48	240	5
TAP	48	240	7
TAP	48	288	0
TAP	48	288	4
TAP	48	336	1
TAP	48	336	3
HLD	49	0	2	96
TTP	49	96	0	C	1	M1
XST	49	192	0
SI_	49	192	0	96	48	5
XST	49	192	1
SI_	49	192	1	96	48	4
BRK	49	288	0
BRK	49	288	1
TAP	50	0	2
TAP	50	0	6
TAP	50	72	3
STR	50	96	3
SI_	50	96	3	96	48	7
TAP	50	144	4
TAP	50	192	3
TAP	50	192	5
TAP	50	264	6
TAP	50	288	6
TAP	50	336	0
TAP	51	0	1
TAP	51	0	3
TAP	51	96	3
TAP	51	96	4
TAP	51	144	5
HLD	51	192	6	96
TAP	51	192	7
TTP	51	288	0	E	0	M1
TAP	51	336	6
TTP	52	0	2	E	0	M1
TAP	52	48	6
TTP	52	96	4	E	0	M1
TAP	52	144	6
STR	52	192	4
SI_	52	192	4	96	48	0
STR	52	192	5
SI_	52	192	5	96	48	0
XTP	52	288	4
XTP	52	288	5
BRK	53	0	2
BRK	53	0	6
TAP	53	96	0
STR	53	96	7
SI_	53	96	7	96	48	2
SI_	53	96	7	96	48	3
TAP	53	192	7
STR	53	288	0
SI_	53	288	0	96	48	4
SI_	53	288	0	96	48	5
TAP	53	288	7
TAP	54	0	0
STR	54	96	6
SI_	54	96	6	96	48	2
TAP	54	144	6
STR	54	192	3
SI_	54	192	3	96	48	0
TAP	54	240	3
TAP	54	288	6
TAP	54	336	5
TAP	55	0	0
TAP	55	0	4
TAP	55	96	3
TAP	55	96	6
TAP	55	144	2
TAP	55	144	7
TAP	55	192	0
TAP	55	192	1
TAP	55	240	2
TAP	55	264	3
TAP	55	288	2
TAP	55	336	1
TAP	55	360	0
TAP	56	0	1
TAP	56	48	2
TAP	56	72	4
TAP	56	96	2
TAP	56	144	1
TAP	56	168	7
TAP	56	192	1
TAP	56	240	0
TAP	56	240	2
TAP	56	288	3
TAP	56	288	7
TAP	56	336	4
TAP	56	336	6
HLD	57	0	5	96
TTP	57	96	0	C	1	M1
XST	57	192	6
SI_	57	192	6	96	48	2
XST	57	192	7
SI_	57	192	7	96	48	3
BRK	57	288	6
BRK	57	288	7
TAP	58	0	0
TAP	58	0	5
TAP	58	72	4
STR	58	96	4
SI_	58	96	4	96	48	0
TAP	58	144	3
TAP	58	192	1
TAP	58	192	4
TAP	58	264	2
TAP	58	288	2
TAP	58	336	4
TAP	59	0	5
TAP	59	0	7
TAP	59	96	3
TAP	59	96	4
TAP	59	144	2
TAP	59	192	0
HLD	59	192	1	96
TTP	59	288	0	E	0	M1
TTP	59	288	7	B	0	M1
TAP	59	336	1
TTP	60	0	5	B	0	M1
TTP	60	0	6	E	0	M1
TAP	60	48	1
TTP	60	96	3	B	0	M1
TTP	60	96	4	E	0	M1
TAP	60	144	1
STR	60	192	2
SI_	60	192	2	96	48	7
STR	60	192	6
SI_	60	192	6	96	48	3
XTP	60	288	2
XTP	60	288	6
BRK	61	0	1
BRK	61	0	5
STR	61	96	2
SI_	61	96	2	96	48	0
SI_	61	96	2	96	48	7
TAP	61	96	3
TAP	61	192	2
TAP	61	288	4
STR	61	288	5
SI_	61	288	5	96	48	0
SI_	61	288	5	96	48	7
TAP	62	0	5
STR	62	96	1
SUL	62	96	1	96	48	5
TAP	62	144	1
STR	62	192	4
SCR	62	192	4	96	48	7
TAP	62	240	4
TAP	62	288	1
TAP	62	336	2
TAP	63	0	3
TAP	63	0	7
TAP	63	96	2
TAP	63	96	3
TAP	63	144	1
TAP	63	144	4
TAP	63	192	0
TAP	63	192	5
TAP	63	240	6
TAP	63	264	7
TAP	63	288	6
TAP	63	336	5
TAP	63	360	4
TAP	64	0	5
TAP	64	48	6
TAP	64	72	0
TAP	64	96	6
TAP	64	144	5
TAP	64	168	3
TAP	64	192	5
TAP	64	240	4
TAP	64	240	6
TAP	64	288	3
TAP	64	288	7
TAP	64	336	0
TAP	64	336	2
HLD	65	0	1	96
TTP	65	96	0	C	1	M1
STR	65	192	2
SI_	65	192	2	96	48	7
TAP	65	192	3
TAP	65	288	2
STR	65	288	5
SI_	65	288	5	96	48	0
TAP	66	0	1
TAP	66	0	5
BRK	66	96	2
HLD	66	96	6	432
TTP	66	192	2	E	0	M1
TTP	66	240	3	E	0	M1
TTP	66	288	4	E	0	M1
TTP	66	336	5	E	0	M1
TTP	67	0	6	E	0	M1
TTP	67	48	7	E	0	M1
TTP	67	96	0	E	0	M1
THO	67	144	0	240	C	0	M1
STR	68	0	7
SI_	68	0	7	96	48	3
BRK	68	96	7
TAP	68	192	1
TAP	68	216	0
TAP	68	240	1
TAP	68	264	0
TAP	68	288	3
TAP	68	312	4
TAP	68	336	3
TAP	68	360	4
TAP	69	0	7
TAP	69	24	6
TAP	69	48	7
TAP	69	72	6
TAP	69	96	3
TAP	69	120	4
TAP	69	144	3
XTP	69	192	0
XTP	69	192	1
XTP	69	240	2
XTP	69	240	3
XTP	69	288	4
XTP	69	288	5
XTP	69	336	6
XTP	69	336	7
XST	70	0	0
SF_	70	0	0	96	48	4
XTP	70	0	1
BRK	70	96	0
TAP	70	192	3
TAP	70	192	5
TAP	70	240	2
HLD	70	288	1	96
TAP	70	288	3
TAP	71	0	0
TAP	71	24	2
TAP	71	48	0
TAP	71	72	2
TAP	71	96	0
TAP	71	144	3
TAP	71	192	2
TAP	71	192	4
TAP	71	240	5
TAP	71	288	4
HLD	71	288	6	96
TAP	72	0	7
TAP	72	24	5
TAP	72	48	7
TAP	72	72	5
TAP	72	96	7
TAP	72	144	4
TAP	72	192	3
TAP	72	192	5
TAP	72	240	2
HLD	72	288	1	96
TAP	72	288	3
TAP	73	0	0
TAP	73	24	2
TAP	73	48	0
TAP	73	72	2
TAP	73	96	0
TAP	73	144	3
TAP	73	192	2
TAP	73	192	5
TAP	73	240	1
TAP	73	240	6
TAP	73	288	7
TAP	73	312	0
TAP	73	336	7
TAP	73	360	0
STR	74	0	7
SI_	74	0	7	96	48	2
SI_	74	0	7	96	48	4
BRK	74	96	7
TAP	74	192	0
TAP	74	192	7
TAP	74	240	6
HLD	74	288	4	96
TAP	74	288	5
TAP	75	0	5
TAP	75	24	4
TAP	75	48	5
TAP	75	72	6
TAP	75	96	5
TAP	75	144	1
TAP	75	192	0
TAP	75	192	7
TAP	75	240	1
TAP	75	288	2
HLD	75	288	3	96
TAP	76	0	2
TAP	76	24	3
TAP	76	48	2
TAP	76	72	1
TAP	76	96	2
TAP	76	144	6
XTP	76	192	3
TAP	76	216	4
TAP	76	240	3
TAP	76	264	4
TAP	76	288	3
XTP	76	336	6
TAP	76	360	4
TAP	77	0	6
TAP	77	24	4
TAP	77	48	6
XTP	77	96	1
TAP	77	120	3
TAP	77	144	1
TAP	77	168	3
TAP	77	192	1
XTP	77	240	7
TAP	77	264	0
TAP	77	288	7
TAP	77	312	0
BRK	77	336	7
TAP	78	0	2
TAP	78	0	4
TAP	78	48	2
TAP	78	48	4
TAP	78	96	3
TAP	78	96	5
TAP	78	144	3
TAP	78	144	5
XTP	78	192	2
TAP	78	216	3
TAP	78	240	2
TAP	78	264	1
TAP	78	288	2
XTP	78	336	5
TAP	78	360	4
TAP	79	0	5
TAP	79	24	6
TAP	79	48	5
XTP	79	96	1
TAP	79	120	0
TAP	79	144	1
TAP	79	168	2
TAP	79	192	1
XST	79	240	6
SI_	79	240	6	96	48	2
TAP	79	264	7
TAP	79	288	6
TAP	79	312	5
BRK	79	336	6

T_REC_TAP	470
T_REC_BRK	21
T_REC_XTP	44
T_REC_HLD	23
T_REC_XHO	0
T_REC_STR	34
T_REC_BST	0
T_REC_XST	6
T_REC_TTP	57
T_REC_THO	2
T_REC_SLD	47
T_REC_ALL	704
T_NUM_TAP	611
T_NUM_BRK	21
T_NUM_HLD	25
T_NUM_SLD	47
T_NUM_ALL	704
T_JUDGE_TAP	632
T_JUDGE_HLD	92
T_JUDGE_SLD	47
T_JUDGE_ALL	771
TTM_EACHPAIRS	142
TTM_SCR_TAP	305500
TTM_SCR_BRK	54600
TTM_SCR_HLD	25000
TTM_SCR_SLD	70500
TTM_SCR_ALL	455600
TTM_SCR_S	439900
TTM_SCR_SS	453500
TTM_RAT_ACV	10046

