VERSION	0.00.00	1.03.00
FES_MODE	0
BPM_DEF	156.000	186.000	186.000	114.000
MET_DEF	4	4
RESOLUTION	384
CLK_DEF	384
COMPATIBLE_CODE	MA2

BPM	0	0	156.000
BPM	2	0	161.000
BPM	2	192	167.000
BPM	2	288	161.000
BPM	3	0	160.000
BPM	3	96	166.000
BPM	3	288	162.000
BPM	4	96	171.000
BPM	4	192	156.000
BPM	4	288	135.000
BPM	5	0	145.000
BPM	6	0	155.000
BPM	6	96	165.000
BPM	6	288	150.000
BPM	7	0	130.000
BPM	7	96	155.000
BPM	7	192	129.000
BPM	7	288	141.000
BPM	9	96	186.000
BPM	66	96	175.000
BPM	66	192	160.000
BPM	66	288	150.000
BPM	67	0	122.000
BPM	67	288	114.000
BPM	68	0	170.000
BPM	68	192	186.000
MET	0	0	4	4
MET	9	0	2	4
MET	9	192	4	4

STR	2	0	0
SCR	2	0	0	96	360	5
STR	4	0	7
SCL	4	0	7	96	360	2
STR	6	0	0
SCR	6	0	0	96	840	7
STR	6	0	7
SCL	6	0	7	96	840	0
TAP	9	192	6
TAP	9	192	7
TAP	9	240	6
TAP	9	240	7
TAP	10	0	5
TAP	10	96	2
TAP	10	96	4
TAP	10	192	0
TAP	10	192	1
TAP	10	240	0
TAP	10	240	1
TAP	11	0	2
TAP	11	96	3
TAP	11	96	5
TAP	11	192	1
TAP	11	192	6
TAP	11	240	1
TAP	11	240	6
TAP	12	0	0
TAP	12	0	7
TAP	12	96	2
TAP	12	96	5
TAP	12	192	2
TAP	12	192	3
TAP	12	288	4
TAP	12	288	5
BRK	13	0	1
BRK	13	0	6
HLD	13	192	1	288
TAP	13	288	3
TAP	14	0	2
TAP	14	96	3
HLD	14	192	6	288
TAP	14	288	4
TAP	15	0	5
TAP	15	96	4
XTP	15	192	0
XTP	15	192	2
XTP	15	336	5
XTP	15	336	7
XTP	16	96	3
XTP	16	96	4
XST	16	240	1
SCR	16	240	1	96	144	4
XTP	16	240	6
TAP	17	192	4
HLD	17	192	5	192
TTP	18	0	4	B	0	M1
HLD	18	192	2	192
TAP	18	192	3
TTP	19	0	3	B	0	M1
TAP	19	192	4
HLD	19	192	5	192
TTP	20	0	4	B	0	M1
HLD	20	192	2	192
TAP	20	192	3
TTP	21	0	3	B	0	M1
TAP	21	192	3
HLD	21	192	6	192
TTP	22	0	4	B	0	M1
HLD	22	192	1	192
TAP	22	192	4
TTP	23	0	3	B	0	M1
TTP	23	192	2	B	0	M1
TTP	23	192	5	B	0	M1
TTP	24	0	0	C	0	M1
TTP	24	192	1	E	0	M1
TTP	24	192	7	E	0	M1
XTP	25	0	0
XTP	25	0	7
HLD	25	192	2	384
TAP	25	288	3
TAP	26	0	3
TAP	26	96	4
HLD	26	192	5	96
TAP	26	288	4
TAP	27	0	3
TAP	27	0	6
HLD	27	192	5	384
TAP	27	288	4
TAP	28	0	4
TAP	28	96	3
HLD	28	192	2	96
TAP	28	288	3
TAP	29	0	1
TAP	29	0	4
TAP	29	192	1
TAP	29	288	1
TAP	30	0	2
TAP	30	0	4
TAP	30	96	5
TAP	30	192	1
TAP	30	192	6
TAP	30	288	6
TAP	31	0	3
TAP	31	0	5
TAP	31	96	2
STR	31	192	1
SCR	31	192	1	96	192	6
TAP	32	192	0
TAP	32	192	7
TAP	32	288	1
TAP	32	288	6
XTP	33	0	2
XTP	33	0	5
HLD	33	192	1	144
HLD	33	336	3	144
BRK	34	96	7
HLD	35	192	6	144
HLD	35	336	4	144
BRK	36	96	0
TAP	37	192	0
STR	37	192	1
SCR	37	192	1	96	144	4
STR	38	192	6
SCL	38	192	6	96	144	3
TAP	38	192	7
TAP	39	192	0
TAP	39	192	7
TAP	39	288	0
TAP	39	288	7
TAP	40	0	1
TAP	40	0	6
TAP	40	96	2
TAP	40	96	5
TTP	40	192	0	C	1	M1
TAP	41	192	0
TAP	41	192	1
TAP	41	288	2
TAP	41	288	4
TAP	42	0	6
TAP	42	0	7
TAP	42	96	3
TAP	42	96	5
TAP	42	192	4
TAP	42	240	4
TAP	42	288	2
BRK	43	0	1
BRK	43	0	6
TAP	43	192	0
TAP	43	192	7
TAP	43	288	4
TAP	43	288	5
TAP	44	0	0
TAP	44	0	7
TAP	44	96	2
TAP	44	96	3
TAP	44	192	4
TAP	44	192	6
TAP	44	288	1
TAP	44	288	3
BRK	45	0	2
BRK	45	0	5
TAP	45	192	2
TAP	45	192	3
TAP	45	288	1
TAP	45	288	7
TAP	46	0	4
TAP	46	0	5
TAP	46	96	0
TAP	46	96	6
TAP	46	192	7
TAP	46	240	7
TAP	46	288	1
BRK	47	0	2
BRK	47	0	6
XTP	47	192	1
XTP	47	240	1
XTP	47	288	4
XTP	47	336	4
XTP	48	0	3
XTP	48	48	3
XTP	48	96	7
XTP	48	192	0
XTP	48	192	6
XTP	48	288	1
XTP	48	288	7
BRK	49	0	2
BRK	49	0	5
TAP	49	192	0
TAP	49	192	7
XTP	49	288	1
XTP	49	288	6
TAP	50	0	2
TAP	50	0	3
TAP	50	96	0
TAP	50	96	5
TAP	50	192	6
TAP	50	240	6
TAP	50	288	3
BRK	51	0	1
BRK	51	0	5
TAP	51	192	1
TAP	51	240	1
TAP	51	288	3
TAP	52	0	6
TAP	52	48	6
TAP	52	96	4
TAP	52	192	0
TAP	52	192	2
TAP	52	288	5
TAP	52	288	7
BRK	53	0	1
BRK	53	0	6
TAP	53	192	3
TAP	53	192	4
TAP	53	288	2
TAP	53	288	5
TAP	54	0	6
TAP	54	0	7
TAP	54	96	1
TAP	54	96	4
TAP	54	192	2
TAP	54	240	2
TAP	54	288	7
BRK	55	0	1
BRK	55	0	5
XTP	55	192	5
XTP	55	240	5
XTP	55	288	0
XTP	55	336	0
XTP	56	0	7
XTP	56	48	7
XTP	56	96	3
XTP	56	192	1
XTP	56	192	4
XTP	56	288	3
XTP	56	288	6
BRK	57	0	1
BRK	57	0	6
TAP	57	192	0
TAP	57	192	7
XTP	57	288	1
XTP	57	288	6
TAP	58	0	5
TAP	58	48	5
TAP	58	96	7
TAP	58	192	2
TAP	58	240	2
TAP	58	288	0
BRK	59	0	1
BRK	59	0	6
TAP	59	192	5
TAP	59	240	4
TAP	59	288	6
TAP	60	0	2
TAP	60	48	3
TAP	60	96	1
TAP	60	192	0
TAP	60	192	2
TAP	60	288	5
TAP	60	288	7
BRK	61	0	1
BRK	61	0	6
TAP	61	192	1
TAP	61	240	0
TAP	61	288	2
TAP	62	0	6
TAP	62	48	7
TAP	62	96	5
TAP	62	192	4
TAP	62	192	6
TAP	62	288	1
TAP	62	288	3
BRK	63	0	2
BRK	63	0	5
XTP	63	192	6
XTP	63	240	6
XTP	63	288	1
XTP	63	336	1
XTP	64	0	4
XTP	64	48	4
XTP	64	96	7
XTP	64	192	5
XTP	64	192	7
XTP	64	288	0
XTP	64	288	2
BRK	65	0	1
BRK	65	0	6
TAP	65	192	6
STR	65	192	7
SI_	65	192	7	96	48	2
STR	66	0	0
SI_	66	0	0	96	48	5
TAP	66	0	1
XTP	66	192	2
XTP	66	240	3
XTP	66	288	4
XTP	66	336	5
XHO	67	0	1	192
XHO	67	0	6	192
TAP	68	0	0
TAP	68	0	2
TAP	68	96	5
TAP	68	96	7
XTP	68	192	0
XTP	68	240	0
XTP	68	288	5
XTP	68	336	5
XTP	69	0	2
XTP	69	48	2
XTP	69	96	7
TAP	69	192	0
TAP	69	192	7
TAP	69	288	3
TAP	69	288	4
BRK	70	0	1
BRK	70	0	5
HLD	70	192	1	192
TTP	70	288	7	B	0	M1
TTP	71	0	4	B	0	M1
HLD	71	192	6	192
TTP	71	288	0	B	0	M1
TTP	72	0	3	B	0	M1
TTP	72	192	5	B	0	M1
TTP	72	288	4	B	0	M1
TTP	73	0	3	B	0	M1
TTP	73	96	2	B	0	M1
HLD	73	192	2	96
HLD	73	192	5	96
TTP	74	0	0	B	0	M1
TTP	74	0	1	B	0	M1
TTP	74	0	6	B	0	M1
TTP	74	0	7	B	0	M1
HLD	74	192	5	192
TTP	74	288	4	B	0	M1
TTP	75	0	0	B	0	M1
HLD	75	192	2	192
TTP	75	288	3	B	0	M1
TTP	76	0	7	B	0	M1
XTP	76	192	0
XTP	76	192	2
XTP	76	336	5
XTP	76	336	7
XTP	77	96	3
XTP	77	96	4
XST	77	240	1
SCR	77	240	1	96	144	4
XTP	77	240	6
XTP	78	192	5
XTP	78	192	6
XTP	78	336	1
XTP	78	336	2
XTP	79	96	3
XTP	79	96	4
TTP	79	240	0	C	1	M1

T_REC_TAP	177
T_REC_BRK	30
T_REC_XTP	72
T_REC_HLD	22
T_REC_XHO	2
T_REC_STR	9
T_REC_BST	0
T_REC_XST	2
T_REC_TTP	29
T_REC_THO	0
T_REC_SLD	11
T_REC_ALL	354
T_NUM_TAP	289
T_NUM_BRK	30
T_NUM_HLD	24
T_NUM_SLD	11
T_NUM_ALL	354
T_JUDGE_TAP	319
T_JUDGE_HLD	96
T_JUDGE_SLD	11
T_JUDGE_ALL	426
TTM_EACHPAIRS	103
TTM_SCR_TAP	144500
TTM_SCR_BRK	78000
TTM_SCR_HLD	24000
TTM_SCR_SLD	16500
TTM_SCR_ALL	263000
TTM_SCR_S	252200
TTM_SCR_SS	260000
TTM_RAT_ACV	10115

