VERSION	0.00.00	1.03.00
FES_MODE	0
BPM_DEF	156.000	186.000	186.000	114.000
MET_DEF	4	4
RESOLUTION	384
CLK_DEF	381
COMPATIBLE_CODE	MA2

BPM	0	0	156.000
BPM	2	0	161.000
BPM	2	192	167.000
BPM	2	288	161.000
BPM	3	0	160.000
BPM	3	96	166.000
BPM	3	288	162.000
BPM	4	96	171.000
BPM	4	192	156.000
BPM	4	288	135.000
BPM	5	0	145.000
BPM	6	0	155.000
BPM	6	96	165.000
BPM	6	288	150.000
BPM	7	0	130.000
BPM	7	96	155.000
BPM	7	192	129.000
BPM	7	288	141.000
BPM	9	96	186.000
BPM	66	96	175.000
BPM	66	192	160.000
BPM	66	288	150.000
BPM	67	0	122.000
BPM	67	288	114.000
BPM	68	0	170.000
BPM	68	192	186.000
MET	0	0	4	4
MET	9	0	2	4
MET	9	192	4	4

TTP	2	0	6	B	0	L1
TTP	3	0	0	C	0	L1
TTP	4	0	2	B	0	L1
TTP	5	0	1	B	0	L1
THO	6	0	0	672	C	1	L1
TAP	9	192	7
TAP	9	288	7
TAP	10	0	0
TAP	10	0	6
TAP	10	192	0
TAP	10	288	0
TAP	11	0	1
TAP	11	0	7
TAP	11	192	7
TAP	11	288	7
TAP	12	0	0
TAP	12	0	6
TAP	12	192	7
TAP	12	288	0
TAP	12	288	7
TAP	13	0	1
TAP	13	0	6
TAP	13	192	1
TAP	13	288	0
TAP	14	0	1
TAP	14	0	7
TAP	14	192	6
TAP	14	288	7
TAP	15	0	0
TAP	15	0	6
TAP	15	192	0
TAP	15	288	0
TAP	16	0	7
TAP	16	96	7
XTP	16	192	0
XTP	16	192	7
XTP	16	288	0
XTP	16	288	7
BRK	17	0	1
BRK	17	0	6
HLD	17	192	5	192
TAP	18	0	4
HLD	18	192	2	192
TAP	19	0	3
HLD	19	192	5	192
TAP	20	0	4
TAP	20	96	4
TAP	20	192	5
TAP	20	288	5
XTP	21	0	4
XTP	21	0	5
HLD	21	192	2	192
TAP	22	0	3
HLD	22	192	5	192
TAP	23	0	4
HLD	23	192	2	192
TAP	24	0	3
TAP	24	96	3
TAP	24	192	2
TAP	24	288	2
XTP	25	0	1
XTP	25	0	3
TAP	25	192	5
TAP	25	288	5
TAP	26	0	4
TAP	26	192	2
TAP	26	288	2
TAP	27	0	3
TAP	27	192	5
TAP	27	288	5
TAP	28	0	4
TAP	28	96	4
TAP	28	192	3
TAP	28	288	2
XTP	29	0	1
XTP	29	0	3
TAP	29	192	2
TAP	29	288	2
TAP	30	0	3
TAP	30	192	5
TAP	30	288	5
TAP	31	0	4
TAP	31	192	2
TAP	31	288	2
TAP	32	0	1
TAP	32	96	1
TAP	32	192	0
TAP	32	288	7
BRK	33	0	1
BRK	33	0	6
STR	33	192	7
SI_	33	192	7	96	240	4
TAP	35	0	3
TAP	35	96	3
STR	35	192	3
SI_	35	192	3	96	240	0
TAP	37	0	7
TAP	37	96	7
STR	37	192	0
SCR	37	192	0	96	240	3
STR	37	192	7
SCL	37	192	7	96	240	4
XTP	39	0	4
XTP	39	96	4
TAP	39	192	3
TAP	39	288	2
TAP	40	0	1
XTP	40	96	0
XTP	40	96	7
BRK	40	192	1
BRK	40	192	6
XTP	41	0	7
XTP	41	96	7
TAP	41	192	1
TAP	41	288	1
TAP	42	0	0
TAP	42	0	1
TAP	42	96	0
TAP	42	96	1
TAP	42	192	6
TAP	42	288	6
TAP	42	288	7
XTP	43	0	0
XTP	43	0	5
HLD	43	192	5	96
TAP	43	288	4
HLD	44	0	2	96
TAP	44	96	3
HLD	44	192	4	96
TAP	44	288	3
XTP	45	0	2
XTP	45	0	5
TAP	45	192	6
TAP	45	288	6
TAP	46	0	7
TAP	46	96	0
TAP	46	96	6
TAP	46	192	1
TAP	46	288	0
TAP	46	288	1
XTP	47	0	2
XTP	47	0	7
HLD	47	192	2	96
TAP	47	288	3
HLD	48	0	5	96
TAP	48	96	4
TAP	48	192	3
TAP	48	192	4
TAP	48	288	2
TAP	48	288	5
BRK	49	0	1
BRK	49	0	6
TAP	49	192	6
TAP	49	288	6
TAP	50	0	6
TAP	50	0	7
TAP	50	96	6
TAP	50	96	7
TAP	50	192	1
TAP	50	288	0
TAP	50	288	1
XTP	51	0	2
XTP	51	0	7
HLD	51	192	2	96
TAP	51	288	3
HLD	52	0	5	96
TAP	52	96	4
HLD	52	192	3	96
TAP	52	288	4
XTP	53	0	2
XTP	53	0	5
TAP	53	192	1
TAP	53	288	1
TAP	54	0	0
TAP	54	96	1
TAP	54	96	7
TAP	54	192	6
TAP	54	288	6
TAP	54	288	7
XTP	55	0	0
XTP	55	0	5
HLD	55	192	5	96
TAP	55	288	4
HLD	56	0	2	96
TAP	56	96	3
TAP	56	192	3
TAP	56	192	4
TAP	56	288	2
TAP	56	288	5
BRK	57	0	1
BRK	57	0	6
TAP	57	192	6
TAP	57	288	6
TAP	58	0	7
TAP	58	96	0
TAP	58	96	1
TAP	58	192	2
TAP	58	288	2
TAP	58	288	3
XTP	59	0	1
XTP	59	0	4
HLD	59	192	2	96
TAP	59	288	3
HLD	60	0	5	96
TAP	60	96	4
TAP	60	192	4
TAP	60	192	5
TAP	60	288	3
TAP	60	288	6
BRK	61	0	2
BRK	61	0	7
TAP	61	192	1
TAP	61	288	1
TAP	62	0	0
TAP	62	96	6
TAP	62	96	7
TAP	62	192	5
TAP	62	288	4
TAP	62	288	5
XTP	63	0	3
XTP	63	0	6
HLD	63	192	5	96
TAP	63	288	4
HLD	64	0	2	96
TAP	64	96	3
TAP	64	192	2
TAP	64	192	3
TAP	64	288	1
TAP	64	288	4
BRK	65	0	0
BRK	65	0	5
TAP	65	192	4
TAP	65	288	4
TAP	66	0	3
TAP	66	96	3
STR	66	192	3
SXR	66	192	3	96	336	0
STR	66	192	4
SXL	66	192	4	96	336	7
XTP	68	0	0
XTP	68	96	0
HLD	68	192	6	96
TAP	68	288	7
HLD	69	0	1	96
TAP	69	96	0
TAP	69	192	0
TAP	69	192	1
TAP	69	288	2
TAP	69	288	7
BRK	70	0	3
BRK	70	0	6
TAP	70	192	4
TAP	70	288	5
TAP	71	0	6
TAP	71	96	6
TAP	71	96	7
TAP	71	192	0
TAP	71	288	1
TAP	72	0	2
TAP	72	96	2
TAP	72	96	3
TAP	72	192	3
TAP	72	288	2
TAP	73	0	1
TAP	73	96	0
TAP	73	96	1
TAP	73	192	7
TAP	73	288	0
TAP	73	288	7
XTP	74	0	1
XTP	74	0	6
TAP	74	192	7
TAP	74	288	6
TAP	75	0	5
TAP	75	96	4
TAP	75	96	5
TAP	75	192	3
TAP	75	288	2
TAP	76	0	1
TAP	76	96	0
TAP	76	96	1
XTP	76	192	2
XST	76	192	7
SCL	76	192	7	96	288	3
XTP	78	0	2
XTP	78	96	1
XST	78	192	0
SCR	78	192	0	96	288	4

T_REC_TAP	190
T_REC_BRK	16
T_REC_XTP	39
T_REC_HLD	22
T_REC_XHO	0
T_REC_STR	6
T_REC_BST	0
T_REC_XST	2
T_REC_TTP	4
T_REC_THO	1
T_REC_SLD	8
T_REC_ALL	288
T_NUM_TAP	241
T_NUM_BRK	16
T_NUM_HLD	23
T_NUM_SLD	8
T_NUM_ALL	288
T_JUDGE_TAP	257
T_JUDGE_HLD	70
T_JUDGE_SLD	8
T_JUDGE_ALL	335
TTM_EACHPAIRS	63
TTM_SCR_TAP	120500
TTM_SCR_BRK	41600
TTM_SCR_HLD	23000
TTM_SCR_SLD	12000
TTM_SCR_ALL	197100
TTM_SCR_S	189650
TTM_SCR_SS	195500
TTM_RAT_ACV	10081

