VERSION	0.00.00	1.03.00
FES_MODE	0
BPM_DEF	156.000	186.000	186.000	108.727
MET_DEF	4	4
RESOLUTION	384
CLK_DEF	384
COMPATIBLE_CODE	MA2

BPM	0	0	156.000
BPM	2	0	161.000
BPM	2	192	167.000
BPM	2	288	161.000
BPM	3	0	160.000
BPM	3	96	166.000
BPM	3	288	162.000
BPM	4	96	171.000
BPM	4	192	156.000
BPM	4	288	135.000
BPM	5	0	145.000
BPM	6	0	155.000
BPM	6	96	165.000
BPM	6	288	150.000
BPM	7	0	130.000
BPM	7	96	155.000
BPM	7	192	129.000
BPM	7	288	141.000
BPM	9	96	186.000
BPM	66	0	178.478
BPM	66	96	168.416
BPM	66	192	162.607
BPM	66	288	140.856
BPM	67	0	126.931
BPM	67	96	108.727
BPM	67	192	119.510
BPM	68	0	186.000
MET	0	0	4	4
MET	9	0	2	4
MET	9	192	4	4

XTP	9	192	3
XTP	10	192	4
XTP	11	192	3
XTP	12	192	3
XTP	12	192	4
XTP	13	0	3
XTP	13	0	4
TAP	13	192	2
TAP	14	0	2
TAP	14	192	1
TAP	15	0	1
BRK	15	192	0
TAP	17	192	7
TAP	18	0	7
TAP	18	192	7
TAP	19	192	6
TAP	20	0	6
TAP	20	192	6
TAP	21	192	5
TAP	22	0	5
TAP	22	192	5
HLD	23	192	3	384
HLD	23	192	4	384
TAP	25	192	2
TAP	26	0	2
TAP	26	192	2
TAP	27	192	1
TAP	28	0	1
TAP	28	192	1
TAP	29	192	0
TAP	30	0	0
TAP	30	192	0
HLD	31	192	0	384
HLD	31	192	7	384
STR	33	192	7
SI_	33	192	7	96	288	3
STR	35	192	0
SI_	35	192	0	96	288	4
TTP	37	192	3	B	0	L1
TTP	37	192	4	B	0	L1
TTP	38	192	2	B	0	L1
TTP	38	192	5	B	0	L1
THO	39	192	0	384	C	1	L1
XTP	41	192	7
TAP	42	0	7
TAP	42	192	6
TAP	42	288	6
TAP	43	0	6
TAP	43	192	5
TAP	44	0	5
TAP	44	192	4
TAP	44	288	4
TAP	45	0	4
TAP	45	192	3
TAP	46	0	3
TAP	46	192	2
TAP	46	288	2
TAP	47	0	2
TAP	47	192	1
TAP	48	0	1
XTP	48	192	0
XTP	48	192	7
BRK	49	0	0
BRK	49	0	7
TAP	49	192	1
TAP	50	0	1
TAP	50	192	2
TAP	50	288	2
TAP	51	0	2
TAP	51	192	3
TAP	52	0	3
XTP	52	192	4
XTP	52	288	4
XTP	53	0	4
TAP	53	192	5
TAP	54	0	5
TAP	54	192	6
TAP	54	288	6
TAP	55	0	6
TAP	55	192	0
TAP	55	192	7
TAP	56	0	0
TAP	56	0	7
XTP	56	192	0
XTP	56	288	7
BRK	57	0	0
TAP	57	192	7
TAP	57	288	7
TAP	58	0	7
TAP	58	192	6
TAP	58	288	6
TAP	59	0	6
TAP	59	192	5
TAP	59	288	5
TAP	60	0	5
XTP	60	192	3
XTP	60	192	4
XTP	60	288	3
XTP	60	288	4
BRK	61	0	3
BRK	61	0	4
TAP	61	192	3
TAP	61	288	3
TAP	62	0	3
TAP	62	192	2
TAP	62	288	2
TAP	63	0	2
TAP	63	192	1
TAP	63	288	1
TAP	64	0	1
XTP	64	192	0
XTP	64	288	7
BRK	65	0	0
TAP	65	192	7
TAP	65	288	7
TAP	66	0	0
TAP	66	96	0
HLD	66	192	7	336
TAP	68	192	0
TAP	68	288	0
TAP	69	0	7
TAP	69	96	7
XTP	69	192	0
XTP	69	192	7
XTP	69	288	0
XTP	69	288	7
XTP	70	0	1
XTP	70	0	6
TAP	70	192	0
TAP	70	288	0
TAP	71	0	0
TAP	71	192	1
TAP	71	288	1
TAP	72	0	1
TAP	72	192	2
TAP	72	288	2
TAP	73	0	2
TAP	73	192	3
TAP	73	288	4
TAP	74	0	3
TAP	74	192	4
TAP	74	288	4
TAP	75	0	4
TAP	75	192	5
TAP	75	288	5
TAP	76	0	5
STR	76	192	6
SI_	76	192	6	96	384	2
STR	78	192	1
SI_	78	192	1	96	384	5

T_REC_TAP	98
T_REC_BRK	7
T_REC_XTP	27
T_REC_HLD	5
T_REC_XHO	0
T_REC_STR	4
T_REC_BST	0
T_REC_XST	0
T_REC_TTP	4
T_REC_THO	1
T_REC_SLD	4
T_REC_ALL	150
T_NUM_TAP	133
T_NUM_BRK	7
T_NUM_HLD	6
T_NUM_SLD	4
T_NUM_ALL	150
T_JUDGE_TAP	140
T_JUDGE_HLD	48
T_JUDGE_SLD	4
T_JUDGE_ALL	192
TTM_EACHPAIRS	14
TTM_SCR_TAP	66500
TTM_SCR_BRK	18200
TTM_SCR_HLD	6000
TTM_SCR_SLD	6000
TTM_SCR_ALL	96700
TTM_SCR_S	93150
TTM_SCR_SS	96000
TTM_RAT_ACV	10072

