VERSION	0.00.00	1.03.00
FES_MODE	0
BPM_DEF	145.000	145.000	145.000	145.000
MET_DEF	4	4
RESOLUTION	384
CLK_DEF	0
COMPATIBLE_CODE	MA2

BPM	0	0	145.000
MET	0	0	4	4
CLK	0	0
CLK	0	96
CLK	0	192
CLK	0	288

TTP	1	0	0	C	1	M1
TAP	2	0	4
TAP	2	0	6
TAP	2	96	3
TAP	2	96	4
TTP	2	192	0	E	0	M1
TTP	2	192	0	B	0	M1
TTP	2	192	1	B	0	M1
TTP	2	192	2	E	0	M1
TAP	3	0	1
TAP	3	0	3
TAP	3	96	3
TAP	3	96	4
TTP	3	192	0	E	0	M1
TTP	3	192	6	E	0	M1
TTP	3	192	6	B	0	M1
TTP	3	192	7	B	0	M1
TAP	4	0	4
TAP	4	0	6
TAP	4	96	3
TAP	4	96	4
TTP	4	192	0	B	0	M1
TTP	4	192	0	E	0	M1
TTP	4	192	1	B	0	M1
TTP	4	192	2	E	0	M1
TAP	5	0	1
TAP	5	0	3
TAP	5	96	3
TAP	5	96	4
TTP	5	192	0	E	0	M1
TTP	5	192	6	E	0	M1
TTP	5	192	6	B	0	M1
TTP	5	192	7	B	0	M1
TAP	6	0	0
TAP	6	0	5
TAP	6	96	4
TAP	6	96	6
TTP	6	192	1	E	0	M1
TTP	6	192	1	B	0	M1
TTP	6	192	2	B	0	M1
TTP	6	192	3	E	0	M1
TAP	7	0	2
TAP	7	0	7
TAP	7	96	1
TAP	7	96	3
TTP	7	192	5	B	0	M1
TTP	7	192	5	E	0	M1
TTP	7	192	6	B	0	M1
TTP	7	192	7	E	0	M1
TAP	8	0	0
TAP	8	0	5
TAP	8	96	4
TAP	8	96	6
TTP	8	192	1	E	0	M1
TTP	8	192	1	B	0	M1
TTP	8	192	2	B	0	M1
TTP	8	192	3	E	0	M1
TAP	9	0	2
TAP	9	0	7
TAP	9	96	1
TAP	9	96	3
TTP	9	192	5	B	0	M1
TTP	9	192	5	E	0	M1
TTP	9	192	6	B	0	M1
TTP	9	192	7	E	0	M1
TAP	10	0	4
HLD	10	0	6	96
TAP	10	48	4
TAP	10	96	4
HLD	10	192	1	96
TAP	10	192	3
TAP	10	240	3
TAP	10	288	3
TAP	11	0	3
TAP	11	0	4
TAP	11	96	2
TAP	11	96	5
TTP	11	192	0	B	0	M1
TTP	11	192	1	E	0	M1
TTP	11	192	7	B	0	M1
TTP	11	192	7	E	0	M1
TTP	11	288	3	B	0	M1
TTP	11	288	3	E	0	M1
TTP	11	288	4	B	0	M1
TTP	11	288	5	E	0	M1
TAP	12	0	0
HLD	12	0	1	96
TAP	12	48	0
TAP	12	96	0
HLD	12	192	6	96
TAP	12	192	7
TAP	12	240	7
TAP	12	288	7
TAP	13	0	3
TAP	13	0	4
STR	13	96	6
SCL	13	96	6	96	48	3
STR	13	96	7
SCR	13	96	7	96	48	2
TAP	13	288	0
TAP	13	288	5
TAP	14	0	4
HLD	14	0	6	96
TAP	14	48	4
TAP	14	96	4
HLD	14	192	1	96
TAP	14	192	3
TAP	14	240	3
TAP	14	288	3
TAP	15	0	3
TAP	15	0	4
TAP	15	96	3
TAP	15	96	4
TTP	15	192	0	B	0	M1
TTP	15	192	1	E	0	M1
TTP	15	192	7	E	0	M1
TTP	15	192	7	B	0	M1
TTP	15	288	3	E	0	M1
TTP	15	288	3	B	0	M1
TTP	15	288	4	B	0	M1
TTP	15	288	5	E	0	M1
STR	16	0	0
SI_	16	0	0	96	48	4
STR	16	0	7
SI_	16	0	7	96	48	3
TAP	16	192	1
TAP	16	192	6
TAP	16	240	1
TAP	16	240	6
TAP	16	288	1
TAP	16	288	6
TAP	17	0	0
TAP	17	24	7
TAP	17	72	7
TAP	17	96	0
TAP	17	144	0
TAP	17	192	0
TAP	17	192	7
TAP	17	240	1
TAP	17	240	6
BRK	17	288	2
BRK	17	288	5
HLD	18	0	1	96
TAP	18	0	3
TAP	18	48	3
TAP	18	96	3
TAP	18	192	4
HLD	18	192	6	96
TAP	18	240	4
TAP	18	288	4
TAP	19	0	4
TAP	19	0	5
TAP	19	96	0
TAP	19	96	1
TTP	19	192	0	E	0	M1
TTP	19	192	6	E	0	M1
TTP	19	192	6	B	0	M1
TTP	19	192	7	B	0	M1
TTP	19	288	2	B	0	M1
TTP	19	288	2	E	0	M1
TTP	19	288	3	B	0	M1
TTP	19	288	4	E	0	M1
TAP	20	0	4
HLD	20	0	6	96
TAP	20	48	5
TAP	20	96	5
HLD	20	192	1	96
TAP	20	192	3
TAP	20	240	2
TAP	20	288	2
STR	21	0	3
SCL	21	0	3	96	48	0
STR	21	0	4
SCR	21	0	4	96	48	7
TAP	21	192	1
TAP	21	192	6
TAP	21	240	1
TAP	21	240	6
TAP	21	288	1
TAP	21	288	6
HLD	22	0	1	96
TAP	22	0	3
TAP	22	48	2
TAP	22	96	3
TAP	22	192	4
HLD	22	192	6	96
TAP	22	240	5
TAP	22	288	4
TAP	23	0	3
TAP	23	0	4
STR	23	96	0
SI_	23	96	0	96	48	4
STR	23	96	7
SI_	23	96	7	96	48	3
TAP	23	288	1
TAP	23	288	6
TAP	24	0	3
TAP	24	0	5
TAP	24	48	3
TAP	24	48	5
TAP	24	96	2
TAP	24	96	4
TAP	24	144	2
TAP	24	144	4
TAP	24	192	3
TAP	24	192	6
STR	24	288	1
SCL	24	288	1	96	192	3
TAP	24	288	4
TAP	25	0	3
BRK	25	288	2
BRK	25	288	5
TAP	26	0	4
HLD	26	0	5	192
TAP	26	96	3
TAP	26	192	4
TAP	26	288	0
HLD	26	288	1	192
TAP	27	0	7
TAP	27	96	0
TTP	27	192	1	B	0	M1
TTP	27	192	2	B	0	M1
TTP	27	192	3	E	0	M1
TTP	27	288	5	B	0	M1
TTP	27	288	5	E	0	M1
TTP	27	288	6	B	0	M1
HLD	28	0	2	192
TAP	28	0	3
TAP	28	96	4
TAP	28	192	3
HLD	28	288	6	192
TAP	28	288	7
TAP	29	0	0
TAP	29	96	7
TTP	29	192	5	E	0	M1
TTP	29	192	5	B	0	M1
TTP	29	192	6	B	0	M1
TTP	29	288	1	B	0	M1
TTP	29	288	2	B	0	M1
TTP	29	288	3	E	0	M1
STR	30	0	4
SCL	30	0	4	96	96	0
TAP	30	0	5
STR	30	192	3
SCR	30	192	3	96	96	7
STR	31	0	4
SCL	31	0	4	96	96	0
STR	31	192	3
SCR	31	192	3	96	96	7
TAP	32	0	0
TAP	32	96	0
TAP	32	96	7
TAP	32	144	0
TAP	32	144	7
TAP	32	192	1
TAP	32	192	6
TAP	32	288	1
TAP	32	288	6
XTP	33	0	3
XTP	33	0	4
XTP	33	96	0
XTP	33	96	7
TTP	33	192	2	B	0	M1
TTP	33	192	3	B	0	M1
TTP	33	192	3	E	0	M1
TTP	33	192	4	B	0	M1
TTP	33	192	5	E	0	M1
TTP	33	192	5	B	0	M1
TAP	34	0	3
TAP	34	0	7
STR	34	96	1
SCL	34	96	1	96	48	6
STR	34	96	5
SCL	34	96	5	96	48	2
TAP	34	288	0
TAP	34	288	4
TAP	35	0	6
TAP	35	0	7
TAP	35	48	5
TAP	35	96	3
TAP	35	96	4
TAP	35	144	2
TAP	35	192	0
TAP	35	192	1
TAP	35	240	2
TAP	35	288	3
TAP	35	288	4
TAP	36	0	2
STR	36	0	6
SI_	36	0	6	96	48	3
STR	36	96	1
SI_	36	96	1	96	48	5
STR	36	192	7
SI_	36	192	7	96	48	3
STR	36	288	0
SCR	36	288	0	96	96	6
TAP	37	0	7
TAP	37	96	7
XTP	37	192	1
XTP	37	192	6
TAP	38	0	0
TAP	38	0	4
STR	38	96	2
SCR	38	96	2	96	48	5
STR	38	96	6
SCR	38	96	6	96	48	1
TAP	38	288	3
TAP	38	288	7
TAP	39	0	3
TAP	39	0	4
TAP	39	48	2
TAP	39	96	0
TAP	39	96	1
TAP	39	144	2
TAP	39	192	3
TAP	39	192	4
TAP	39	240	5
TAP	39	288	6
TAP	39	288	7
TAP	40	0	1
TAP	40	0	5
STR	40	192	3
SCL	40	192	3	96	48	0
STR	40	192	4
SCR	40	192	4	96	48	7
TAP	41	0	1
TAP	41	0	6
TAP	41	96	0
TAP	41	96	7
TAP	41	192	2
TAP	41	192	5
TAP	41	288	3
TAP	41	288	4
HLD	42	0	5	96
HLD	42	96	7	96
HLD	42	192	0	96
HLD	42	288	2	96
TAP	43	0	5
TAP	43	96	3
TAP	43	96	4
HLD	43	192	2	96
HLD	43	288	0	96
HLD	44	0	7	96
HLD	44	96	5	96
TAP	44	192	2
TAP	44	288	3
TAP	44	288	4
TAP	45	0	1
TAP	45	0	6
TAP	45	192	4
HLD	45	192	5	96
TAP	45	288	4
TTP	46	0	0	B	0	M1
TTP	46	0	0	E	0	M1
TTP	46	0	1	B	0	M1
TTP	46	0	2	E	0	M1
HLD	46	192	2	96
TAP	46	192	3
TAP	46	288	3
TTP	47	0	0	E	0	M1
TTP	47	0	6	E	0	M1
TTP	47	0	6	B	0	M1
TTP	47	0	7	B	0	M1
HLD	47	192	6	96
HLD	47	288	4	96
HLD	48	0	3	96
HLD	48	96	1	96
HLD	48	192	0	96
STR	48	288	7
SCL	48	288	7	96	192	0
TAP	49	0	0
TAP	49	288	3
TAP	49	288	4
TAP	50	0	6
TAP	50	48	6
TAP	50	96	4
TAP	50	144	4
TAP	50	192	5
TAP	50	240	5
TAP	50	288	3
TAP	50	336	3
TAP	51	0	2
TAP	51	0	5
TAP	51	96	3
TAP	51	96	4
TAP	51	192	0
TAP	51	192	7
TAP	51	288	2
TAP	51	288	5
TAP	52	0	1
TAP	52	48	1
TAP	52	96	3
TAP	52	144	3
TAP	52	192	2
TAP	52	240	2
TAP	52	288	4
TAP	52	336	4
TAP	53	0	2
TAP	53	0	5
TAP	53	96	3
TAP	53	96	4
TAP	53	192	4
TAP	53	192	5
STR	53	288	3
SCL	53	288	3	96	96	0
STR	53	288	6
SCL	53	288	6	96	96	3
TAP	54	192	2
TAP	54	192	3
STR	54	288	1
SCR	54	288	1	96	96	4
STR	54	288	4
SCR	54	288	4	96	96	7
TAP	55	192	3
TAP	55	192	4
TAP	55	288	0
TAP	55	288	7
STR	56	0	0
SCR	56	0	0	96	192	3
STR	56	0	7
SCL	56	0	7	96	192	4
TAP	57	0	4
TAP	57	24	3
TAP	57	72	3
TAP	57	96	4
TAP	57	144	4
XTP	57	192	0
XTP	57	192	7
XTP	57	240	1
XTP	57	240	6
XTP	57	288	2
XTP	57	288	5
TAP	58	0	0
TAP	58	0	4
STR	58	96	2
SCR	58	96	2	96	48	5
STR	58	96	6
SCR	58	96	6	96	48	1
TAP	58	288	3
TAP	58	288	7
TAP	59	0	0
TAP	59	0	1
TAP	59	48	2
TAP	59	96	3
TAP	59	96	4
TAP	59	144	5
TAP	59	192	6
TAP	59	192	7
TAP	59	240	5
TAP	59	288	3
TAP	59	288	4
STR	60	0	1
SI_	60	0	1	96	48	4
TAP	60	0	5
STR	60	96	6
SI_	60	96	6	96	48	2
STR	60	192	0
SI_	60	192	0	96	48	4
STR	60	288	7
SCL	60	288	7	96	96	1
TAP	61	0	0
TAP	61	96	0
TTP	61	192	0	E	0	M1
TTP	61	192	0	B	0	M1
TTP	61	192	3	B	0	M1
TTP	61	192	4	E	0	M1
TTP	61	192	4	B	0	M1
TTP	61	192	7	B	0	M1
TAP	62	0	3
TAP	62	0	7
STR	62	96	1
SCL	62	96	1	96	48	6
STR	62	96	5
SCL	62	96	5	96	48	2
TAP	62	288	0
TAP	62	288	4
TAP	63	0	6
TAP	63	0	7
TAP	63	48	5
TAP	63	96	3
TAP	63	96	4
TAP	63	144	2
TAP	63	192	0
TAP	63	192	1
TAP	63	240	2
TAP	63	288	3
TAP	63	288	4
TAP	64	0	2
TAP	64	0	6
TAP	64	96	0
TAP	64	96	7
STR	64	192	3
SCL	64	192	3	96	48	0
STR	64	192	4
SCR	64	192	4	96	48	7
TAP	65	0	1
TAP	65	0	6
TAP	65	192	1
TAP	65	192	6
TAP	65	288	3
TAP	65	288	4
TTP	66	0	2	B	0	M1
TTP	66	0	3	E	0	M1
TTP	66	0	3	B	0	M1
TTP	66	0	6	B	0	M1
TTP	66	0	7	B	0	M1
TTP	66	0	7	E	0	M1
TTP	66	192	0	C	0	M1
TTP	66	192	0	B	0	M1
TTP	66	192	1	B	0	M1
TTP	66	192	1	E	0	M1
TTP	66	192	4	B	0	M1
TTP	66	192	5	E	0	M1
TTP	66	192	5	B	0	M1
TAP	67	0	5
TAP	67	24	4
TAP	67	48	5
TAP	67	72	4
TAP	67	96	5
TAP	67	144	2
TAP	67	168	3
TAP	67	192	2
TAP	67	216	3
TAP	67	240	2
TAP	67	288	3
TAP	67	288	4
THO	68	0	0	816	C	1	M1
TTP	68	0	1	B	0	M1
TTP	68	0	2	B	0	M1
TTP	68	0	2	E	0	M1
TTP	68	0	5	B	0	M1
TTP	68	0	6	E	0	M1
TTP	68	0	6	B	0	M1

T_REC_TAP	297
T_REC_BRK	4
T_REC_XTP	12
T_REC_HLD	31
T_REC_XHO	0
T_REC_STR	40
T_REC_BST	0
T_REC_XST	0
T_REC_TTP	108
T_REC_THO	1
T_REC_SLD	40
T_REC_ALL	533
T_NUM_TAP	457
T_NUM_BRK	4
T_NUM_HLD	32
T_NUM_SLD	40
T_NUM_ALL	533
T_JUDGE_TAP	461
T_JUDGE_HLD	87
T_JUDGE_SLD	40
T_JUDGE_ALL	588
TTM_EACHPAIRS	135
TTM_SCR_TAP	228500
TTM_SCR_BRK	10400
TTM_SCR_HLD	32000
TTM_SCR_SLD	60000
TTM_SCR_ALL	330900
TTM_SCR_S	320600
TTM_SCR_SS	330500
TTM_RAT_ACV	10012

