VERSION	0.00.00	1.02.00
FES_MODE	0
BPM_DEF	145.000	145.000	145.000	145.000
MET_DEF	4	4
RESOLUTION	384
CLK_DEF	384
COMPATIBLE_CODE	MA2

BPM	0	0	145.000
MET	0	0	4	4

TTP	1	0	0	C	1
HLD	2	0	5	96
TAP	2	96	4
TAP	2	192	3
TAP	2	192	6
HLD	3	0	2	96
TAP	3	96	3
TAP	3	192	1
TAP	3	192	4
HLD	4	0	5	96
TAP	4	96	4
TAP	4	192	3
TAP	4	192	6
HLD	5	0	4	96
TAP	5	96	3
TAP	5	192	1
TAP	5	192	6
HLD	6	0	2	96
TAP	6	96	3
TAP	6	192	1
TAP	6	192	4
HLD	7	0	5	96
TAP	7	96	4
TAP	7	192	3
TAP	7	192	6
HLD	8	0	2	96
TAP	8	96	3
TAP	8	192	1
TAP	8	192	4
HLD	9	0	3	96
TAP	9	96	4
BRK	9	192	1
BRK	9	192	6
HLD	10	0	2	96
TAP	10	96	3
HLD	10	192	5	96
TAP	10	288	4
HLD	11	0	2	96
TAP	11	96	3
TAP	11	192	0
TAP	11	288	0
HLD	12	0	5	96
TAP	12	96	4
HLD	12	192	2	96
TAP	12	288	3
HLD	13	0	5	96
TAP	13	96	4
TAP	13	192	7
TAP	13	288	1
TAP	13	288	6
HLD	14	0	2	96
TAP	14	96	3
HLD	14	192	5	96
TAP	14	288	4
TAP	15	0	3
TAP	15	0	4
TAP	15	96	1
TAP	15	96	6
TAP	15	192	0
TAP	15	192	7
TAP	15	288	2
TAP	15	288	5
TAP	16	0	1
TAP	16	0	6
TAP	16	48	1
TAP	16	48	6
TAP	16	96	1
TAP	16	96	6
TAP	16	192	0
HLD	16	192	7	96
STR	16	288	0
SUR	16	288	0	96	96	4
TAP	17	192	3
TAP	17	192	4
BRK	17	288	2
BRK	17	288	5
HLD	18	0	6	96
TAP	18	96	4
HLD	18	192	1	96
TAP	18	288	3
HLD	19	0	6	96
TAP	19	96	4
TAP	19	192	7
TAP	19	288	0
HLD	20	0	1	96
TAP	20	96	3
HLD	20	192	6	96
TAP	20	288	4
HLD	21	0	1	96
TAP	21	96	3
TAP	21	192	0
TAP	21	192	7
TAP	21	240	0
TAP	21	240	7
TAP	21	288	1
TAP	21	288	6
HLD	22	0	2	96
TAP	22	96	4
HLD	22	192	5	96
TAP	22	288	3
HLD	23	0	2	96
TAP	23	96	4
TAP	23	192	1
TAP	23	192	6
TAP	23	288	1
TAP	23	288	6
TAP	24	0	0
TAP	24	0	7
TAP	24	48	0
TAP	24	48	7
TAP	24	96	0
TAP	24	96	7
TAP	24	192	1
TAP	24	192	3
TAP	24	288	4
STR	24	288	6
SXL	24	288	6	96	192	3
TTP	26	0	4	B	0
TTP	26	0	5	B	0
TTP	26	96	3	B	0
TTP	26	192	2	B	0
TTP	26	288	4	B	0
TTP	26	288	5	B	0
TTP	27	0	3	B	0
TTP	27	96	2	B	0
XTP	27	192	0
XTP	27	288	0
TTP	28	0	2	B	0
TTP	28	0	3	B	0
TTP	28	96	4	B	0
TTP	28	192	5	B	0
TTP	28	288	2	B	0
TTP	28	288	3	B	0
TTP	29	0	4	B	0
TTP	29	96	5	B	0
XTP	29	192	7
XTP	29	288	7
HLD	30	0	4	192
TAP	30	0	5
HLD	30	192	3	192
HLD	31	0	2	192
TAP	31	192	5
TAP	32	0	4
TAP	32	0	5
TAP	32	96	6
TAP	32	96	7
TAP	32	192	0
TAP	32	192	1
TAP	32	288	2
TAP	32	288	3
TAP	33	0	0
TAP	33	0	7
TAP	33	96	3
TAP	33	96	4
BRK	33	192	1
BRK	33	192	6
TAP	34	0	6
TAP	34	0	7
TAP	34	96	1
TAP	34	96	4
TAP	34	192	0
TAP	34	240	0
TAP	34	288	1
TAP	34	288	7
TAP	35	0	0
TAP	35	0	1
TAP	35	96	3
TAP	35	96	6
TAP	35	192	7
TAP	35	240	7
TAP	35	288	0
TAP	35	288	6
HLD	36	0	1	96
HLD	36	96	3	96
HLD	36	192	4	96
TAP	36	288	6
TAP	37	0	1
TAP	37	0	3
TAP	37	96	3
TAP	37	96	4
XTP	37	192	1
XTP	37	192	6
TAP	38	0	0
TAP	38	0	1
TAP	38	96	3
TAP	38	96	6
TAP	38	192	7
TAP	38	240	7
TAP	38	288	0
TAP	38	288	6
TAP	39	0	6
TAP	39	0	7
TAP	39	96	1
TAP	39	96	4
TAP	39	192	0
TAP	39	240	0
TAP	39	288	1
TAP	39	288	7
TAP	40	0	0
TAP	40	0	6
TAP	40	192	3
TAP	40	192	4
TAP	40	288	2
TAP	40	288	5
BRK	41	0	1
BRK	41	0	6
HLD	42	0	5	288
TTP	42	192	4	B	0
TTP	42	288	3	B	0
HLD	43	0	2	288
TTP	43	192	3	B	0
TTP	43	288	4	B	0
HLD	44	0	5	288
TTP	44	192	4	B	0
TTP	44	288	3	B	0
TAP	45	0	1
TAP	45	0	6
TAP	45	192	7
STR	45	288	7
SI_	45	288	7	96	96	4
TAP	46	192	0
TAP	46	192	7
STR	46	288	0
SI_	46	288	0	96	96	3
STR	46	288	7
SI_	46	288	7	96	96	4
TTP	47	192	3	B	0
TTP	47	288	4	B	0
TTP	48	0	5	B	0
TTP	48	96	6	B	0
TTP	48	192	7	B	0
TTP	48	288	0	E	0
STR	49	0	0
SCR	49	0	0	96	192	5
HLD	50	0	2	288
TTP	50	192	3	B	0
TTP	50	288	4	B	0
HLD	51	0	5	288
TTP	51	192	4	B	0
TTP	51	288	3	B	0
HLD	52	0	2	288
TTP	52	192	3	B	0
TTP	52	288	4	B	0
TAP	53	0	1
TAP	53	0	6
TAP	53	192	2
TAP	53	288	2
HLD	54	0	1	96
HLD	54	0	3	96
TAP	54	192	5
TAP	54	288	5
HLD	55	0	4	96
HLD	55	0	6	96
TAP	55	192	7
TAP	55	288	0
HLD	56	0	1	288
HLD	56	0	6	288
TTP	57	0	0	C	1
TAP	58	0	4
TAP	58	0	5
TAP	58	96	2
TAP	58	96	7
TAP	58	192	0
TAP	58	240	0
TAP	58	288	1
TAP	58	288	7
TAP	59	0	2
TAP	59	0	3
TAP	59	96	0
TAP	59	96	5
TAP	59	192	7
TAP	59	240	7
TAP	59	288	0
TAP	59	288	6
HLD	60	0	5	96
HLD	60	96	7	96
HLD	60	192	0	96
TAP	60	288	2
TAP	61	0	3
TAP	61	0	4
TAP	61	96	0
TAP	61	96	7
XTP	61	192	1
XTP	61	192	6
TAP	62	0	2
TAP	62	0	3
TAP	62	96	0
TAP	62	96	5
TAP	62	192	7
TAP	62	240	7
TAP	62	288	0
TAP	62	288	6
TAP	63	0	4
TAP	63	0	5
TAP	63	96	2
TAP	63	96	7
TAP	63	192	0
TAP	63	240	0
TAP	63	288	1
TAP	63	288	7
XTP	64	0	0
XTP	64	0	6
TAP	64	192	3
TAP	64	192	4
TAP	64	288	2
TAP	64	288	5
TAP	65	0	1
TAP	65	0	6
TAP	65	192	3
TAP	65	192	5
TAP	65	288	2
TAP	65	288	4
TAP	66	0	1
TAP	66	0	5
TAP	66	192	1
TAP	66	192	7
TAP	66	288	0
TAP	66	288	6
XHO	67	0	1	192
XHO	67	0	7	192
TAP	67	288	2
TAP	67	288	5
THO	68	0	0	816	C	1

T_REC_TAP	207
T_REC_BRK	8
T_REC_XTP	10
T_REC_HLD	47
T_REC_XHO	2
T_REC_STR	6
T_REC_BST	0
T_REC_XST	0
T_REC_TTP	36
T_REC_THO	1
T_REC_SLD	6
T_REC_ALL	323
T_NUM_TAP	259
T_NUM_BRK	8
T_NUM_HLD	50
T_NUM_SLD	6
T_NUM_ALL	323
T_JUDGE_TAP	267
T_JUDGE_HLD	157
T_JUDGE_SLD	6
T_JUDGE_ALL	430
TTM_EACHPAIRS	89
TTM_SCR_TAP	129500
TTM_SCR_BRK	20800
TTM_SCR_HLD	50000
TTM_SCR_SLD	9000
TTM_SCR_ALL	209300
TTM_SCR_S	202250
TTM_SCR_SS	208500
TTM_RAT_ACV	10038

