VERSION	0.00.00	1.03.00
FES_MODE	0
BPM_DEF	145.000	145.000	145.000	145.000
MET_DEF	4	4
RESOLUTION	384
CLK_DEF	0
COMPATIBLE_CODE	MA2

BPM	0	0	145.000
MET	0	0	4	4
CLK	0	0
CLK	0	96
CLK	0	192
CLK	0	288

XTP	1	0	0
XTP	1	0	7
TAP	2	0	2
TAP	2	96	2
TAP	2	192	2
TAP	2	192	3
TAP	3	0	5
TAP	3	96	5
TAP	3	192	4
TAP	3	192	5
TAP	4	0	2
TAP	4	96	3
TAP	4	192	4
TAP	4	288	5
TAP	5	0	3
TAP	5	0	4
TAP	5	96	3
TAP	5	96	4
XTP	5	192	2
XTP	5	192	5
TAP	6	0	6
TAP	6	96	6
TAP	6	192	6
TAP	6	192	7
TAP	7	0	1
TAP	7	96	1
TAP	7	192	0
TAP	7	192	1
TAP	8	0	6
TAP	8	96	7
TAP	8	192	0
TAP	8	288	1
TAP	9	0	0
TAP	9	0	7
TAP	9	96	0
TAP	9	96	7
XTP	9	192	1
XTP	9	192	6
HLD	10	0	2	192
TAP	10	192	3
TAP	11	0	2
TAP	11	96	3
TAP	11	192	3
TAP	11	192	4
HLD	12	0	5	192
TAP	12	192	4
TAP	13	0	5
TAP	13	96	4
TAP	13	192	3
TAP	13	192	4
HLD	14	0	2	192
TAP	14	192	3
TAP	15	0	2
TAP	15	96	3
TAP	15	192	3
TAP	15	192	4
TAP	16	0	5
TAP	16	96	4
TAP	16	96	5
TAP	16	192	2
TAP	16	288	2
TAP	16	288	3
TAP	17	0	3
TAP	17	0	4
TAP	17	96	3
TAP	17	96	4
BRK	17	192	2
BRK	17	192	5
TTP	18	0	2	B	0	L1
TTP	18	192	4	E	0	L1
TTP	19	0	5	B	0	L1
TAP	19	192	3
TAP	19	192	4
TTP	20	0	5	B	0	L1
TTP	20	192	4	E	0	L1
TTP	21	0	2	B	0	L1
TAP	21	192	3
TAP	21	192	4
TTP	22	0	3	E	0	L1
TTP	22	0	5	E	0	L1
TTP	22	192	1	B	0	L1
TTP	22	192	6	B	0	L1
STR	23	0	0
SI_	23	0	0	96	144	3
STR	23	0	7
SI_	23	0	7	96	144	4
TAP	24	0	3
TAP	24	0	4
TTP	24	192	3	E	0	L1
TTP	24	192	5	E	0	L1
TTP	25	0	0	C	1	L1
TAP	26	0	2
TAP	26	96	2
TAP	26	192	3
TAP	26	288	5
TAP	27	0	5
TAP	27	96	4
XTP	27	192	2
XTP	27	192	5
XTP	27	288	2
XTP	27	288	5
TAP	28	0	1
TAP	28	96	1
TAP	28	192	0
TAP	28	288	6
TAP	29	0	6
TAP	29	96	7
XTP	29	192	1
XTP	29	192	6
XTP	29	288	1
XTP	29	288	6
STR	30	0	0
SI_	30	0	0	96	144	3
STR	30	0	7
SI_	30	0	7	96	144	4
STR	31	0	3
SI_	31	0	3	96	144	0
STR	31	0	4
SI_	31	0	4	96	144	7
TAP	32	0	1
TAP	32	96	0
TAP	32	192	7
TAP	32	288	6
XTP	33	0	0
XTP	33	0	7
XTP	33	96	0
XTP	33	96	7
BRK	33	192	1
BRK	33	192	6
TAP	34	0	1
TAP	34	0	7
TAP	34	96	1
TAP	34	96	7
TAP	34	192	0
TAP	34	192	6
TAP	34	288	0
TAP	34	288	6
TAP	35	0	1
TAP	35	0	7
TAP	35	96	0
TAP	35	96	6
XTP	35	192	1
XTP	35	192	7
STR	36	0	6
SI_	36	0	6	96	144	3
STR	36	0	7
SI_	36	0	7	96	144	2
TAP	37	0	2
TAP	37	96	3
XTP	37	192	1
XTP	37	192	4
TAP	38	0	3
TAP	38	0	5
TAP	38	96	3
TAP	38	96	5
TAP	38	192	2
TAP	38	192	4
TAP	38	288	2
TAP	38	288	4
TAP	39	0	3
TAP	39	0	5
TAP	39	96	2
TAP	39	96	4
XTP	39	192	3
XTP	39	192	5
STR	40	0	2
SI_	40	0	2	96	144	7
STR	40	0	3
SI_	40	0	3	96	144	6
TAP	41	0	6
TAP	41	96	7
BRK	41	192	0
BRK	41	192	5
HLD	42	0	2	192
HLD	42	192	3	192
HLD	43	0	4	192
TAP	43	192	5
HLD	44	0	5	192
HLD	44	192	4	192
HLD	45	0	3	192
TAP	45	192	2
TTP	46	0	2	B	0	L1
TTP	46	192	3	B	0	L1
TTP	47	0	4	B	0	L1
TTP	47	192	5	B	0	L1
TTP	48	0	6	B	0	L1
TTP	48	192	7	B	0	L1
STR	49	0	0
SI_	49	0	0	96	144	4
HLD	50	0	5	288
TAP	50	192	4
TAP	50	288	4
HLD	51	0	2	288
TAP	51	192	3
TAP	51	288	3
HLD	52	0	1	288
TAP	52	192	0
TAP	52	288	0
HLD	53	0	6	288
TAP	53	192	7
TAP	53	288	7
STR	54	0	6
SI_	54	0	6	96	144	3
STR	54	0	7
SI_	54	0	7	96	144	2
STR	55	0	0
SI_	55	0	0	96	144	5
STR	55	0	1
SI_	55	0	1	96	144	4
TAP	56	0	3
TAP	56	0	4
TTP	56	192	2	B	0	L1
TTP	56	192	5	B	0	L1
TTP	57	0	0	C	1	L1
TAP	58	0	0
TAP	58	0	6
TAP	58	96	0
TAP	58	96	6
TAP	58	192	1
TAP	58	192	7
TAP	58	288	1
TAP	58	288	7
TAP	59	0	0
TAP	59	0	6
TAP	59	96	1
TAP	59	96	7
XTP	59	192	0
XTP	59	192	6
STR	60	0	6
SI_	60	0	6	96	144	3
STR	60	0	7
SI_	60	0	7	96	144	2
TAP	61	0	2
TAP	61	96	3
XTP	61	192	1
XTP	61	192	4
TAP	62	0	3
TAP	62	0	5
TAP	62	96	3
TAP	62	96	5
TAP	62	192	2
TAP	62	192	4
TAP	62	288	2
TAP	62	288	4
TAP	63	0	3
TAP	63	0	5
TAP	63	96	3
TAP	63	96	5
XTP	63	192	2
XTP	63	192	4
STR	64	0	2
SI_	64	0	2	96	144	7
STR	64	0	3
SI_	64	0	3	96	144	6
TAP	65	0	6
TAP	65	96	7
BRK	65	192	0
BRK	65	192	5
TAP	66	0	3
TAP	66	0	4
TAP	66	192	3
TAP	66	192	4
TTP	67	0	2	B	0	L1
TTP	67	0	5	B	0	L1
TTP	67	192	1	B	0	L1
TTP	67	192	6	B	0	L1
THO	68	0	0	816	C	1	L1

T_REC_TAP	151
T_REC_BRK	8
T_REC_XTP	30
T_REC_HLD	13
T_REC_XHO	0
T_REC_STR	19
T_REC_BST	0
T_REC_XST	0
T_REC_TTP	26
T_REC_THO	1
T_REC_SLD	19
T_REC_ALL	267
T_NUM_TAP	226
T_NUM_BRK	8
T_NUM_HLD	14
T_NUM_SLD	19
T_NUM_ALL	267
T_JUDGE_TAP	234
T_JUDGE_HLD	77
T_JUDGE_SLD	19
T_JUDGE_ALL	330
TTM_EACHPAIRS	73
TTM_SCR_TAP	113000
TTM_SCR_BRK	20800
TTM_SCR_HLD	14000
TTM_SCR_SLD	28500
TTM_SCR_ALL	176300
TTM_SCR_S	170250
TTM_SCR_SS	175500
TTM_RAT_ACV	10045

