VERSION	0.00.00	1.03.00
FES_MODE	0
BPM_DEF	145.000	145.000	145.000	145.000
MET_DEF	4	4
RESOLUTION	384
CLK_DEF	0
COMPATIBLE_CODE	MA2

BPM	0	0	145.000
MET	0	0	4	4
CLK	0	0
CLK	0	96
CLK	0	192
CLK	0	288

TAP	2	192	0
TAP	3	192	7
TAP	4	192	0
TAP	5	192	7
TAP	6	192	0
TAP	6	192	1
TAP	7	192	6
TAP	7	192	7
TAP	8	192	0
TAP	8	192	1
BRK	9	192	7
TAP	10	0	0
TAP	10	192	0
TAP	11	0	0
TAP	12	0	1
TAP	12	192	1
TAP	13	0	1
TAP	14	0	2
TAP	14	192	2
TAP	15	0	2
HLD	16	0	3	384
TAP	18	0	4
TAP	18	192	4
TAP	19	0	4
TAP	20	0	5
TAP	20	192	5
TAP	21	0	5
TAP	22	0	6
TAP	22	192	6
TAP	23	0	6
HLD	24	0	7	384
STR	26	0	6
SI_	26	0	6	96	288	2
STR	28	0	1
SI_	28	0	1	96	288	5
TAP	30	0	5
TAP	30	192	4
TAP	31	0	3
TAP	31	192	3
TTP	32	0	4	E	0	L1
TTP	32	192	2	B	0	L1
TTP	32	192	5	B	0	L1
TTP	33	0	0	C	1	L1
TAP	34	0	7
TAP	34	96	7
TAP	34	192	7
TAP	35	0	0
TAP	35	96	0
TAP	35	192	0
TAP	36	0	1
TAP	36	192	2
TAP	37	0	3
TAP	37	0	4
TAP	38	0	3
TAP	38	96	3
TAP	38	192	3
TAP	39	0	4
TAP	39	96	4
TAP	39	192	4
TAP	40	0	5
TAP	40	192	6
TAP	41	0	0
TAP	41	0	7
STR	42	0	6
SI_	42	0	6	96	288	2
STR	44	0	1
SI_	44	0	1	96	288	5
TAP	46	0	4
TAP	46	0	5
TAP	47	0	3
TAP	47	0	4
TAP	48	0	2
TAP	48	0	3
TAP	49	0	3
TAP	49	0	4
TTP	50	0	3	E	0	L1
TTP	50	192	4	E	0	L1
TTP	51	0	5	E	0	L1
TTP	51	192	6	E	0	L1
TTP	52	0	7	E	0	L1
TTP	52	192	0	E	0	L1
TTP	53	0	1	E	0	L1
TAP	54	0	2
TAP	54	0	3
TAP	54	192	2
TAP	54	192	3
TAP	55	0	4
TAP	55	0	5
TAP	55	192	4
TAP	55	192	5
TTP	56	0	4	E	0	L1
TTP	56	192	2	B	0	L1
TTP	56	192	5	B	0	L1
TTP	57	0	0	C	1	L1
TAP	58	0	7
TAP	58	96	7
TAP	58	192	7
TAP	59	0	0
TAP	59	96	0
TAP	59	192	0
TAP	60	0	1
TAP	60	96	1
TAP	60	192	1
TAP	61	0	2
TAP	61	96	2
TAP	61	192	2
TAP	61	192	3
TAP	62	0	4
TAP	62	96	4
TAP	62	192	4
TAP	63	0	5
TAP	63	96	5
TAP	63	192	5
TAP	64	0	6
TAP	64	96	6
TAP	64	192	6
BRK	65	0	7
XTP	66	0	6
XTP	66	0	7
XTP	66	192	0
XTP	66	192	7
XTP	67	0	0
XTP	67	0	1
STR	68	0	0
SI_	68	0	0	96	288	4
XTP	70	48	3
XTP	70	48	4

T_REC_TAP	90
T_REC_BRK	2
T_REC_XTP	8
T_REC_HLD	2
T_REC_XHO	0
T_REC_STR	5
T_REC_BST	0
T_REC_XST	0
T_REC_TTP	15
T_REC_THO	0
T_REC_SLD	5
T_REC_ALL	127
T_NUM_TAP	118
T_NUM_BRK	2
T_NUM_HLD	2
T_NUM_SLD	5
T_NUM_ALL	127
T_JUDGE_TAP	120
T_JUDGE_HLD	16
T_JUDGE_SLD	5
T_JUDGE_ALL	141
TTM_EACHPAIRS	18
TTM_SCR_TAP	59000
TTM_SCR_BRK	5200
TTM_SCR_HLD	2000
TTM_SCR_SLD	7500
TTM_SCR_ALL	73700
TTM_SCR_S	71300
TTM_SCR_SS	73500
TTM_RAT_ACV	10027

