VERSION	0.00.00	1.04.00
FES_MODE	0
BPM_DEF	182.300	182.300	182.300	182.300
MET_DEF	4	4
RESOLUTION	384
CLK_DEF	384
COMPATIBLE_CODE	MA2

BPM	0	0	182.300
MET	0	0	4	4

NMHLD	1	240	2	96
NMTAP	1	288	3
NMTAP	1	336	4
NMTAP	2	0	2
NMTAP	2	48	3
NMTAP	2	96	4
NMTAP	2	144	2
NMHLD	2	240	5	96
NMTAP	2	288	4
NMTAP	2	336	3
NMTAP	3	0	5
NMTAP	3	48	4
NMTAP	3	96	3
NMTAP	3	144	5
NMHLD	3	240	1	96
NMTAP	3	288	3
NMTAP	3	336	4
NMTAP	4	0	1
NMTAP	4	48	2
NMTAP	4	96	3
NMTAP	4	144	1
NMTAP	4	288	4
NMTAP	4	336	3
NMTAP	5	0	5
NMTAP	5	48	4
NMTAP	5	96	3
NMTAP	5	144	2
NMTAP	5	144	5
NMHLD	5	240	6	96
NMTAP	5	288	4
NMTAP	5	336	3
NMTAP	6	0	6
NMTAP	6	48	5
NMTAP	6	96	4
NMTAP	6	144	6
EXTAP	6	192	6
NMTTP	6	288	0	A	0	M1
NMTTP	6	304	1	A	0	M1
NMTTP	6	320	2	A	0	M1
NMTTP	6	336	3	A	0	M1
NMTAP	7	0	6
EXSTR	7	48	6
NMSLL	7	48	6	96	72	0
EXSTR	7	192	7
NMSI_	7	192	7	96	48	3
EXSTR	7	336	0
NMSF_	7	336	0	96	48	4
CNSI_	7	336	3	0	24	1
EXTAP	8	48	0
NMTTP	8	192	7	A	0	M1
NMTTP	8	204	6	A	0	M1
NMTTP	8	216	5	A	0	M1
NMTTP	8	228	4	A	0	M1
NMTTP	8	240	3	A	0	M1
NMTTP	8	252	2	A	0	M1
NMTTP	8	264	1	A	0	M1
NMTTP	8	276	0	A	0	M1
NMTTP	8	288	0	C	0	M1
NMTAP	9	0	0
NMSTR	9	0	6
NMSCL	9	0	6	96	48	3
NMTAP	9	96	1
NMSTR	9	144	1
NMSUR	9	144	1	96	48	5
NMTAP	9	240	0
NMTAP	9	288	0
NMSTR	10	0	1
NMSCR	10	0	1	96	48	4
NMTAP	10	0	7
NMTAP	10	96	6
NMSTR	10	144	6
NMSUL	10	144	6	96	48	2
NMTAP	10	240	7
NMTAP	10	288	7
NMSTR	11	0	0
NMSCR	11	0	0	96	48	3
NMTAP	11	96	7
NMSTR	11	144	7
NMSCL	11	144	7	96	48	4
NMTAP	11	240	1
NMSTR	11	288	1
NMSLR	11	288	1	96	96	5
NMSTR	12	0	5
NMSLR	12	0	5	96	96	1
EXTAP	12	192	3
NMSTR	12	288	6
NMSI_	12	288	6	96	48	3
NMTAP	12	336	6
NMTAP	13	0	1
NMSTR	13	48	1
NMSCL	13	48	1	96	72	6
CNSI_	13	48	3	0	48	5
CNSI_	13	96	5	0	48	1
NMTAP	13	144	3
NMTAP	13	240	2
NMTAP	13	288	3
NMTAP	13	336	4
NMSTR	14	0	5
NMSLL	14	0	5	96	72	6
NMTAP	14	96	2
NMSTR	14	144	1
NMSI_	14	144	1	96	48	5
NMTAP	14	240	7
NMTAP	14	288	7
NMHLD	15	0	2	48
NMTAP	15	0	6
NMHLD	15	96	3	48
NMHLD	15	192	4	48
NMSTR	15	288	1
NMSI_	15	288	1	96	48	4
NMHLD	15	288	5	48
BRSTR	16	0	6
NMSUL	16	0	6	96	144	3
EXTAP	16	192	0
NMTAP	16	288	1
NMTAP	16	336	1
NMTAP	17	0	3
NMHLD	17	48	2	96
NMTAP	17	144	3
EXTAP	17	192	1
NMSTR	17	192	4
NMSI_	17	192	4	96	48	7
NMTAP	17	288	3
NMHLD	18	0	1	96
NMTAP	18	96	0
NMTAP	18	144	0
EXTAP	18	192	1
NMSTR	18	192	7
NMSI_	18	192	7	96	48	4
NMTAP	18	288	2
NMTAP	18	336	2
NMTAP	19	0	3
NMHLD	19	48	0	96
NMTAP	19	144	7
EXTAP	19	192	0
NMSTR	19	192	6
NMSI_	19	192	6	96	48	1
NMTAP	19	288	3
NMHLD	20	0	7	96
NMTAP	20	96	3
NMTAP	20	144	3
NMSTR	20	192	2
NMSI_	20	192	2	96	48	5
EXTAP	20	192	4
NMTAP	20	288	6
NMTAP	20	336	6
NMTAP	21	0	7
NMHLD	21	48	6	96
NMTAP	21	144	7
NMSTR	21	192	0
NMSI_	21	192	0	96	48	3
EXTAP	21	192	5
NMTAP	21	288	7
NMHLD	22	0	5	96
NMTAP	22	96	4
NMTAP	22	144	4
NMSTR	22	192	3
NMSI_	22	192	3	96	48	0
EXTAP	22	192	5
NMTAP	22	288	7
NMTAP	22	336	7
NMTAP	23	0	1
NMTAP	23	48	1
NMTAP	23	96	2
NMTAP	23	96	3
EXTAP	23	192	6
NMTAP	23	240	6
NMSTR	23	288	4
NMSCL	23	288	4	96	96	1
NMTAP	23	288	5
NMSTR	24	0	1
NMSCL	24	0	1	96	96	6
NMSTR	24	96	6
NMSCL	24	96	6	96	96	3
EXTAP	24	192	3
NMTAP	25	0	0
NMTAP	25	0	1
NMSTR	25	48	2
NMSV_	25	48	2	96	48	5
NMTAP	25	48	7
NMTAP	25	144	6
EXHLD	25	192	6	96
NMTAP	25	288	7
NMTAP	26	0	4
NMTAP	26	0	5
NMTAP	26	96	2
NMTAP	26	144	2
EXTAP	26	192	1
EXTAP	26	192	3
NMTAP	26	288	6
NMTAP	26	336	6
NMTAP	27	0	7
NMTAP	27	48	0
NMSTR	27	48	5
NMSV_	27	48	5	96	48	2
NMTAP	27	144	1
EXHLD	27	192	1	96
NMTAP	27	288	0
NMTAP	28	0	2
NMTAP	28	0	3
NMTAP	28	96	5
NMTAP	28	144	5
EXTAP	28	192	4
EXTAP	28	192	6
NMSTR	28	288	2
NMSCL	28	288	2	96	144	4
NMTAP	28	336	2
NMTAP	29	0	3
NMTAP	29	144	7
EXTAP	29	192	0
EXTAP	29	192	6
NMSTR	29	288	5
NMSCR	29	288	5	96	144	3
NMTAP	29	336	5
NMTAP	30	0	4
NMTAP	30	144	0
EXTAP	30	192	1
EXTAP	30	192	7
NMTAP	30	288	0
NMTAP	30	288	4
NMTAP	30	336	1
NMTAP	30	336	5
NMSTR	31	0	2
NMSI_	31	0	2	96	48	7
NMSTR	31	0	6
NMSI_	31	0	6	96	48	3
EXTAP	31	192	0
EXTAP	31	192	4
NMTAP	31	288	2
NMSTR	31	288	6
NMSLL	31	288	6	96	96	0
NMTTP	32	0	0	C	1	M1
CNSCL	32	96	0	0	96	7
CNSI_	32	192	7	0	48	3
CNSI_	32	240	3	0	48	1
BRTAP	33	0	0
BRTAP	33	0	1
NMTAP	33	96	4
EXTAP	33	96	6
NMTAP	33	144	5
NMTAP	33	192	2
NMTAP	33	240	3
EXTAP	33	288	1
NMTAP	33	288	4
NMTAP	33	336	2
NMTAP	34	0	5
NMTAP	34	48	4
NMTAP	34	96	3
EXSTR	34	96	7
NMSLL	34	96	7	96	48	3
NMTAP	34	144	2
NMSTR	34	192	1
NMSI_	34	192	1	96	48	5
EXTAP	34	288	0
NMTAP	34	288	1
NMTAP	35	0	6
NMTAP	35	0	7
NMTAP	35	48	5
EXTAP	35	96	1
NMTAP	35	96	4
NMTAP	35	144	2
NMTAP	35	192	3
NMTAP	35	192	7
NMTAP	35	240	6
NMTAP	35	288	4
EXTAP	35	288	5
NMTAP	35	336	3
NMTAP	36	0	1
NMTAP	36	24	0
NMTAP	36	48	1
NMTAP	36	72	0
NMTAP	36	144	5
NMTAP	36	168	4
NMSTR	36	192	6
NMSI_	36	192	6	96	48	2
NMTAP	36	288	6
NMTAP	36	288	7
NMTTP	37	0	0	A	0	M1
NMTTP	37	0	1	A	0	M1
NMTTP	37	0	1	D	0	M1
NMTTP	37	0	3	A	0	M1
NMTTP	37	0	4	A	0	M1
NMTTP	37	0	4	D	1	M1
NMTTP	37	144	2	A	0	M1
NMTTP	37	144	2	D	0	M1
NMTTP	37	144	3	D	0	M1
NMTTP	37	144	5	A	1	M1
NMTTP	37	144	5	D	0	M1
NMTTP	37	144	6	D	0	M1
NMTTP	37	288	3	A	0	M1
NMTTP	37	288	4	A	0	M1
NMTTP	37	288	4	D	0	M1
NMTTP	37	288	6	A	0	M1
NMTTP	37	288	7	A	0	M1
NMTTP	37	288	7	D	1	M1
NMSTR	38	192	1
NMSI_	38	192	1	96	48	5
NMTAP	38	192	5
NMTAP	38	288	0
NMTAP	38	288	1
NMTTP	39	0	3	A	0	M1
NMTTP	39	0	4	A	0	M1
NMTTP	39	0	4	D	1	M1
NMTTP	39	0	6	A	0	M1
NMTTP	39	0	7	A	0	M1
NMTTP	39	0	7	D	0	M1
NMTTP	39	144	2	A	1	M1
NMTTP	39	144	2	D	0	M1
NMTTP	39	144	3	D	0	M1
NMTTP	39	144	5	A	0	M1
NMTTP	39	144	5	D	0	M1
NMTTP	39	144	6	D	0	M1
NMTTP	39	288	0	A	0	M1
NMTTP	39	288	1	A	0	M1
NMTTP	39	288	1	D	1	M1
NMTTP	39	288	3	A	0	M1
NMTTP	39	288	4	A	0	M1
NMTTP	39	288	4	D	0	M1
NMTAP	40	0	6
NMTAP	40	48	6
NMTAP	40	96	5
NMTAP	40	144	5
NMTAP	40	192	3
NMTAP	40	192	4
NMTAP	40	240	2
NMTAP	40	288	1
NMTAP	40	288	3
NMTAP	40	336	0
NMTAP	41	0	6
NMSTR	41	0	7
NMSLR	41	0	7	96	48	3
NMTAP	41	96	4
NMTAP	41	144	5
NMSTR	41	192	6
NMSV_	41	192	6	96	48	3
NMTAP	41	240	7
NMTAP	41	288	0
NMTAP	41	336	1
NMTAP	42	0	2
NMTAP	42	24	3
NMTAP	42	48	2
NMTAP	42	96	1
NMTAP	42	96	4
NMTAP	42	144	0
NMSTR	42	192	6
NMSLL	42	192	6	96	48	2
NMSTR	42	192	7
NMSLL	42	192	7	96	48	3
NMSTR	43	0	0
NMSLL	43	0	0	96	48	4
NMTAP	43	0	1
NMTAP	43	96	3
NMTAP	43	144	2
NMSTR	43	192	1
NMSV_	43	192	1	96	48	4
NMTAP	43	240	0
NMTAP	43	288	7
NMTAP	43	336	6
NMTAP	44	0	5
NMTAP	44	48	4
NMTAP	44	96	3
NMTAP	44	144	2
EXSTR	44	192	1
BRSI_	44	192	1	96	48	5
EXSTR	44	192	6
BRSI_	44	192	6	96	48	2
NMTTP	45	0	0	A	0	M1
NMTTP	45	0	0	D	1	M1
NMTTP	45	0	7	A	0	M1
NMTTP	45	144	0	C	1	M1
NMTTP	45	144	1	B	0	M1
NMTTP	45	144	2	E	0	M1
NMTTP	45	144	5	B	0	M1
NMTTP	45	144	6	E	0	M1
NMTTP	45	288	3	E	0	M1
NMTTP	45	288	3	A	0	M1
NMTTP	45	288	3	D	0	M1
NMTTP	45	288	4	E	1	M1
NMTTP	45	288	4	A	0	M1
NMTTP	45	288	5	E	0	M1
NMTTP	45	288	5	D	0	M1
NMHLD	46	168	4	0
NMHLD	46	192	3	0
NMTAP	46	288	4
NMTAP	46	288	5
NMTAP	46	336	3
NMTAP	46	336	4
NMSTR	47	0	2
NMSI_	47	0	2	96	48	5
NMTAP	47	0	3
NMSTR	47	144	6
NMSI_	47	144	6	96	48	1
NMTAP	47	288	3
NMSTR	48	0	0
NMSV_	48	0	0	96	32	3
NMSTR	48	0	1
NMSCR	48	0	1	96	48	4
NMSTR	48	192	6
NMSV_	48	192	6	96	24	5
NMSTR	48	192	7
NMSI_	48	192	7	96	48	4
CNSI_	48	312	5	0	24	3
NMSTR	49	0	1
NMSV_	49	0	1	96	48	4
NMTAP	49	48	0
EXTAP	49	96	1
NMTAP	49	144	5
NMSTR	49	192	6
NMSUL	49	192	6	96	48	2
NMTAP	49	240	7
EXTAP	49	288	6
NMTAP	49	336	1
NMSTR	50	0	0
NMSCR	50	0	0	96	48	3
NMTAP	50	48	7
EXTAP	50	96	0
NMTAP	50	144	5
NMSTR	50	192	4
NMSI_	50	192	4	96	48	0
NMSTR	50	192	6
NMSI_	50	192	6	96	48	4
EXTAP	50	288	4
EXTAP	50	288	6
NMTAP	51	0	1
NMTAP	51	0	3
NMTAP	51	48	2
EXTAP	51	96	3
NMTAP	51	144	4
NMTAP	51	144	6
NMTAP	51	192	5
NMTAP	51	240	4
NMTAP	51	288	1
EXTAP	51	288	3
NMTAP	51	336	2
NMHLD	52	0	3	24
NMHLD	52	0	4	24
NMTAP	52	96	6
NMTAP	52	128	4
NMTAP	52	160	5
NMTAP	52	192	1
NMTAP	52	224	3
NMTAP	52	256	2
NMSTR	52	288	7
NMSI_	52	288	7	96	48	3
BRTAP	53	0	7
NMTAP	53	96	2
NMTAP	53	96	4
NMTAP	53	240	3
NMTAP	53	288	2
NMTAP	53	288	4
NMTAP	54	0	0
NMTAP	54	96	3
NMTAP	54	96	5
NMTAP	54	240	4
NMTAP	54	288	3
NMTAP	54	288	5
NMHLD	55	0	2	96
NMTAP	55	96	3
NMHLD	55	144	5	96
NMTAP	55	240	4
NMTAP	55	288	3
NMTAP	55	288	4
NMTAP	56	0	2
NMTAP	56	48	2
NMTAP	56	96	3
NMTAP	56	144	3
NMTAP	56	192	4
NMHLD	56	240	4	48
NMTTP	56	288	5	A	0	M1
BRTAP	57	0	0
NMTAP	57	0	1
NMTAP	57	96	4
EXTAP	57	96	6
NMTAP	57	144	5
NMTAP	57	192	2
NMTAP	57	240	3
EXTAP	57	288	1
NMTAP	57	288	4
NMTAP	57	336	2
NMTAP	58	0	5
NMTAP	58	48	4
NMTAP	58	96	3
EXSTR	58	96	7
NMSUL	58	96	7	96	48	3
NMTAP	58	144	2
NMSTR	58	192	1
NMSCR	58	192	1	96	48	5
EXTAP	58	288	0
NMTAP	58	288	1
NMTAP	59	0	6
BRTAP	59	0	7
EXTAP	59	96	1
NMTAP	59	96	3
NMTAP	59	144	2
NMTAP	59	192	5
NMTAP	59	240	4
NMTAP	59	288	3
EXTAP	59	288	6
NMTAP	59	336	5
NMHLD	60	0	2	48
NMHLD	60	0	4	48
NMHLD	60	96	3	48
NMHLD	60	96	5	48
NMSTR	60	192	2
NMSCR	60	192	2	96	48	3
NMTAP	60	192	6
NMTAP	60	224	2
NMTAP	60	224	6
NMTAP	60	256	2
NMTAP	60	256	6
CNSV_	60	336	3	0	48	4
CNSCR	61	0	4	0	48	5
NMHLD	61	0	7	96
EXTAP	61	96	6
NMTAP	61	240	1
NMTAP	61	288	0
EXTAP	61	288	1
NMHLD	62	0	3	288
NMHLD	62	0	4	192
NMTAP	63	0	4
NMSTR	63	0	5
NMSUR	63	0	5	96	48	3
NMSTR	63	144	1
NMSUR	63	144	1	96	48	7
NMTAP	63	288	4
BRHLD	64	0	0	32
EXHLD	64	0	2	32
EXHLD	64	64	1	32
BRHLD	64	64	3	32
BRHLD	64	128	2	32
EXHLD	64	128	4	32
EXHLD	64	192	3	32
BRHLD	64	192	5	32
BRHLD	64	256	4	32
EXHLD	64	256	6	32
EXHLD	64	320	5	32
BRHLD	64	320	7	32
BRSTR	65	0	0
NMSI_	65	0	0	96	48	4
EXTAP	65	96	3
NMTAP	65	144	2
NMSTR	65	192	1
NMSI_	65	192	1	96	48	7
NMTAP	65	240	5
EXTAP	65	288	4
NMTAP	65	336	5
NMSTR	66	0	6
NMSI_	66	0	6	96	48	0
NMTAP	66	48	2
EXTAP	66	96	3
NMTAP	66	144	2
NMSTR	66	192	1
NMSV_	66	192	1	96	48	7
NMTAP	66	240	5
EXTAP	66	288	4
NMTAP	66	336	5
NMSTR	67	0	6
NMSV_	67	0	6	96	48	0
NMTAP	67	48	2
EXTAP	67	96	3
NMTAP	67	144	2
NMSTR	67	192	1
NMSLR	67	192	1	96	72	7
NMTAP	67	240	5
EXTAP	67	288	4
NMTAP	67	336	5
NMSTR	68	0	6
NMSLL	68	0	6	96	72	0
NMTAP	68	48	2
EXTAP	68	96	3
NMTAP	68	144	2
NMSTR	68	192	1
NMSXL	68	192	1	96	96	7
NMTAP	68	240	5
EXTAP	68	288	4
NMTAP	68	336	5
NMSTR	69	0	6
NMSUL	69	0	6	96	216	4
EXTAP	69	96	3
NMTAP	69	144	3
NMTAP	69	192	2
NMTAP	69	240	2
EXTAP	69	288	1
NMTAP	69	336	1
NMSTR	70	0	0
NMSXL	70	0	0	96	216	3
EXTAP	70	96	4
NMTAP	70	144	4
NMTAP	70	192	5
NMTAP	70	240	5
EXTAP	70	288	6
NMTAP	70	336	6
NMTAP	71	0	4
NMSTR	71	0	7
NMSCL	71	0	7	96	48	4
EXTAP	71	96	3
NMTAP	71	144	2
NMSTR	71	192	0
NMSCR	71	192	0	96	48	3
NMTAP	71	192	3
EXTAP	71	288	4
NMTAP	71	336	5
NMSTR	72	0	7
NMSLL	72	0	7	96	96	3
EXSTR	72	96	3
NMSLL	72	96	3	96	96	7
NMSTR	72	192	7
NMSCL	72	192	7	96	96	3
EXSTR	72	288	3
NMSCL	72	288	3	96	96	7
BRTAP	73	0	7
NMTAP	73	192	3
NMTAP	73	192	4
NMHLD	74	0	2	168
NMTAP	74	192	1
NMTAP	74	192	3
NMHLD	75	0	5	168
NMTAP	75	192	4
NMTAP	75	192	6
NMHLD	76	0	0	168
NMHLD	76	0	7	168
NMTAP	76	192	1
NMTAP	76	192	6
NMHLD	76	264	3	0
NMHLD	76	288	4	0
NMHLD	77	0	2	96
NMTAP	77	0	6
EXTAP	77	96	0
NMTAP	77	144	0
NMTAP	77	192	1
NMTAP	77	240	1
EXTAP	77	288	7
NMTAP	77	336	0
NMTAP	77	336	6
NMTAP	78	0	1
NMHLD	78	0	5	96
EXTAP	78	96	7
NMTAP	78	144	7
NMTAP	78	192	6
NMTAP	78	240	6
EXTAP	78	288	0
NMTAP	78	336	1
NMTAP	78	336	7
NMTAP	79	0	2
NMTAP	79	0	6
NMTAP	79	48	4
NMTAP	79	72	3
NMTAP	79	96	4
NMTAP	79	144	2
NMTAP	79	168	3
NMTAP	79	192	2
NMTAP	79	240	5
NMTAP	79	264	4
NMTAP	79	288	5
NMTAP	79	336	2
NMTAP	79	360	3
NMTAP	80	0	1
NMTAP	80	48	5
NMTAP	80	72	4
NMTAP	80	96	6
NMTAP	80	144	0
NMTAP	80	168	7
NMSTR	80	192	1
NMSSR	80	192	1	96	288	5
NMTAP	80	216	6
NMTAP	80	240	0
NMTAP	80	264	7

T_REC_TAP	319
T_REC_BRK	6
T_REC_XTP	59
T_REC_BXX	0
T_REC_HLD	36
T_REC_XHO	8
T_REC_BHO	6
T_REC_BXH	0
T_REC_STR	68
T_REC_BST	2
T_REC_XST	9
T_REC_XBS	0
T_REC_TTP	66
T_REC_THO	0
T_REC_SLD	77
T_REC_BSL	2
T_REC_ALL	658
T_NUM_TAP	521
T_NUM_BRK	16
T_NUM_HLD	44
T_NUM_SLD	77
T_NUM_ALL	658
T_JUDGE_TAP	529
T_JUDGE_HLD	87
T_JUDGE_SLD	79
T_JUDGE_ALL	695
TTM_EACHPAIRS	96
TTM_SCR_TAP	260500
TTM_SCR_BRK	41600
TTM_SCR_HLD	44000
TTM_SCR_SLD	115500
TTM_SCR_ALL	461600
TTM_SCR_S	446200
TTM_SCR_SS	460000
TTM_RAT_ACV	10034

