VERSION	0.00.00	1.04.00
FES_MODE	0
BPM_DEF	182.300	182.300	182.300	182.300
MET_DEF	4	4
RESOLUTION	384
CLK_DEF	384
COMPATIBLE_CODE	MA2

BPM	0	0	182.300
MET	0	0	4	4

NMHLD	1	240	2	384
NMHLD	2	240	3	384
NMHLD	3	240	4	528
NMTAP	5	192	3
NMTAP	5	192	4
NMHLD	6	0	2	144
NMHLD	6	0	3	144
NMTAP	6	192	2
NMTAP	6	192	3
NMHLD	7	0	4	144
NMHLD	7	0	5	144
NMTAP	7	192	4
NMTAP	7	192	5
NMHLD	8	0	3	144
NMHLD	8	0	4	144
NMTAP	8	192	3
NMTAP	8	192	4
NMTAP	8	288	2
NMHLD	9	0	0	192
NMSTR	9	0	1
NMSI_	9	0	1	96	144	5
NMSTR	10	0	6
NMSI_	10	0	6	96	144	2
NMHLD	10	0	7	192
NMHLD	11	0	0	192
NMSTR	11	0	1
NMSI_	11	0	1	96	144	4
NMHLD	12	0	3	192
NMSTR	12	0	5
NMSCR	12	0	5	96	144	0
NMTTP	13	0	1	E	0	M1
NMTTP	13	96	2	E	0	M1
NMTTP	13	192	3	E	0	M1
NMTTP	13	192	4	E	0	M1
NMTTP	14	0	7	E	0	M1
NMTTP	14	96	6	E	0	M1
NMTTP	14	192	4	E	0	M1
NMTTP	14	192	5	E	0	M1
NMTAP	15	0	3
NMTAP	15	0	4
NMTAP	15	192	4
NMTAP	15	288	4
NMHLD	16	0	3	144
NMHLD	16	0	5	144
NMTAP	16	192	3
NMTAP	16	192	5
NMTAP	16	288	5
NMHLD	17	0	4	144
NMHLD	17	0	6	144
NMTAP	17	192	4
NMTAP	17	192	6
NMTAP	17	288	6
NMHLD	18	0	4	144
NMHLD	18	0	5	144
NMTAP	18	192	4
NMTAP	18	192	5
NMTAP	18	288	3
NMTAP	18	288	4
NMHLD	19	0	2	144
NMHLD	19	0	3	144
NMTAP	19	192	2
NMTAP	19	192	3
NMTAP	19	288	1
NMHLD	20	0	0	144
NMHLD	20	0	1	144
NMTAP	20	192	0
NMTAP	20	192	1
NMSTR	20	288	7
NMSI_	20	288	7	96	144	3
NMTAP	21	144	2
NMTAP	21	192	2
NMSTR	21	288	1
NMSCR	21	288	1	96	144	4
NMTAP	22	144	5
NMTAP	22	192	5
NMTAP	22	288	6
NMTAP	23	0	1
NMTAP	23	0	7
NMTAP	23	96	0
NMTAP	23	192	6
NMTAP	23	192	7
NMTAP	23	288	5
NMTAP	24	0	6
NMTAP	24	0	7
NMTAP	24	96	0
NMTAP	24	144	0
NMTAP	24	192	7
NMTAP	24	288	1
NMTAP	24	288	6
NMHLD	25	0	2	192
NMTAP	25	144	3
NMTAP	25	192	3
NMSTR	25	288	1
NMSCL	25	288	1	96	144	6
NMHLD	25	288	4	96
NMTAP	26	288	5
NMTAP	27	0	4
NMHLD	27	0	5	192
NMTAP	27	144	3
NMTAP	27	192	3
NMHLD	27	288	4	96
NMSTR	27	288	6
NMSCR	27	288	6	96	144	1
NMTAP	28	288	2
NMTAP	28	288	3
NMSTR	29	0	2
NMSCL	29	0	2	96	144	7
NMSTR	29	0	3
NMSUL	29	0	3	96	144	6
NMSTR	30	0	4
NMSUR	30	0	4	96	144	1
NMSTR	30	0	5
NMSCR	30	0	5	96	144	0
NMHLD	31	0	7	192
NMTAP	31	192	0
NMTAP	31	288	1
NMTAP	31	288	6
NMHLD	32	0	3	144
NMHLD	32	0	4	144
EXTAP	32	288	2
EXTAP	32	288	5
BRTAP	33	0	0
BRTAP	33	0	1
NMTAP	33	96	6
NMTAP	33	96	7
NMTAP	33	144	6
NMTAP	33	144	7
NMTAP	33	240	5
NMTAP	33	288	4
NMTAP	33	336	5
NMTAP	34	48	3
NMTAP	34	48	6
NMTAP	34	144	0
NMTAP	34	144	1
NMTAP	34	192	0
NMTAP	34	192	1
NMTAP	34	288	2
NMTAP	34	288	4
NMTAP	35	0	6
NMTAP	35	0	7
NMTAP	35	96	5
NMHLD	35	144	5	96
NMTAP	35	240	4
NMTAP	35	336	2
NMTAP	35	336	6
NMTAP	36	0	2
NMSTR	36	0	6
NMSUL	36	0	6	96	144	2
NMTAP	36	192	0
NMTAP	36	288	1
NMHLD	37	0	2	144
NMHLD	37	144	3	144
NMHLD	37	288	4	288
NMTAP	38	192	5
NMTAP	38	288	4
NMTAP	38	288	5
NMHLD	39	0	6	144
NMHLD	39	144	5	144
NMTAP	39	288	4
NMTAP	40	0	3
NMTAP	40	0	4
NMTAP	40	96	2
NMTAP	40	96	3
NMTAP	40	192	3
NMTAP	40	192	4
NMTAP	40	288	2
NMTAP	40	288	5
NMTAP	41	0	0
NMTAP	41	0	7
NMTAP	41	96	2
NMTAP	41	144	2
NMTAP	41	144	3
NMTAP	41	240	5
NMTAP	41	288	5
NMTAP	41	336	4
NMTAP	42	48	6
NMTAP	42	48	7
NMTAP	42	144	1
NMTAP	42	192	0
NMTAP	42	192	1
NMTAP	42	288	2
NMTAP	42	288	7
NMTAP	43	0	3
NMTAP	43	0	6
NMTAP	43	96	2
NMTAP	43	96	5
NMTAP	43	144	2
NMTAP	43	144	5
NMTAP	43	240	1
NMTAP	43	240	4
NMTAP	43	288	1
NMTAP	43	288	4
NMTAP	44	0	2
NMTAP	44	24	3
NMTAP	44	48	2
NMTAP	44	144	5
NMTAP	44	168	4
NMTAP	44	192	5
NMTAP	44	288	2
NMTAP	44	288	3
NMHLD	45	0	1	144
NMTAP	45	0	4
NMHLD	45	144	2	144
NMHLD	45	288	3	288
NMTAP	46	192	4
NMTAP	46	288	5
NMHLD	47	0	4	96
NMHLD	47	0	5	96
NMHLD	47	144	4	96
NMHLD	47	144	5	96
NMSTR	47	288	4
NMSUR	47	288	4	96	192	3
NMSTR	47	288	5
NMSCR	47	288	5	96	192	2
BRTAP	49	0	1
BRTAP	49	0	4
NMTAP	49	96	2
NMTAP	49	144	2
NMTAP	49	192	7
NMTAP	49	240	7
NMTAP	49	288	4
NMTAP	49	336	4
NMTAP	50	0	5
NMTAP	50	48	5
NMTAP	50	96	0
NMTAP	50	144	0
NMTAP	50	192	3
NMTAP	50	240	3
NMTAP	50	288	2
NMTAP	50	288	3
NMTAP	51	0	0
NMTAP	51	0	5
NMTAP	51	96	1
NMTAP	51	96	6
NMTAP	51	144	1
NMTAP	51	144	6
NMTAP	51	240	2
NMTAP	51	240	7
NMSTR	51	288	2
BRSI_	51	288	2	96	144	5
BRSI_	51	288	2	96	144	7
NMTAP	51	288	7
EXTAP	52	288	0
EXTAP	52	288	4
NMHLD	53	0	1	96
NMHLD	53	0	3	96
NMHLD	53	144	1	96
NMHLD	53	144	3	96
NMTAP	53	288	2
NMHLD	53	288	4	288
NMTAP	54	144	3
NMTAP	54	192	3
NMTAP	54	288	4
NMTAP	54	288	5
NMHLD	55	0	4	96
NMHLD	55	0	6	96
NMHLD	55	144	4	96
NMHLD	55	144	6	96
NMTAP	55	288	4
NMTAP	55	288	6
NMSTR	56	0	7
NMSI_	56	0	7	96	96	3
BRTAP	56	192	0
NMTAP	56	288	0
NMTAP	57	0	1
NMTAP	57	0	4
NMTAP	57	96	5
NMTAP	57	144	5
NMTAP	57	192	4
NMTAP	57	240	6
NMTAP	57	288	0
NMTAP	57	336	0
NMTAP	58	0	3
NMTAP	58	48	3
NMTAP	58	96	1
NMTAP	58	144	1
NMTAP	58	192	5
NMTAP	58	240	5
NMTAP	58	288	4
NMTAP	58	288	5
NMTAP	59	0	2
NMTAP	59	0	7
NMTAP	59	96	1
NMTAP	59	96	6
NMTAP	59	144	1
NMTAP	59	144	6
NMTAP	59	240	0
NMTAP	59	240	5
NMTAP	59	288	0
NMTAP	59	288	5
NMTAP	60	0	6
NMTAP	60	24	7
NMTAP	60	48	6
NMTAP	60	144	1
NMTAP	60	168	0
NMTAP	60	192	1
NMTAP	60	288	2
NMTAP	60	288	3
NMHLD	61	0	2	144
NMTAP	61	0	3
NMHLD	61	144	1	144
NMTAP	61	288	0
NMHLD	62	0	2	192
NMTAP	62	0	7
NMSTR	62	192	5
NMSI_	62	192	5	96	48	3
NMTAP	63	0	2
NMTAP	63	96	1
NMTAP	63	96	7
NMTAP	63	144	1
NMTAP	63	144	7
NMTAP	63	240	0
NMTAP	63	240	6
NMTAP	63	288	0
NMTAP	63	288	6
NMSTR	64	0	2
NMSI_	64	0	2	96	48	7
NMTAP	64	0	4
NMSTR	64	192	6
NMSI_	64	192	6	96	48	3
BRTAP	65	0	2
NMTAP	65	96	1
NMTAP	65	96	3
NMTAP	65	192	5
NMTAP	65	240	4
NMTAP	65	288	3
NMTAP	65	288	6
NMTAP	66	0	0
NMTAP	66	0	1
NMTAP	66	96	6
NMTAP	66	96	7
NMTAP	66	192	4
NMTAP	66	192	5
NMTAP	66	288	3
NMTAP	66	288	6
BRTAP	67	0	0
NMTAP	67	96	1
NMTAP	67	96	7
NMTAP	67	192	6
NMTAP	67	240	7
NMTAP	67	288	0
NMTAP	67	288	5
NMTAP	68	0	2
NMTAP	68	0	3
NMTAP	68	96	0
NMTAP	68	96	1
NMTAP	68	192	6
NMTAP	68	192	7
NMTAP	68	288	0
NMTAP	68	288	5
NMTAP	69	0	2
NMTAP	69	0	3
NMTAP	69	96	2
NMTAP	69	144	2
NMTAP	69	192	3
NMTAP	69	240	1
NMTAP	69	288	7
NMTAP	69	336	7
NMTAP	70	0	0
NMTAP	70	0	6
NMTAP	70	96	5
NMTAP	70	144	5
NMTAP	70	192	4
NMTAP	70	240	6
NMTAP	70	288	0
NMTAP	70	336	0
NMTAP	71	0	1
NMSTR	71	0	7
NMSI_	71	0	7	96	48	3
NMSTR	71	192	2
NMSI_	71	192	2	96	48	0
NMSTR	71	192	4
NMSI_	71	192	4	96	48	6
NMSTR	72	0	7
NMSF_	72	0	7	96	48	3
BRTAP	72	192	1
BRTAP	72	192	5
NMTAP	72	288	1
NMTAP	72	288	5
BXHLD	73	0	2	384
BXTAP	73	0	6
NMTTP	73	192	2	B	0	M1
NMTTP	73	192	3	B	0	M1
NMHLD	74	0	5	384
NMTTP	74	192	4	B	0	M1
NMTTP	74	192	5	B	0	M1
NMHLD	75	0	2	384
NMTTP	75	192	3	B	0	M1
NMTTP	75	192	3	A	0	M1
NMTAP	76	0	4
NMTAP	76	96	3
NMTAP	76	96	5
BRTAP	76	192	2
BRTAP	76	192	6
NMHLD	77	0	1	96
NMHLD	77	96	3	96
NMTAP	77	192	4
NMTAP	77	288	5
NMTAP	77	336	5
NMTAP	78	0	4
NMHLD	78	0	6	96
NMHLD	78	96	0	96
NMTAP	78	192	2
NMTAP	78	288	3
NMTAP	78	336	3
NMTAP	79	0	2
NMTAP	79	0	4
NMTAP	79	96	4
NMTAP	79	96	5
NMTAP	79	192	1
NMTAP	79	192	3
NMTAP	79	288	4
NMTAP	79	288	6
NMTAP	80	0	1
NMTAP	80	0	2
NMTAP	80	96	5
NMTAP	80	96	6
NMSTR	80	192	0
NMSI_	80	192	0	96	48	5
NMSTR	80	192	1
NMSI_	80	192	1	96	48	4

T_REC_TAP	276
T_REC_BRK	11
T_REC_XTP	4
T_REC_BXX	1
T_REC_HLD	61
T_REC_XHO	0
T_REC_BHO	0
T_REC_BXH	1
T_REC_STR	26
T_REC_BST	0
T_REC_XST	0
T_REC_XBS	0
T_REC_TTP	14
T_REC_THO	0
T_REC_SLD	25
T_REC_BSL	2
T_REC_ALL	421
T_NUM_TAP	320
T_NUM_BRK	15
T_NUM_HLD	61
T_NUM_SLD	25
T_NUM_ALL	421
T_JUDGE_TAP	332
T_JUDGE_HLD	217
T_JUDGE_SLD	27
T_JUDGE_ALL	576
TTM_EACHPAIRS	125
TTM_SCR_TAP	160000
TTM_SCR_BRK	39000
TTM_SCR_HLD	61000
TTM_SCR_SLD	37500
TTM_SCR_ALL	297500
TTM_SCR_S	287150
TTM_SCR_SS	296000
TTM_RAT_ACV	10050

