VERSION	0.00.00	1.04.00
FES_MODE	0
BPM_DEF	190.000	190.000	190.000	190.000
MET_DEF	4	4
RESOLUTION	384
CLK_DEF	384
COMPATIBLE_CODE	MA2

BPM	0	0	190.000
MET	0	0	4	4

NMTAP	1	0	3
NMTAP	1	48	5
NMTAP	1	96	4
NMHLD	1	144	3	48
NMTAP	1	240	4
EXTAP	1	288	2
NMTAP	2	0	3
NMTAP	2	48	5
NMTAP	2	96	4
NMTAP	2	144	3
NMTAP	2	240	4
EXTAP	2	288	2
NMTAP	3	0	4
NMTAP	3	48	1
NMTAP	3	96	2
NMHLD	3	144	4	48
NMTAP	3	240	3
EXTAP	3	288	5
NMTAP	4	0	4
NMTAP	4	48	1
NMTAP	4	96	2
NMTAP	4	144	4
NMTAP	4	240	3
EXTAP	4	288	5
NMTAP	5	0	3
NMTAP	5	48	6
NMTAP	5	96	5
NMHLD	5	144	3	48
NMTAP	5	240	5
EXTAP	5	288	2
EXTAP	5	288	4
NMTAP	6	0	3
NMTAP	6	48	6
NMTAP	6	96	5
NMTAP	6	144	3
NMTAP	6	240	5
EXTAP	6	288	2
EXTAP	6	288	4
NMTAP	7	0	4
NMTAP	7	48	1
NMTAP	7	96	2
NMHLD	7	144	4	48
NMSTR	7	192	1
NMSI_	7	192	1	96	48	3
NMTAP	8	0	6
NMTAP	8	32	4
NMTAP	8	64	5
NMTAP	8	96	1
NMTAP	8	128	3
NMTAP	8	160	2
NMTAP	8	192	5
NMTAP	8	224	3
NMTAP	8	256	4
NMTTP	8	288	0	C	0	M1
BRTAP	9	0	1
BRTAP	9	0	5
NMTAP	9	96	0
NMSTR	9	96	6
NMSI_	9	96	6	96	48	3
NMSTR	9	192	1
NMSUR	9	192	1	96	240	4
NMTAP	9	288	7
NMHLD	9	336	7	192
NMSTR	10	240	6
NMSI_	10	240	6	96	48	0
NMTAP	10	288	4
NMTAP	10	336	6
NMSTR	11	48	2
NMSI_	11	48	2	96	48	4
NMTAP	11	96	0
NMTAP	11	144	2
NMTAP	11	240	6
NMTAP	11	288	4
NMTAP	11	336	5
NMHLD	12	0	2	48
NMTAP	12	48	3
NMHLD	12	96	2	48
NMTAP	12	144	3
NMHLD	12	192	2	48
NMTAP	12	240	3
NMTAP	12	288	2
EXTAP	12	336	1
EXTAP	12	336	4
NMSTR	13	48	7
NMSCL	13	48	7	96	48	4
NMTAP	13	96	0
NMTAP	13	144	7
NMSTR	13	240	2
NMSCL	13	240	2	96	48	7
NMTAP	13	288	3
NMTAP	13	336	2
NMSTR	14	48	5
NMSCL	14	48	5	96	48	2
NMTAP	14	96	6
NMTAP	14	144	5
NMSTR	14	240	0
NMSCL	14	240	0	96	48	5
NMTAP	14	288	1
NMTAP	14	336	0
NMSTR	15	48	3
NMSCL	15	48	3	96	48	0
NMTAP	15	96	4
NMTAP	15	144	3
NMSTR	15	240	6
NMSI_	15	240	6	96	48	2
NMTAP	15	288	7
NMTAP	15	336	6
NMSTR	16	48	0
NMSCR	16	48	0	96	48	4
NMSUR	16	48	0	96	48	4
NMTAP	16	144	0
NMTAP	16	240	6
NMTAP	16	240	7
EXTAP	16	288	0
EXTAP	16	288	5
NMTAP	17	0	2
NMTAP	17	0	3
NMSTR	17	96	1
NMSI_	17	96	1	96	48	4
NMTAP	17	144	1
NMSTR	17	192	6
NMSUL	17	192	6	96	240	3
NMTAP	17	288	0
NMHLD	17	336	0	192
NMSTR	18	240	2
NMSI_	18	240	2	96	48	4
NMTAP	18	288	1
NMTAP	18	336	2
NMSTR	19	48	6
NMSI_	19	48	6	96	48	0
NMTAP	19	96	5
NMTAP	19	144	6
NMTAP	19	240	1
NMTAP	19	288	3
NMTAP	19	336	2
NMHLD	20	0	5	48
NMTAP	20	48	4
NMHLD	20	96	5	48
NMTAP	20	144	4
NMHLD	20	192	5	48
NMTAP	20	240	4
NMTAP	20	288	5
EXTAP	20	336	3
EXTAP	20	336	6
NMTAP	21	48	2
NMTAP	21	96	3
NMTAP	21	144	1
NMSTR	21	144	4
NMSCR	21	144	4	96	96	7
NMSTR	21	240	7
NMSCR	21	240	7	96	96	2
NMSTR	21	336	2
NMSCR	21	336	2	96	96	5
NMSTR	22	48	5
NMSCR	22	48	5	96	96	0
NMTAP	22	144	0
NMTAP	22	240	3
NMTAP	22	288	3
NMHLD	23	0	6	96
NMTAP	23	96	7
NMTAP	23	144	0
NMSTR	23	144	5
NMSI_	23	144	5	96	48	3
NMSTR	23	240	1
NMSI_	23	240	1	96	48	5
NMTAP	23	336	1
EXSTR	23	336	7
NMSCL	23	336	7	96	48	4
EXSTR	24	48	0
NMSCR	24	48	0	96	48	3
NMTAP	24	48	7
EXTAP	24	144	0
EXTAP	24	144	7
NMTAP	24	240	4
NMTAP	24	240	5
BRTAP	24	288	3
BRTAP	24	288	7
NMTHO	25	0	0	288	C	0	M1
NMTTP	25	288	0	D	0	M1
NMTTP	26	0	7	E	0	M1
NMTTP	26	96	6	D	0	M1
NMTAP	26	288	4
NMTAP	26	288	5
NMTHO	27	0	0	288	C	0	M1
NMTTP	27	288	0	D	0	M1
NMTTP	28	0	1	E	0	M1
NMTTP	28	96	2	D	0	M1
NMTAP	28	288	2
NMTAP	28	288	3
NMSTR	29	0	0
NMSI_	29	0	0	96	48	2
NMHLD	29	0	1	96
NMHLD	29	192	6	96
NMSTR	29	192	7
NMSI_	29	192	7	96	48	5
NMHLD	30	0	1	96
NMSTR	30	0	2
NMSI_	30	0	2	96	48	0
NMSTR	30	192	5
NMSI_	30	192	5	96	48	7
NMHLD	30	192	6	96
NMTAP	31	0	0
NMTAP	31	0	4
NMTAP	31	48	1
NMTAP	31	96	2
NMTAP	31	96	6
NMTAP	31	144	5
NMTAP	31	192	1
NMTAP	31	192	4
NMTAP	31	240	2
NMTAP	31	288	3
NMTAP	31	288	4
NMTAP	31	336	5
EXSTR	32	0	6
NMSI_	32	0	6	96	48	3
NMTAP	32	48	7
NMTAP	32	96	6
EXSTR	32	144	1
NMSI_	32	144	1	96	48	5
NMTAP	32	192	0
NMTAP	32	240	1
EXSTR	32	288	7
NMSF_	32	288	7	96	144	3
EXTAP	33	0	7
NMSTR	33	192	1
NMSI_	33	192	1	96	48	4
NMSTR	33	192	5
NMSV_	33	192	5	96	48	0
NMTTP	33	288	0	C	1	M1
BRTAP	34	0	2
BRTAP	34	0	6
NMTAP	34	96	1
NMTAP	34	96	7
NMTAP	34	144	1
NMTAP	34	144	7
NMTAP	34	240	4
NMTAP	34	288	3
NMTAP	34	288	5
NMTAP	34	336	6
NMTAP	35	0	0
NMTAP	35	48	1
NMTAP	35	96	3
NMTAP	35	144	2
NMSTR	35	144	4
NMSXL	35	144	4	96	96	4
NMSXR	35	144	4	96	96	4
NMHLD	36	0	0	96
NMTAP	36	96	2
NMHLD	36	144	2	96
NMTAP	36	240	4
NMTAP	36	288	3
NMTAP	36	336	5
NMSTR	37	0	6
NMSLL	37	0	6	96	96	0
NMSTR	37	48	4
NMSV_	37	48	4	96	48	7
NMTAP	37	96	6
NMTTP	37	144	0	C	1	M1
NMTAP	37	288	1
NMTAP	37	336	1
NMSTR	38	0	0
NMSI_	38	0	0	96	48	2
NMSTR	38	0	7
NMSI_	38	0	7	96	48	3
NMSTR	38	192	4
NMSI_	38	192	4	96	48	0
NMSTR	38	192	5
NMSI_	38	192	5	96	48	7
NMSTR	39	0	1
NMSI_	39	0	1	96	48	3
NMSTR	39	96	0
NMSI_	39	96	0	96	48	4
NMSTR	39	192	7
NMSI_	39	192	7	96	48	5
NMSTR	39	288	2
NMSXL	39	288	2	96	96	1
NMTAP	40	0	2
CNSCL	40	96	1	0	144	4
NMTAP	40	240	7
NMTAP	40	288	7
NMTAP	40	336	0
EXSTR	40	336	6
NMSI_	40	336	6	96	48	1
EXSTR	41	48	2
NMSI_	41	48	2	96	48	5
NMTAP	41	48	6
NMTAP	41	144	2
EXTAP	41	144	7
EXTAP	41	240	3
EXTAP	41	240	4
BRTAP	41	288	1
BRTAP	41	288	6
NMTAP	42	0	0
NMTAP	42	0	7
NMTAP	42	96	2
NMTAP	42	96	5
NMTAP	42	144	2
NMSTR	42	144	5
NMSCL	42	144	5	96	48	3
NMSTR	42	240	1
NMSUR	42	240	1	96	48	5
NMTAP	42	336	7
NMSTR	43	48	6
NMSUL	43	48	6	96	144	3
NMTAP	43	96	6
NMTAP	43	144	0
NMTAP	43	288	2
NMTAP	43	336	1
NMHLD	44	0	0	96
NMTAP	44	96	7
NMHLD	44	144	6	96
NMTAP	44	240	4
NMTAP	44	288	5
NMTAP	44	336	2
NMSTR	45	0	1
NMSLR	45	0	1	96	96	7
NMSTR	45	48	6
NMSI_	45	48	6	96	48	4
NMTAP	45	96	1
NMTAP	45	144	6
NMTAP	45	288	0
NMTAP	45	336	1
NMSTR	46	0	2
NMSI_	46	0	2	96	48	5
NMSTR	46	0	3
NMSI_	46	0	3	96	48	5
NMSTR	46	192	6
NMSI_	46	192	6	96	48	1
NMSTR	46	192	7
NMSI_	46	192	7	96	48	1
NMTAP	47	0	2
NMSTR	47	0	3
NMSI_	47	0	3	96	48	7
NMSTR	47	96	0
NMSI_	47	96	0	96	48	2
NMSTR	47	192	6
NMSI_	47	192	6	96	48	4
NMSTR	47	288	0
NMSXL	47	288	0	96	192	0
NMTAP	48	0	7
NMSTR	48	240	7
NMSXR	48	240	7	96	192	7
NMTAP	48	288	7
NMTAP	48	336	0
NMSTR	49	240	0
NMSXL	49	240	0	96	192	0
NMTAP	49	288	0
NMTAP	49	336	7
CNSCL	50	144	0	0	144	4
CNSXL	50	288	4	0	192	4
CNSCL	51	96	4	0	288	0
NMTAP	52	0	4
NMTAP	52	144	3
NMTAP	52	192	3
NMTAP	52	336	5
NMTAP	53	48	4
NMTAP	53	144	3
NMTAP	53	192	4
NMTAP	53	240	4
NMTAP	53	288	4
NMTAP	53	336	4
EXTAP	54	0	2
EXTAP	54	0	6
NMSTR	54	96	0
NMSCR	54	96	0	96	48	3
NMTAP	54	144	0
NMSTR	54	192	6
NMSXR	54	192	6	96	240	7
NMTAP	54	288	1
NMHLD	54	336	1	192
NMSTR	55	240	2
NMSI_	55	240	2	96	48	4
NMTAP	55	288	1
NMTAP	55	336	2
NMSTR	56	48	6
NMSI_	56	48	6	96	48	2
NMTAP	56	96	7
NMTAP	56	144	6
NMTAP	56	240	0
NMTAP	56	288	1
NMTAP	56	336	2
NMHLD	57	0	4	48
NMTAP	57	48	3
NMHLD	57	96	5	48
NMTAP	57	144	4
NMHLD	57	192	6	48
NMTAP	57	240	5
NMTAP	57	288	7
EXTAP	57	336	1
EXTAP	57	336	5
NMTAP	58	96	2
NMTAP	58	96	3
NMTAP	58	144	1
NMSTR	58	144	4
NMSCR	58	144	4	96	96	0
NMSTR	58	240	0
NMSCR	58	240	0	96	48	4
NMTAP	58	336	4
NMSTR	59	48	0
NMSI_	59	48	0	96	48	3
NMSI_	59	48	0	96	48	5
NMTAP	59	144	0
NMTAP	59	240	2
NMTAP	59	240	6
NMTAP	59	336	0
NMTAP	60	0	1
NMTAP	60	0	7
NMTAP	60	96	4
NMTAP	60	96	5
NMTAP	60	144	3
NMTAP	60	144	6
NMSTR	60	240	7
NMSI_	60	240	7	96	72	4
NMSTR	60	336	4
NMSI_	60	336	4	96	72	7
NMSTR	61	48	7
NMSI_	61	48	7	96	72	2
NMSTR	61	144	2
NMSI_	61	144	2	96	72	7
BRTAP	62	0	0
NMSTR	62	96	7
NMSCL	62	96	7	96	48	4
NMTAP	62	144	7
NMSTR	62	192	1
NMSXL	62	192	1	96	240	0
NMTAP	62	288	6
NMHLD	62	336	6	192
NMSTR	63	240	5
NMSI_	63	240	5	96	48	3
NMTAP	63	288	6
NMTAP	63	336	5
NMSTR	64	48	1
NMSI_	64	48	1	96	48	5
NMTAP	64	96	0
NMTAP	64	144	1
NMTAP	64	240	7
NMTAP	64	288	6
NMTAP	64	336	5
NMHLD	65	0	3	48
NMTAP	65	48	4
NMHLD	65	96	2	48
NMTAP	65	144	3
NMHLD	65	192	1	48
NMTAP	65	240	2
NMTAP	65	288	0
EXTAP	65	336	2
EXTAP	65	336	6
NMTAP	66	48	5
NMTAP	66	96	4
NMTAP	66	144	3
NMTAP	66	144	6
NMTAP	66	240	2
NMTAP	66	288	3
NMTAP	66	336	1
NMSTR	66	336	4
NMSI_	66	336	4	96	48	0
NMSTR	67	48	1
NMSCR	67	48	1	96	144	7
NMTAP	67	144	7
NMTAP	67	336	0
NMHLD	68	0	1	96
NMTAP	68	96	0
NMTAP	68	144	2
NMSTR	68	144	7
NMSCL	68	144	7	96	48	4
NMSTR	68	240	0
NMSCR	68	240	0	96	48	3
NMTAP	68	240	7
NMTAP	68	336	0
EXTAP	68	336	5
NMTAP	69	0	6
EXTAP	69	48	7
NMTAP	69	96	0
NMTAP	69	96	1
EXTAP	69	144	2
NMTAP	69	192	3
NMTAP	69	192	4
NMTAP	69	240	5
BRSTR	69	288	6
NMSXR	69	288	6	96	288	3
BRTAP	69	288	7
NMHLD	70	0	0	288
NMSTR	71	0	2
NMSCR	71	0	2	96	96	5
NMTAP	71	96	1
NMSTR	71	288	1
NMSXL	71	288	1	96	288	4
NMHLD	72	0	7	288
NMSTR	73	0	5
NMSCL	73	0	5	96	96	2
NMTAP	73	96	6
NMTAP	73	288	3
NMTAP	73	288	4
NMSTR	74	0	2
NMSI_	74	0	2	96	48	7
NMSTR	74	0	6
NMSI_	74	0	6	96	48	3
NMSTR	74	192	0
NMSCR	74	192	0	96	48	3
NMSTR	74	192	4
NMSCR	74	192	4	96	48	7
NMSTR	75	0	0
NMSI_	75	0	0	96	48	5
NMSTR	75	0	4
NMSI_	75	0	4	96	48	1
NMSTR	75	192	0
NMSI_	75	192	0	96	48	4
NMTAP	75	192	4
EXSTR	75	288	0
NMSCL	75	288	0	96	48	5
NMSCR	75	288	0	96	48	3
NMTAP	76	0	0
NMTAP	76	96	2
NMTAP	76	96	6
NMTAP	76	144	2
NMTAP	76	144	6
NMTAP	76	240	3
NMTAP	76	240	5
NMTAP	76	288	4
NMTAP	76	336	2
EXTAP	77	0	1
EXTAP	77	0	7
NMTAP	77	48	3
NMTAP	77	96	5
EXTAP	77	144	0
EXTAP	77	144	6
NMTAP	77	192	4
NMTAP	77	240	2
EXTAP	77	288	0
EXTAP	77	288	7
NMTAP	78	0	2
NMTAP	78	32	4
NMTAP	78	64	4
NMTAP	78	96	3
NMTAP	78	128	5
NMTAP	78	160	5
NMSTR	78	192	4
NMSI_	78	192	4	96	48	0
NMTAP	78	224	6
NMTAP	78	256	6
NMTTP	78	288	0	C	1	M1
BRTAP	79	0	2
BRTAP	79	0	6
NMTAP	79	96	0
NMTAP	79	96	1
NMTAP	79	144	2
NMSTR	79	144	7
NMSCL	79	144	7	96	48	4
NMSTR	79	240	0
NMSCR	79	240	0	96	48	3
NMTAP	79	240	7
NMTAP	79	336	0
NMTAP	79	336	7
NMTAP	80	48	4
NMTAP	80	48	6
NMTAP	80	96	0
NMTAP	80	96	7
NMTAP	80	144	1
NMSTR	80	144	3
BRSXL	80	144	3	96	96	3
BRSXR	80	144	3	96	96	3
NMTAP	81	0	0
NMHLD	81	0	7	96
NMTAP	81	96	2
NMTAP	81	144	0
NMHLD	81	144	1	96
NMTAP	81	240	3
NMTAP	81	288	2
NMTAP	81	288	4
NMTAP	81	336	1
NMTAP	81	336	5
NMSTR	82	0	6
NMSI_	82	0	6	96	48	0
NMSTR	82	48	0
NMSI_	82	48	0	96	48	4
NMTAP	82	96	6
BXSTR	82	144	2
NMSI_	82	144	2	96	48	6
CNSI_	82	192	4	0	48	2
NMTAP	82	288	0
NMTAP	82	336	0
NMTAP	83	0	1
NMSTR	83	0	7
NMSCL	83	0	7	96	72	2
NMTTP	83	96	5	B	0	M1
NMTTP	83	96	6	E	0	M1
NMSTR	83	192	0
NMSCR	83	192	0	96	72	5
NMTTP	83	288	2	B	0	M1
NMTTP	83	288	2	E	0	M1
NMSTR	84	0	7
NMSI_	84	0	7	96	48	5
NMSTR	84	96	0
NMSI_	84	96	0	96	48	4
NMTAP	84	96	7
NMTAP	84	192	0
NMSTR	84	192	1
NMSI_	84	192	1	96	48	3
NMTAP	84	288	1
NMSTR	84	288	5
NMSXR	84	288	5	96	96	6
NMTTP	85	0	0	B	0	M1
NMTTP	85	0	0	E	1	M1
NMTTP	85	0	7	B	0	M1
CNSCR	85	96	6	0	144	3
NMTAP	85	240	7
NMTAP	85	288	0
NMTAP	85	336	1
EXSTR	85	336	6
NMSI_	85	336	6	96	48	1
EXSTR	86	48	2
NMSI_	86	48	2	96	48	5
NMTAP	86	48	6
NMTAP	86	144	2
EXTAP	86	144	5
EXTAP	86	240	0
EXTAP	86	240	7
BRTAP	86	288	1
BRTAP	86	288	6
NMSTR	87	0	3
NMSI_	87	0	3	96	48	7
NMTAP	87	0	4
NMTAP	87	96	6
NMSTR	87	144	6
NMSCL	87	144	6	96	120	0
NMTAP	87	240	0
NMTAP	87	240	6
NMSTR	88	0	7
NMSI_	88	0	7	96	48	4
NMSTR	88	48	0
NMSI_	88	48	0	96	48	3
NMTAP	88	96	7
BRTAP	88	144	0
NMTAP	88	288	6
NMTAP	88	288	7
NMTAP	88	336	4
NMTAP	88	336	5
NMHLD	89	0	2	96
NMTAP	89	0	3
NMTAP	89	96	0
NMTAP	89	144	1
NMHLD	89	144	7	96
NMHLD	89	240	4	96
NMTAP	89	336	5
NMSTR	90	0	1
NMSLR	90	0	1	96	96	7
NMSTR	90	48	3
NMSV_	90	48	3	96	48	0
NMTAP	90	96	1
NMTTP	90	144	0	C	1	M1
NMTAP	90	288	6
NMTAP	90	336	5
NMSTR	91	0	3
NMSI_	91	0	3	96	48	1
NMSTR	91	0	4
NMSI_	91	0	4	96	48	0
NMSTR	91	192	6
NMSI_	91	192	6	96	48	4
NMSTR	91	192	7
NMSI_	91	192	7	96	48	3
NMSTR	92	0	0
NMSCR	92	0	0	96	48	3
NMTAP	92	96	0
NMSTR	92	96	7
NMSCL	92	96	7	96	48	4
NMSTR	92	192	0
NMSI_	92	192	0	96	48	4
NMTAP	92	192	7
NMTAP	92	288	0
NMSTR	92	288	7
NMSXR	92	288	7	96	192	7
NMTAP	93	0	0
NMSTR	93	240	0
NMSXL	93	240	0	96	192	0
NMTAP	93	288	0
NMTAP	93	336	7
NMSTR	94	240	7
NMSXR	94	240	7	96	192	7
NMTAP	94	288	7
NMTAP	94	336	0
CNSCR	95	144	7	0	144	3
CNSXR	95	288	3	0	192	3
CNSCR	96	96	3	0	288	7
EXTAP	96	336	0
EXTAP	96	352	1
EXTAP	96	368	2
BRTAP	97	0	3

T_REC_TAP	313
T_REC_BRK	16
T_REC_XTP	41
T_REC_BXX	0
T_REC_HLD	37
T_REC_XHO	0
T_REC_BHO	0
T_REC_BXH	0
T_REC_STR	111
T_REC_BST	1
T_REC_XST	10
T_REC_XBS	1
T_REC_TTP	18
T_REC_THO	2
T_REC_SLD	126
T_REC_BSL	2
T_REC_ALL	678
T_NUM_TAP	493
T_NUM_BRK	20
T_NUM_HLD	39
T_NUM_SLD	126
T_NUM_ALL	678
T_JUDGE_TAP	511
T_JUDGE_HLD	86
T_JUDGE_SLD	128
T_JUDGE_ALL	725
TTM_EACHPAIRS	105
TTM_SCR_TAP	246500
TTM_SCR_BRK	52000
TTM_SCR_HLD	39000
TTM_SCR_SLD	189000
TTM_SCR_ALL	526500
TTM_SCR_S	508800
TTM_SCR_SS	524500
TTM_RAT_ACV	10038

