VERSION	0.00.00	1.04.00
FES_MODE	0
BPM_DEF	190.000	190.000	190.000	190.000
MET_DEF	4	4
RESOLUTION	384
CLK_DEF	384
COMPATIBLE_CODE	MA2

BPM	0	0	190.000
MET	0	0	4	4

NMTAP	1	0	4
NMTAP	1	96	3
NMSTR	1	192	2
NMSI_	1	192	2	96	48	4
NMTAP	2	0	6
NMTAP	2	96	5
NMHLD	2	144	5	144
NMTAP	2	288	4
NMTAP	3	0	3
NMTAP	3	96	4
NMSTR	3	192	5
NMSI_	3	192	5	96	48	3
NMTAP	4	0	1
NMTAP	4	96	2
NMHLD	4	144	2	144
NMTAP	4	288	4
NMTAP	5	0	3
NMTAP	5	96	2
NMSTR	5	192	1
NMSI_	5	192	1	96	48	4
NMTAP	6	0	6
NMTAP	6	96	5
NMHLD	6	144	5	144
NMTAP	6	288	3
NMTAP	7	0	4
NMTAP	7	96	5
NMSTR	7	192	6
NMSI_	7	192	6	96	48	3
NMTTP	8	0	3	E	0	M1
NMTTP	8	96	0	C	0	M1
NMTTP	8	192	7	E	0	M1
BRTAP	8	288	0
EXHLD	9	0	1	144
NMHLD	9	144	3	144
NMTAP	9	288	2
NMTAP	10	0	3
NMTAP	10	48	3
NMHLD	10	144	1	144
NMTAP	10	288	4
NMHLD	11	0	5	144
NMHLD	11	144	3	144
NMTAP	11	288	4
NMTAP	12	0	6
NMTAP	12	48	6
NMHLD	12	144	5	144
NMTAP	12	288	4
EXTAP	12	336	3
EXTAP	12	336	6
NMTAP	13	48	2
NMTAP	13	96	3
NMTAP	13	144	1
NMTAP	13	240	2
NMTAP	13	240	4
NMTAP	13	336	3
NMTAP	13	336	5
NMTAP	14	48	4
NMTAP	14	48	6
NMTAP	14	144	3
NMTAP	14	144	7
NMTAP	14	240	2
NMHLD	14	240	6	144
NMTAP	14	336	3
NMTAP	15	0	3
NMTAP	15	96	2
NMTAP	15	144	2
NMTAP	15	144	4
NMTAP	15	240	1
NMTAP	15	240	3
NMSTR	15	336	0
NMSCR	15	336	0	96	144	4
NMSUR	15	336	0	96	144	4
BXTAP	16	288	4
BXTAP	16	288	5
EXHLD	17	0	6	144
NMHLD	17	144	4	144
NMTAP	17	288	5
NMTAP	18	0	4
NMTAP	18	48	4
NMHLD	18	144	6	144
NMTAP	18	288	3
NMHLD	19	0	2	144
NMHLD	19	144	4	144
NMTAP	19	288	3
NMTAP	20	0	1
NMTAP	20	48	1
NMHLD	20	144	2	144
NMTAP	20	288	3
EXTAP	20	336	1
EXTAP	20	336	4
NMTAP	21	48	5
NMTAP	21	96	4
NMTAP	21	144	6
NMTAP	21	240	3
NMTAP	21	240	5
NMTAP	21	336	2
NMTAP	21	336	4
NMTAP	22	48	1
NMTAP	22	48	3
NMTAP	22	144	0
NMTAP	22	144	4
NMHLD	22	240	1	144
NMTAP	22	240	5
NMTAP	22	336	4
NMTAP	23	0	4
NMTAP	23	96	5
NMTAP	23	144	3
NMTAP	23	144	5
NMTAP	23	240	2
NMTAP	23	240	4
EXTAP	23	336	0
EXTAP	23	336	1
EXTAP	24	48	3
EXTAP	24	48	4
EXTAP	24	144	6
EXTAP	24	144	7
NMTAP	24	240	0
BXTAP	24	288	1
BXTAP	24	288	7
EXSTR	25	0	2
NMSCL	25	0	2	96	240	3
EXHLD	25	0	4	384
EXHLD	26	0	2	144
NMHLD	26	144	3	144
NMTAP	26	288	4
NMHLD	27	0	3	384
NMSTR	27	0	5
NMSCR	27	0	5	96	240	4
EXHLD	28	0	5	144
NMHLD	28	144	4	144
NMTAP	28	288	3
NMSTR	29	0	2
NMSI_	29	0	2	96	48	0
NMSTR	29	192	6
NMSI_	29	192	6	96	48	4
NMSTR	30	0	0
NMSI_	30	0	0	96	48	6
NMSTR	30	192	4
NMSI_	30	192	4	96	48	2
NMTAP	31	0	1
NMTAP	31	96	1
NMTAP	31	96	2
NMTAP	31	192	2
NMTAP	31	192	3
NMTAP	31	288	3
NMTAP	31	288	4
NMTAP	32	0	4
NMTAP	32	0	5
NMTAP	32	96	6
NMTAP	32	144	0
NMTAP	32	144	6
NMTAP	32	240	2
NMTAP	32	288	2
NMTAP	32	288	3
NMTTP	33	0	5	E	0	M1
NMTTP	33	96	4	E	0	M1
NMTTP	33	192	3	E	0	M1
BRTAP	33	288	1
BRTAP	33	288	6
EXTAP	34	0	0
EXTAP	34	0	7
NMTAP	34	96	2
NMTAP	34	144	2
NMTAP	34	144	3
NMTAP	34	240	4
NMTAP	34	240	6
NMSTR	34	336	3
NMSXL	34	336	3	96	240	3
NMSXR	34	336	3	96	240	3
NMTAP	34	336	7
NMTAP	36	0	0
NMTAP	36	0	1
NMTAP	36	96	5
NMTAP	36	144	4
NMTAP	36	144	5
NMTAP	36	240	1
NMSTR	36	288	1
NMSI_	36	288	1	96	48	4
NMHLD	36	288	3	240
CNSI_	37	48	4	0	96	0
NMTAP	37	288	1
NMTAP	37	288	7
NMSTR	38	0	2
NMSCL	38	0	2	96	96	7
NMSTR	38	192	6
NMSCL	38	192	6	96	96	3
NMSTR	39	0	2
NMSUL	39	0	2	96	96	5
NMHLD	39	192	4	96
NMHLD	39	288	5	96
NMSTR	40	0	6
NMSI_	40	0	6	96	48	3
NMTAP	40	240	2
NMTAP	40	288	2
BXTAP	40	336	1
BXTAP	40	336	3
BXTAP	41	48	4
BXTAP	41	48	6
BXTAP	41	144	1
BXTAP	41	144	7
NMTAP	41	240	2
EXTAP	41	288	2
EXTAP	41	288	3
EXTAP	42	0	0
EXTAP	42	0	7
NMTAP	42	96	5
NMTAP	42	144	4
NMTAP	42	144	5
NMTAP	42	240	1
NMTAP	42	240	3
NMSTR	42	336	0
NMSUL	42	336	0	96	96	3
NMHLD	42	336	5	192
NMTAP	43	288	3
NMTAP	43	288	6
NMTAP	44	0	0
NMTAP	44	0	1
NMTAP	44	96	2
NMTAP	44	144	2
NMTAP	44	144	3
NMTAP	44	240	5
NMSTR	44	288	4
NMSSL	44	288	4	96	144	0
NMHLD	44	288	5	240
NMTAP	45	288	1
NMTAP	45	288	6
NMSTR	46	0	5
NMSCR	46	0	5	96	96	0
NMSTR	46	192	1
NMSCR	46	192	1	96	96	4
NMSTR	47	0	5
NMSUR	47	0	5	96	96	2
NMHLD	47	192	3	96
NMHLD	47	288	2	96
NMSTR	48	0	1
NMSI_	48	0	1	96	48	4
NMTAP	48	240	5
NMTAP	48	288	5
NMTAP	48	336	4
NMTAP	48	336	6
NMTAP	49	48	6
NMTAP	49	96	5
NMTAP	49	144	4
NMTAP	49	192	3
EXTAP	49	240	2
EXTAP	49	288	1
BXSTR	49	336	0
BRSUL	49	336	0	96	504	7
BXTAP	49	336	7
CNSCL	51	168	7	0	600	1
NMTAP	53	192	3
NMTAP	53	240	3
NMTAP	53	288	4
NMTAP	53	336	4
EXHLD	54	0	1	144
NMTAP	54	96	3
NMHLD	54	144	3	144
NMTAP	54	240	2
NMTAP	54	288	2
NMTAP	55	0	4
NMTAP	55	48	3
NMTAP	55	48	4
NMHLD	55	144	1	144
NMTAP	55	240	3
NMTAP	55	288	3
NMHLD	56	0	5	144
NMTAP	56	96	3
NMHLD	56	144	3	144
NMTAP	56	240	4
NMTAP	56	288	4
NMTAP	57	0	5
NMTAP	57	48	3
NMTAP	57	48	5
NMHLD	57	144	6	144
NMTAP	57	240	5
NMTAP	57	288	4
EXTAP	57	336	3
EXTAP	57	336	7
NMTAP	58	48	2
NMTAP	58	96	3
NMTAP	58	144	1
NMTAP	58	144	4
NMTAP	58	240	2
NMTAP	58	240	5
NMTAP	58	336	3
NMTAP	58	336	6
NMTAP	59	48	4
NMTAP	59	48	7
NMTAP	59	144	3
NMTAP	59	144	6
NMHLD	59	240	2	144
NMTAP	59	240	5
NMTAP	59	336	3
NMTAP	60	0	3
NMTAP	60	96	1
NMTAP	60	144	1
NMTAP	60	144	4
NMTAP	60	240	2
NMTAP	60	240	5
NMTAP	60	336	3
NMTAP	60	336	6
NMTAP	61	48	2
NMTAP	61	48	5
NMTAP	61	144	1
NMTAP	61	144	4
NMTAP	61	240	0
BXTAP	61	288	0
BXTAP	61	288	7
EXHLD	62	0	6	144
NMTAP	62	96	4
NMHLD	62	144	4	144
NMTAP	62	240	5
NMTAP	62	288	5
NMTAP	63	0	3
NMTAP	63	48	3
NMTAP	63	48	4
NMHLD	63	144	6	144
NMTAP	63	240	4
NMTAP	63	288	4
NMHLD	64	0	2	144
NMTAP	64	96	4
NMHLD	64	144	4	144
NMTAP	64	240	3
NMTAP	64	288	3
NMTAP	65	0	2
NMTAP	65	48	2
NMTAP	65	48	3
NMHLD	65	144	1	144
NMTAP	65	240	2
NMTAP	65	288	3
EXTAP	65	336	0
EXTAP	65	336	4
NMTAP	66	48	5
NMTAP	66	96	4
NMTAP	66	144	3
NMTAP	66	144	6
NMTAP	66	240	2
NMTAP	66	240	5
NMTAP	66	336	1
NMTAP	66	336	4
NMTAP	67	48	0
NMTAP	67	48	3
NMTAP	67	144	1
NMTAP	67	144	4
NMTAP	67	240	2
NMHLD	67	240	5	144
NMTAP	67	336	4
NMTAP	68	0	4
NMTAP	68	96	6
NMTAP	68	144	3
NMTAP	68	144	6
NMTAP	68	240	4
NMTAP	68	240	7
EXHLD	68	336	0	96
EXHLD	68	336	1	96
NMTAP	69	96	2
NMTAP	69	96	3
NMTAP	69	192	4
NMTAP	69	192	5
BRTAP	69	288	0
BRTAP	69	288	7
EXSTR	70	0	1
NMSCL	70	0	1	96	240	2
EXHLD	70	0	5	384
EXHLD	71	0	1	144
NMHLD	71	144	2	144
NMTAP	71	288	3
NMHLD	72	0	2	384
NMSTR	72	0	6
NMSCR	72	0	6	96	240	5
EXHLD	73	0	6	144
NMHLD	73	144	5	144
NMTAP	73	288	4
NMSTR	74	0	3
NMSI_	74	0	3	96	48	0
NMSTR	74	192	7
NMSI_	74	192	7	96	48	4
NMSTR	75	0	1
NMSI_	75	0	1	96	48	6
NMSTR	75	192	5
NMSI_	75	192	5	96	48	2
NMTAP	76	0	1
NMTAP	76	96	1
NMTAP	76	96	2
NMTAP	76	192	2
NMTAP	76	192	3
NMTAP	76	288	3
NMTAP	76	288	4
NMTAP	77	0	4
NMTAP	77	0	5
NMTAP	77	48	6
NMTAP	77	96	6
NMTAP	77	144	0
NMTAP	77	144	7
NMTAP	77	192	1
NMTAP	77	240	1
NMTAP	77	288	2
NMTAP	77	288	3
NMTTP	78	0	5	E	0	M1
NMTTP	78	96	4	E	0	M1
NMTTP	78	192	3	E	0	M1
BRTAP	78	288	1
BRTAP	78	288	6
EXTAP	79	0	0
EXTAP	79	0	7
NMTAP	79	96	5
NMTAP	79	144	4
NMTAP	79	144	5
NMTAP	79	240	1
NMTAP	79	240	3
NMSTR	79	336	0
NMSXL	79	336	0	96	240	0
NMSXR	79	336	0	96	240	0
NMTAP	79	336	4
NMTAP	81	0	1
NMTAP	81	0	3
NMTAP	81	96	6
NMTAP	81	144	6
NMTAP	81	144	7
NMTAP	81	240	2
NMSTR	81	288	0
NMSLR	81	288	0	96	144	4
NMHLD	81	288	2	240
NMTAP	82	288	1
NMTAP	82	288	6
NMSTR	83	0	5
NMSCR	83	0	5	96	96	0
NMSTR	83	192	1
NMSCR	83	192	1	96	96	4
NMSTR	84	0	5
NMSUR	84	0	5	96	96	2
NMHLD	84	192	3	96
NMHLD	84	288	2	96
NMSTR	85	0	1
NMSCL	85	0	1	96	96	6
NMTAP	85	240	5
NMTAP	85	288	5
BXTAP	85	336	4
BXTAP	85	336	6
BXTAP	86	48	1
BXTAP	86	48	3
BXTAP	86	144	0
BXTAP	86	144	6
NMTAP	86	240	5
EXTAP	86	288	4
EXTAP	86	288	5
EXTAP	87	0	0
EXTAP	87	0	7
NMTAP	87	96	2
NMTAP	87	144	2
NMTAP	87	144	3
NMTAP	87	240	4
NMTAP	87	240	6
NMTAP	87	336	0
NMTAP	87	336	5
NMSTR	88	0	0
NMSSL	88	0	0	96	144	4
NMHLD	88	0	5	144
NMTAP	88	288	7
NMTAP	89	0	0
NMTAP	89	0	1
NMTAP	89	96	2
NMTAP	89	144	2
NMTAP	89	144	3
NMTAP	89	240	6
NMHLD	89	288	4	96
NMSTR	89	288	6
NMSI_	89	288	6	96	48	3
CNSI_	90	48	3	0	96	7
BXTAP	90	144	0
NMTAP	90	288	1
NMTAP	90	288	6
NMSTR	91	0	2
NMSCL	91	0	2	96	96	7
NMSTR	91	192	6
NMSCL	91	192	6	96	96	3
NMSTR	92	0	2
NMSUL	92	0	2	96	96	5
NMHLD	92	192	4	96
NMHLD	92	288	5	96
NMSTR	93	0	6
NMSCR	93	0	6	96	96	1
NMTAP	93	240	2
NMTAP	93	288	2
EXTAP	93	336	1
EXTAP	93	336	3
NMTAP	94	48	1
NMTAP	94	96	2
NMTAP	94	144	3
NMTAP	94	192	4
EXTAP	94	240	5
EXTAP	94	288	6
BXSTR	94	336	0
BRSXL	94	336	0	96	528	3
BXSTR	94	336	7
BRSXR	94	336	7	96	528	4
NMTAP	96	336	3
NMTAP	96	360	4
BXTAP	97	0	1

T_REC_TAP	276
T_REC_BRK	7
T_REC_XTP	32
T_REC_BXX	21
T_REC_HLD	47
T_REC_XHO	12
T_REC_BHO	0
T_REC_BXH	0
T_REC_STR	39
T_REC_BST	0
T_REC_XST	2
T_REC_XBS	3
T_REC_TTP	9
T_REC_THO	0
T_REC_SLD	44
T_REC_BSL	3
T_REC_ALL	495
T_NUM_TAP	358
T_NUM_BRK	34
T_NUM_HLD	59
T_NUM_SLD	44
T_NUM_ALL	495
T_JUDGE_TAP	389
T_JUDGE_HLD	193
T_JUDGE_SLD	47
T_JUDGE_ALL	629
TTM_EACHPAIRS	115
TTM_SCR_TAP	179000
TTM_SCR_BRK	88400
TTM_SCR_HLD	59000
TTM_SCR_SLD	66000
TTM_SCR_ALL	392400
TTM_SCR_S	377350
TTM_SCR_SS	389000
TTM_RAT_ACV	10087

