VERSION	0.00.00	1.04.00
FES_MODE	0
BPM_DEF	216.000	216.000	216.000	216.000
MET_DEF	4	4
RESOLUTION	384
CLK_DEF	576
COMPATIBLE_CODE	MA2

BPM	0	0	216.000
MET	0	0	4	3
MET	6	0	4	5
MET	56	0	4	4
MET	57	0	4	2
MET	57	192	8	3
MET	58	96	4	4
MET	59	96	8	9
MET	81	288	8	5
MET	91	288	4	4
MET	92	288	4	2
MET	93	96	8	3
MET	94	0	4	4
MET	95	0	4	3

NMTTP	1	192	0	C	1	M1
NMTTP	1	192	1	B	0	M1
NMTTP	1	192	1	A	0	M1
NMTTP	1	192	2	B	0	M1
NMTTP	1	192	2	E	0	M1
NMTTP	1	192	2	A	0	M1
NMTTP	1	192	2	D	0	M1
NMTTP	1	192	5	B	0	M1
NMTTP	1	192	5	A	0	M1
NMTTP	1	192	6	B	0	M1
NMTTP	1	192	6	E	0	M1
NMTTP	1	192	6	A	0	M1
NMTTP	1	192	6	D	0	M1
NMTAP	3	0	2
NMTAP	3	0	3
NMTAP	3	96	1
NMTAP	3	96	3
NMTAP	3	192	0
NMTAP	3	192	3
NMTAP	3	288	4
NMTAP	3	336	4
NMTAP	4	0	3
NMTAP	4	48	3
NMTAP	4	96	5
NMTAP	4	144	5
NMTAP	4	192	4
NMTAP	4	192	5
NMTAP	4	288	4
NMTAP	4	288	6
NMTAP	5	0	4
NMTAP	5	0	7
BRTAP	5	96	3
BRTAP	5	96	6
BRTAP	5	144	2
BRTAP	5	144	5
BRTAP	5	192	1
BRTAP	5	192	4
BRTAP	5	240	0
BRTAP	5	240	3
NMSTR	6	0	2
NMSXR	6	0	2	96	192	3
NMTAP	6	96	3
NMTAP	6	144	3
NMTAP	6	240	4
NMTAP	6	288	4
NMTAP	7	0	3
NMTAP	7	0	5
NMSTR	7	96	6
NMSXR	7	96	6	96	192	7
NMTAP	7	192	7
NMTAP	7	240	7
NMTAP	7	336	0
NMTAP	8	0	0
NMTAP	8	96	1
NMTAP	8	96	7
NMSTR	8	192	2
NMSXR	8	192	2	96	192	3
NMTAP	8	288	3
NMTAP	8	336	3
NMTAP	9	48	4
NMTAP	9	96	4
NMTAP	9	192	3
NMTAP	9	192	5
NMSTR	9	288	6
NMSXR	9	288	6	96	192	7
NMTAP	10	0	7
NMTAP	10	48	7
NMTAP	10	144	0
NMTAP	10	192	0
NMTAP	10	288	1
NMTAP	10	288	7
NMSTR	11	0	2
NMSI_	11	0	2	96	48	6
NMSTR	11	48	6
NMSI_	11	48	6	96	48	2
NMSTR	11	96	2
NMSLL	11	96	2	96	192	5
NMSLR	11	96	2	96	192	7
NMSTR	12	96	6
NMSI_	12	96	6	96	48	2
NMSTR	12	144	2
NMSXL	12	144	2	96	240	6
NMSXR	12	144	2	96	240	6
NMSTR	13	192	5
NMSI_	13	192	5	96	48	1
NMSTR	13	240	1
NMSI_	13	240	1	96	48	5
NMSTR	13	288	5
NMSLL	13	288	5	96	192	0
NMSLR	13	288	5	96	192	2
NMSTR	14	288	1
NMSI_	14	288	1	96	48	5
NMSTR	14	336	5
NMSXL	14	336	5	96	240	1
NMSXR	14	336	5	96	240	1
NMSTR	16	0	0
NMSUR	16	0	0	96	48	4
NMTAP	16	96	5
NMSTR	16	144	5
NMSUR	16	144	5	96	48	1
NMTAP	16	240	3
NMTAP	16	288	3
NMTTP	17	0	4	B	0	M1
NMTTP	17	0	4	E	0	M1
NMTTP	17	0	4	A	0	M1
NMSTR	17	96	7
NMSUL	17	96	7	96	48	3
NMTAP	17	192	2
NMSTR	17	240	2
NMSUL	17	240	2	96	48	6
NMTAP	17	336	4
NMTAP	18	0	4
NMTTP	18	96	3	B	0	M1
NMTTP	18	96	3	A	0	M1
NMTTP	18	96	4	E	0	M1
NMSTR	18	192	1
NMSUR	18	192	1	96	48	5
NMTAP	18	288	6
NMSTR	18	336	6
NMSUR	18	336	6	96	48	2
NMTAP	19	48	4
NMTAP	19	96	4
NMTTP	19	192	3	B	0	M1
NMTTP	19	192	3	A	0	M1
NMTTP	19	192	4	E	0	M1
NMTTP	19	192	5	B	0	M1
NMTTP	19	192	5	E	0	M1
NMTTP	19	192	5	A	0	M1
NMSTR	19	288	6
NMSUL	19	288	6	96	48	2
NMTAP	20	0	1
NMSTR	20	48	1
NMSUL	20	48	1	96	48	5
NMTAP	20	144	3
NMTAP	20	192	3
NMTAP	20	288	2
NMTAP	20	288	4
NMSTR	21	0	7
NMSCR	21	0	7	96	48	1
NMTAP	21	96	3
NMSTR	21	144	3
NMSCR	21	144	3	96	48	4
NMTAP	21	240	7
CNSV_	21	288	4	0	48	2
NMTAP	21	288	7
NMTTP	22	0	5	B	0	M1
NMTTP	22	0	5	E	0	M1
NMTTP	22	0	6	E	0	M1
NMSTR	22	96	0
NMSCL	22	96	0	96	48	6
NMTAP	22	192	4
NMSTR	22	240	4
NMSCL	22	240	4	96	48	3
NMTAP	22	336	0
NMTAP	23	0	0
CNSV_	23	0	3	0	48	5
NMTTP	23	96	2	B	0	M1
NMTTP	23	96	2	E	0	M1
NMTTP	23	96	3	E	0	M1
NMSTR	23	192	3
NMSCR	23	192	3	96	48	5
NMTAP	23	288	7
NMSTR	23	336	7
NMSCR	23	336	7	96	48	0
NMTAP	24	48	3
CNSV_	24	96	0	0	48	6
NMTAP	24	96	3
NMTTP	24	192	1	B	0	M1
NMTTP	24	192	1	E	0	M1
NMTTP	24	192	2	E	0	M1
NMSTR	24	288	4
NMSCL	24	288	4	96	48	2
NMTAP	25	0	0
NMSTR	25	48	0
NMSCL	25	48	0	96	48	7
NMTAP	25	144	4
NMTAP	25	192	4
CNSV_	25	192	7	0	48	1
NMTTP	25	288	6	B	0	M1
NMTTP	25	288	6	E	0	M1
NMTTP	25	288	7	E	0	M1
NMSTR	26	0	1
NMSV_	26	0	1	96	48	2
CNSLL	26	144	2	0	144	6
NMHLD	26	192	5	96
NMTAP	27	0	4
NMSTR	27	96	5
NMSV_	27	96	5	96	48	6
CNSLL	27	240	6	0	144	2
NMHLD	27	288	1	96
NMTAP	28	96	0
NMSTR	28	192	2
NMSV_	28	192	2	96	48	1
CNSLR	28	336	1	0	144	5
NMHLD	29	0	6	96
NMTAP	29	192	7
NMSTR	29	288	6
NMSV_	29	288	6	96	48	7
CNSLL	30	48	7	0	144	3
NMHLD	30	96	2	96
NMTAP	30	288	1
NMSTR	31	0	0
NMSV_	31	0	0	96	48	7
CNSLR	31	144	7	0	144	3
NMHLD	31	192	4	96
NMTAP	32	0	5
NMSTR	32	96	4
NMSV_	32	96	4	96	48	3
CNSLR	32	240	3	0	144	7
NMHLD	32	288	0	96
NMTAP	33	96	2
NMSTR	33	192	3
NMSV_	33	192	3	96	48	4
CNSLL	33	336	4	0	144	0
NMHLD	34	0	7	96
NMSTR	34	192	6
NMSCL	34	192	6	96	192	0
NMTTP	34	288	0	C	1	M1
NMTAP	36	0	4
NMTAP	36	0	5
NMTAP	36	96	3
NMTAP	36	96	4
NMTAP	36	192	2
NMTAP	36	192	3
NMTTP	36	240	0	B	0	M1
NMTTP	36	240	0	E	0	M1
NMTTP	36	240	0	A	0	M1
NMTTP	36	240	0	D	0	M1
NMTTP	36	240	1	B	0	M1
NMTTP	36	240	1	E	1	M1
NMTTP	36	240	1	A	0	M1
NMTTP	36	240	1	D	0	M1
NMTTP	36	240	2	E	0	M1
NMTTP	36	240	2	D	0	M1
NMTAP	37	96	4
NMTAP	37	96	6
NMTAP	37	192	3
NMTAP	37	192	5
NMTAP	37	288	2
NMTAP	37	288	4
NMTTP	37	336	0	B	1	M1
NMTTP	37	336	0	E	0	M1
NMTTP	37	336	0	A	0	M1
NMTTP	37	336	0	D	0	M1
NMTTP	37	336	1	B	0	M1
NMTTP	37	336	1	E	0	M1
NMTTP	37	336	1	A	0	M1
NMTTP	37	336	1	D	0	M1
NMTTP	37	336	7	B	0	M1
NMTTP	37	336	7	A	0	M1
NMTAP	38	192	2
NMTAP	38	192	3
NMTAP	38	288	3
NMTAP	38	288	4
NMTAP	39	0	4
NMTAP	39	0	5
NMTTP	39	48	0	E	0	M1
NMTTP	39	48	0	D	0	M1
NMTTP	39	48	6	B	0	M1
NMTTP	39	48	6	E	0	M1
NMTTP	39	48	6	A	0	M1
NMTTP	39	48	6	D	0	M1
NMTTP	39	48	7	B	0	M1
NMTTP	39	48	7	E	1	M1
NMTTP	39	48	7	A	0	M1
NMTTP	39	48	7	D	0	M1
NMTAP	39	288	1
NMTAP	39	288	3
NMTAP	40	0	2
NMTAP	40	0	4
NMTAP	40	96	3
NMTAP	40	96	5
NMTTP	40	144	0	B	0	M1
NMTTP	40	144	0	E	0	M1
NMTTP	40	144	0	A	0	M1
NMTTP	40	144	0	D	0	M1
NMTTP	40	144	6	B	0	M1
NMTTP	40	144	6	A	0	M1
NMTTP	40	144	7	B	1	M1
NMTTP	40	144	7	E	0	M1
NMTTP	40	144	7	A	0	M1
NMTTP	40	144	7	D	0	M1
BRTAP	41	0	1
NMTAP	41	40	3
NMTAP	41	80	2
NMTAP	41	120	4
NMTAP	41	160	3
NMTAP	41	200	5
NMTAP	41	240	3
NMTAP	41	280	5
NMTAP	41	320	3
NMTAP	41	360	4
NMTAP	42	16	2
NMTAP	42	56	2
BRTAP	42	96	6
NMTAP	42	136	4
NMTAP	42	176	5
NMTAP	42	216	3
NMTAP	42	256	4
NMTAP	42	296	2
NMTAP	42	336	4
NMTAP	42	376	2
NMTAP	43	32	4
NMTAP	43	72	3
NMTAP	43	112	5
NMTAP	43	152	5
BRTAP	43	192	0
NMTAP	43	232	3
NMTAP	43	272	1
NMTAP	43	312	4
NMTAP	43	352	2
NMTAP	44	8	5
NMTAP	44	48	3
NMTAP	44	88	6
NMTAP	44	128	2
NMTAP	44	168	5
NMTAP	44	208	1
NMTAP	44	248	1
BRTAP	44	288	7
NMTAP	44	328	4
NMTAP	44	368	6
NMTAP	45	24	3
NMTAP	45	64	5
NMTAP	45	104	2
NMTAP	45	144	4
NMTAP	45	184	1
NMTAP	45	224	5
NMTAP	45	264	2
NMTAP	45	304	6
NMTAP	45	344	6
NMTAP	46	0	0
NMTTP	46	0	6	E	0	M1
NMTTP	46	12	5	B	0	M1
NMTTP	46	24	4	B	0	M1
NMTTP	46	36	4	E	0	M1
NMTTP	46	120	2	E	0	M1
NMTAP	46	120	7
NMTTP	46	132	2	B	0	M1
NMTTP	46	144	3	B	0	M1
NMTTP	46	156	4	E	0	M1
NMTAP	46	240	0
NMTTP	46	240	6	E	0	M1
NMTTP	46	252	5	B	0	M1
NMTTP	46	264	4	B	0	M1
NMTTP	46	276	4	E	0	M1
NMTTP	46	360	2	E	0	M1
NMTAP	46	360	7
NMTTP	46	372	2	B	0	M1
NMTTP	47	0	3	B	0	M1
NMTTP	47	12	4	E	0	M1
NMTAP	47	96	1
NMTTP	47	96	5	A	0	M1
NMTTP	47	108	5	D	0	M1
NMTTP	47	120	4	A	0	M1
NMTTP	47	132	4	D	0	M1
NMTTP	47	216	2	A	0	M1
NMTAP	47	216	6
NMTTP	47	228	3	D	0	M1
NMTTP	47	240	3	A	0	M1
NMTTP	47	252	4	D	0	M1
NMTAP	47	336	1
NMTTP	47	336	5	A	0	M1
NMTTP	47	348	5	D	0	M1
NMTTP	47	360	4	A	0	M1
NMTTP	47	372	4	D	0	M1
NMTTP	48	72	2	A	0	M1
NMTAP	48	72	6
NMTTP	48	84	3	D	0	M1
NMTTP	48	96	3	A	0	M1
NMTTP	48	108	4	D	0	M1
NMTAP	48	192	0
NMTTP	48	192	6	E	0	M1
NMTTP	48	204	5	B	0	M1
NMTTP	48	216	4	B	0	M1
NMTTP	48	228	4	E	0	M1
NMTTP	48	312	2	E	0	M1
NMTAP	48	312	7
NMTTP	48	324	2	B	0	M1
NMTTP	48	336	3	B	0	M1
NMTTP	48	348	4	E	0	M1
NMTAP	49	48	0
NMTTP	49	48	6	E	0	M1
NMTTP	49	60	5	B	0	M1
NMTTP	49	72	4	B	0	M1
NMTTP	49	84	4	E	0	M1
NMTTP	49	168	2	E	0	M1
NMTAP	49	168	7
NMTTP	49	180	2	B	0	M1
NMTTP	49	192	3	B	0	M1
NMTTP	49	204	4	E	0	M1
NMTAP	49	288	1
NMTTP	49	288	5	A	0	M1
NMTTP	49	300	5	D	0	M1
NMTTP	49	312	4	A	0	M1
NMTTP	49	324	4	D	0	M1
NMTTP	50	24	2	A	0	M1
NMTAP	50	24	6
NMTTP	50	36	3	D	0	M1
NMTTP	50	48	3	A	0	M1
NMTTP	50	60	4	D	0	M1
NMTAP	50	144	1
NMTTP	50	144	5	A	0	M1
NMTTP	50	156	5	D	0	M1
NMTTP	50	168	4	A	0	M1
NMTTP	50	180	4	D	0	M1
NMTTP	50	264	2	A	0	M1
NMTAP	50	264	6
NMTTP	50	276	3	D	0	M1
NMTTP	50	288	3	A	0	M1
NMTTP	50	300	4	D	0	M1
BRTAP	51	0	0
NMTTP	51	0	6	E	0	M1
NMTTP	51	12	5	B	0	M1
NMTTP	51	24	4	B	0	M1
NMTTP	51	36	4	E	0	M1
NMTTP	51	120	2	E	0	M1
BRTAP	51	120	7
NMTTP	51	132	2	B	0	M1
NMTTP	51	144	3	B	0	M1
NMTTP	51	156	4	E	0	M1
BRTAP	51	240	1
NMTTP	51	240	5	A	0	M1
NMTTP	51	252	5	D	0	M1
NMTTP	51	264	4	A	0	M1
NMTTP	51	276	4	D	0	M1
NMTTP	51	360	2	A	0	M1
BRTAP	51	360	6
NMTTP	51	372	3	D	0	M1
NMTTP	52	0	3	A	0	M1
NMTTP	52	12	4	D	0	M1
BRTAP	52	96	2
NMTTP	52	96	6	E	0	M1
NMTTP	52	108	6	B	0	M1
NMTTP	52	120	7	B	0	M1
NMTTP	52	132	0	E	0	M1
NMTTP	52	216	2	E	0	M1
BRTAP	52	216	5
NMTTP	52	228	1	B	0	M1
NMTTP	52	240	0	B	0	M1
NMTTP	52	252	0	E	0	M1
BRTAP	52	336	3
NMTTP	52	336	5	B	0	M1
NMTTP	52	348	6	B	0	M1
NMTTP	52	360	7	E	0	M1
NMTTP	52	372	7	A	0	M1
NMTTP	53	72	2	B	0	M1
BRTAP	53	72	4
NMTTP	53	84	1	B	0	M1
NMTTP	53	96	1	E	0	M1
NMTTP	53	108	0	A	0	M1
BRTAP	53	192	0
NMTTP	53	192	6	E	0	M1
NMTTP	53	204	5	B	0	M1
NMTTP	53	216	4	B	0	M1
NMTTP	53	228	4	E	0	M1
NMTTP	53	312	2	E	0	M1
BRTAP	53	312	7
NMTTP	53	324	2	B	0	M1
NMTTP	53	336	3	B	0	M1
NMTTP	53	348	4	E	0	M1
BRTAP	54	48	1
NMTTP	54	48	5	A	0	M1
NMTTP	54	60	5	D	0	M1
NMTTP	54	72	4	A	0	M1
NMTTP	54	84	4	D	0	M1
NMTTP	54	168	2	A	0	M1
BRTAP	54	168	6
NMTTP	54	180	3	D	0	M1
NMTTP	54	192	3	A	0	M1
NMTTP	54	204	4	D	0	M1
BRTAP	54	288	2
NMTTP	54	288	6	E	0	M1
NMTTP	54	300	6	B	0	M1
NMTTP	54	312	7	B	0	M1
NMTTP	54	324	0	E	0	M1
NMTTP	55	24	2	E	0	M1
BRTAP	55	24	5
NMTTP	55	36	1	B	0	M1
NMTTP	55	48	0	B	0	M1
NMTTP	55	60	0	E	0	M1
BRTAP	55	144	3
NMTTP	55	144	5	B	0	M1
NMTTP	55	156	6	B	0	M1
NMTTP	55	168	7	E	0	M1
NMTTP	55	180	7	A	0	M1
NMTTP	55	264	2	B	0	M1
BRTAP	55	264	4
NMTTP	55	276	1	B	0	M1
NMTTP	55	288	1	E	0	M1
NMTTP	55	300	0	A	0	M1
NMTAP	56	0	7
NMTAP	56	48	6
NMTAP	56	96	5
NMSTR	56	144	3
NMSI_	56	144	3	96	48	7
NMTAP	56	144	4
NMTAP	56	240	6
NMHLD	56	288	6	96
NMTAP	57	0	7
NMTAP	57	48	7
NMTAP	57	96	0
NMTAP	57	144	1
NMTAP	57	192	2
NMTAP	57	240	3
NMTAP	57	240	5
NMTAP	57	288	6
NMSTR	57	336	7
NMSLR	57	336	7	96	240	3
CNSUR	58	288	3	0	96	6
NMSTR	59	96	7
NMSI_	59	96	7	96	48	5
NMTAP	59	192	3
NMTAP	59	240	3
CNSI_	59	240	5	0	48	1
CNSCL	59	288	1	0	48	0
CNSI_	59	336	0	0	96	4
NMTAP	59	336	2
NMTAP	60	48	1
NMSTR	60	144	0
NMSI_	60	144	0	96	48	2
NMTAP	60	240	4
CNSI_	60	288	2	0	48	6
NMTAP	60	288	4
CNSCR	60	336	6	0	48	7
NMTAP	61	0	5
CNSI_	61	0	7	0	96	3
NMTAP	61	96	6
NMSTR	61	192	6
NMSI_	61	192	6	96	48	4
NMTAP	61	288	2
NMTAP	61	336	2
CNSI_	61	336	4	0	48	0
CNSCL	62	0	0	0	48	7
NMTAP	62	48	1
CNSI_	62	48	7	0	96	3
NMTAP	62	144	2
NMSTR	62	240	1
NMSI_	62	240	1	96	48	3
NMTAP	62	336	5
CNSI_	63	0	3	0	48	7
NMTAP	63	0	5
CNSCR	63	48	7	0	48	0
CNSI_	63	96	0	0	96	4
NMTAP	63	96	6
NMTAP	63	192	5
NMSTR	63	288	4
NMSI_	63	288	4	96	48	6
NMTAP	64	0	0
NMTAP	64	48	0
CNSI_	64	48	6	0	48	2
CNSCR	64	96	2	0	48	3
NMTAP	64	144	1
CNSI_	64	144	3	0	96	7
NMTAP	64	240	2
NMSTR	64	336	3
NMSI_	64	336	3	96	48	1
NMTAP	65	48	7
CNSI_	65	96	1	0	48	5
NMTAP	65	96	7
CNSCL	65	144	5	0	48	4
CNSI_	65	192	4	0	96	0
NMTAP	65	192	6
NMTAP	65	288	5
NMSTR	66	0	5
NMSI_	66	0	5	96	48	7
NMTAP	66	96	1
NMTAP	66	144	1
CNSI_	66	144	7	0	48	3
CNSCR	66	192	3	0	48	4
NMTAP	66	240	2
CNSI_	66	240	4	0	96	0
NMTAP	66	336	3
NMSTR	67	48	2
NMSI_	67	48	2	96	48	0
NMTAP	67	144	6
CNSI_	67	192	0	0	48	4
NMTAP	67	192	6
CNSCL	67	240	4	0	48	3
CNSI_	67	288	3	0	96	7
NMTAP	67	288	5
NMTAP	68	0	4
NMHLD	68	96	2	96
NMTTP	68	192	4	E	0	M1
NMHLD	68	240	5	96
NMTTP	68	336	4	B	0	M1
NMHLD	69	0	3	96
NMTTP	69	96	5	A	0	M1
NMHLD	69	144	6	96
NMTTP	69	240	6	E	0	M1
NMHLD	69	288	4	96
NMTTP	70	0	7	D	0	M1
NMTAP	70	96	3
NMTAP	70	96	7
NMTAP	70	192	5
NMHLD	70	240	5	96
NMTTP	70	336	4	E	0	M1
NMHLD	71	0	2	96
NMTTP	71	96	3	B	0	M1
NMHLD	71	144	4	96
NMTTP	71	240	2	A	0	M1
NMHLD	71	288	1	96
NMTTP	72	0	4	E	1	M1
BRTAP	72	96	2
BRTAP	72	96	4
BRTAP	72	192	3
BRTAP	72	192	5
EXSTR	72	288	7
NMSCL	72	288	7	96	48	5
NMTAP	73	0	3
NMTAP	73	48	3
CNSI_	73	48	5	0	48	1
CNSI_	73	96	1	0	48	4
EXTAP	73	144	2
CNSI_	73	144	4	0	96	0
EXTAP	73	240	1
EXSTR	73	336	0
NMSCR	73	336	0	96	48	2
NMTAP	74	48	4
CNSI_	74	96	2	0	48	6
NMTAP	74	96	4
CNSI_	74	144	6	0	48	3
CNSI_	74	192	3	0	96	7
EXTAP	74	192	5
EXTAP	74	288	6
EXSTR	75	0	5
NMSCL	75	0	5	96	48	3
NMTAP	75	96	2
NMTAP	75	144	2
CNSI_	75	144	3	0	48	7
CNSI_	75	192	7	0	48	2
EXTAP	75	240	1
CNSI_	75	240	2	0	96	6
EXTAP	75	336	0
NMSTR	76	48	2
NMSCR	76	48	2	96	48	4
NMTAP	76	144	5
CNSI_	76	192	4	0	48	0
NMTAP	76	192	5
CNSI_	76	240	0	0	48	5
CNSI_	76	288	5	0	96	1
EXTAP	76	288	6
EXTAP	77	0	7
BRSTR	77	96	7
NMSCL	77	96	7	96	24	6
NMSCR	77	96	7	96	24	0
NMTAP	77	128	7
CNSI_	77	216	0	0	24	2
CNSI_	77	216	6	0	24	4
BRSTR	77	288	0
NMSCL	77	288	0	96	24	7
NMSCR	77	288	0	96	24	1
NMTAP	77	320	0
CNSI_	78	24	1	0	24	3
CNSI_	78	24	7	0	24	5
BRSTR	78	112	1
NMSCL	78	112	1	96	24	0
NMSCR	78	112	1	96	24	2
NMTAP	78	144	1
CNSI_	78	232	0	0	24	6
CNSI_	78	232	2	0	24	4
BRSTR	78	336	2
NMSCL	78	336	2	96	24	1
NMSCR	78	336	2	96	24	3
NMTAP	78	368	2
CNSI_	79	72	1	0	24	7
CNSI_	79	72	3	0	24	5
BRSTR	79	192	3
NMSCL	79	192	3	96	24	2
NMSCR	79	192	3	96	24	4
NMTAP	79	224	3
CNSI_	79	312	2	0	24	0
CNSI_	79	312	4	0	24	6
BRSTR	80	16	4
NMSCL	80	16	4	96	24	3
NMSCR	80	16	4	96	24	5
NMTAP	80	48	4
CNSI_	80	136	3	0	24	1
CNSI_	80	136	5	0	24	7
BRSTR	80	224	5
NMSCL	80	224	5	96	24	4
NMSCR	80	224	5	96	24	6
NMTAP	80	256	5
CNSI_	80	344	4	0	24	2
CNSI_	80	344	6	0	24	0
BRSTR	81	48	6
NMSCL	81	48	6	96	24	5
NMSCR	81	48	6	96	24	7
NMTAP	81	80	6
CNSI_	81	168	5	0	24	3
CNSI_	81	168	7	0	24	1
BRTAP	81	288	1
NMTTP	81	288	7	A	0	M1
NMTTP	81	304	7	D	0	M1
NMTTP	81	320	6	A	0	M1
NMTTP	81	336	6	D	0	M1
NMTTP	81	352	5	A	0	M1
NMTTP	81	368	5	D	0	M1
NMTTP	82	0	4	A	0	M1
NMTTP	82	16	4	D	0	M1
NMTTP	82	32	3	A	0	M1
NMTTP	82	48	3	D	0	M1
NMTTP	82	64	2	A	0	M1
NMTTP	82	80	2	D	0	M1
NMTTP	82	96	1	A	0	M1
NMTTP	82	112	1	D	0	M1
NMTTP	82	128	0	A	0	M1
NMTTP	82	144	0	C	1	M1
NMTTP	82	144	0	D	0	M1
NMTTP	83	0	2	A	0	M1
BRTAP	83	0	7
NMTTP	83	16	3	D	0	M1
NMTTP	83	32	3	A	0	M1
NMTTP	83	48	4	D	0	M1
NMTTP	83	64	4	A	0	M1
NMTTP	83	80	5	D	0	M1
NMTTP	83	96	5	A	0	M1
NMTTP	83	112	6	D	0	M1
NMTTP	83	128	6	A	0	M1
NMTTP	83	144	7	D	0	M1
NMTTP	83	160	7	A	0	M1
NMTTP	83	176	0	D	0	M1
NMTTP	83	192	0	A	0	M1
NMTTP	83	208	1	D	0	M1
NMTTP	83	224	1	A	0	M1
NMTTP	83	240	0	C	1	M1
NMTTP	83	240	2	D	0	M1
BRTAP	84	96	0
NMTTP	84	96	5	A	0	M1
NMTTP	84	112	5	D	0	M1
NMTTP	84	128	4	A	0	M1
NMTTP	84	144	4	D	0	M1
NMTTP	84	160	3	A	0	M1
NMTTP	84	176	3	D	0	M1
NMTTP	84	192	2	A	0	M1
NMTTP	84	208	2	D	0	M1
NMTTP	84	224	1	A	0	M1
NMTTP	84	240	1	D	0	M1
NMTTP	84	256	0	A	0	M1
NMTTP	84	272	0	D	0	M1
NMTTP	84	288	7	A	0	M1
NMTTP	84	304	7	D	0	M1
NMTTP	84	320	6	A	0	M1
NMTTP	84	336	0	C	1	M1
NMTTP	84	336	6	D	0	M1
NMTTP	85	192	1	A	0	M1
BRTAP	85	192	6
NMTTP	85	208	2	D	0	M1
NMTTP	85	224	2	A	0	M1
NMTTP	85	240	3	D	0	M1
NMTTP	85	256	3	A	0	M1
NMTTP	85	272	4	D	0	M1
NMTTP	85	288	4	A	0	M1
NMTTP	85	304	5	D	0	M1
NMTTP	85	320	5	A	0	M1
NMTTP	85	336	6	D	0	M1
NMTTP	85	352	6	A	0	M1
NMTTP	85	368	7	D	0	M1
NMTTP	86	0	7	A	0	M1
NMTTP	86	16	0	D	0	M1
NMTTP	86	32	0	A	0	M1
NMTTP	86	48	0	C	1	M1
NMTTP	86	48	1	D	0	M1
NMTTP	86	288	3	E	1	M1
BRTAP	86	288	7
EXTAP	86	312	6
EXTAP	86	336	5
EXTAP	86	360	4
EXTAP	87	0	3
BRTAP	87	24	2
EXTAP	87	48	1
EXTAP	87	72	0
EXTAP	87	96	7
EXTAP	87	120	6
BRTAP	87	144	5
EXTAP	87	168	4
EXTAP	87	192	3
EXTAP	87	216	2
EXTAP	87	240	1
BRTAP	87	264	0
EXTAP	87	288	7
EXTAP	87	312	6
EXTAP	87	336	5
EXTAP	87	360	4
BRTAP	88	0	3
NMTTP	88	0	7	E	1	M1
EXTAP	88	24	2
EXTAP	88	48	1
EXTAP	88	72	0
EXTAP	88	96	7
BRTAP	88	120	6
EXTAP	88	144	5
EXTAP	88	168	4
EXTAP	88	192	3
EXTAP	88	216	2
BRTAP	88	240	1
EXTAP	88	264	0
EXTAP	88	288	7
EXTAP	88	312	6
EXTAP	88	336	5
BRTAP	88	360	4
EXTAP	89	0	3
EXTAP	89	24	2
EXTAP	89	48	1
EXTAP	89	72	0
NMTTP	89	96	3	E	1	M1
BRTAP	89	96	7
EXTAP	89	120	6
EXTAP	89	144	5
EXTAP	89	168	4
EXTAP	89	192	3
BRTAP	89	216	2
EXTAP	89	240	1
EXTAP	89	264	0
EXTAP	89	288	7
EXTAP	89	312	6
BRTAP	89	336	5
EXTAP	89	360	4
EXTAP	90	0	3
EXTAP	90	24	2
EXTAP	90	48	1
BRTAP	90	72	0
EXTAP	90	96	7
EXTAP	90	120	6
EXTAP	90	144	5
EXTAP	90	168	4
BRTAP	90	192	3
NMTTP	90	192	7	E	1	M1
EXTAP	90	216	2
EXTAP	90	240	1
EXTAP	90	264	0
EXTAP	90	288	7
BRTAP	90	312	6
EXTAP	90	336	5
EXTAP	90	360	4
EXTAP	91	0	3
EXTAP	91	24	2
BRTAP	91	48	1
EXTAP	91	72	0
EXTAP	91	96	7
EXTAP	91	120	6
EXTAP	91	144	5
BRTAP	91	168	4
EXTAP	91	192	3
EXTAP	91	216	2
EXTAP	91	240	1
EXTAP	91	264	0
NMTTP	91	288	0	C	1	M1
BRTAP	91	288	7
NMTAP	92	288	3
NMTAP	92	336	3
NMTAP	93	0	5
NMTAP	93	48	4
NMTAP	93	96	2
NMTAP	93	96	6
NMTAP	93	144	3
NMTAP	93	192	1
NMSTR	93	240	4
BRSF_	93	240	4	96	240	0
NMSTR	95	0	3
BRSF_	95	0	3	96	240	7
BRTAP	96	192	3
NMTTP	96	192	6	B	0	M1
NMTTP	96	192	6	E	0	M1
NMTTP	96	192	6	D	1	M1
BRTAP	96	240	2
NMTTP	96	240	5	B	0	M1
NMTTP	96	240	5	E	0	M1
NMTTP	96	240	5	D	1	M1
BRTAP	96	288	1
NMTTP	96	288	4	B	0	M1
NMTTP	96	288	4	E	0	M1
NMTTP	96	288	4	D	1	M1
BRTAP	96	336	0
NMTTP	96	336	3	B	0	M1
NMTTP	96	336	3	E	0	M1
NMTTP	96	336	3	D	1	M1
NMTTP	97	0	2	B	0	M1
NMTTP	97	0	2	E	0	M1
NMTTP	97	0	2	D	1	M1
BRTAP	97	0	7
NMTTP	97	48	1	B	0	M1
NMTTP	97	48	1	E	0	M1
NMTTP	97	48	1	D	1	M1
BRTAP	97	48	6
NMTTP	97	96	0	B	0	M1
NMTTP	97	96	0	E	0	M1
NMTTP	97	96	0	D	1	M1
BRTAP	97	96	6

T_REC_TAP	230
T_REC_BRK	60
T_REC_XTP	72
T_REC_BXX	0
T_REC_HLD	17
T_REC_XHO	0
T_REC_BHO	0
T_REC_BXH	0
T_REC_STR	51
T_REC_BST	8
T_REC_XST	3
T_REC_XBS	0
T_REC_TTP	309
T_REC_THO	0
T_REC_SLD	72
T_REC_BSL	2
T_REC_ALL	824
T_NUM_TAP	665
T_NUM_BRK	70
T_NUM_HLD	17
T_NUM_SLD	72
T_NUM_ALL	824
T_JUDGE_TAP	733
T_JUDGE_HLD	34
T_JUDGE_SLD	74
T_JUDGE_ALL	841
TTM_EACHPAIRS	33
TTM_SCR_TAP	332500
TTM_SCR_BRK	182000
TTM_SCR_HLD	17000
TTM_SCR_SLD	108000
TTM_SCR_ALL	639500
TTM_SCR_S	613550
TTM_SCR_SS	632500
TTM_RAT_ACV	10110

