VERSION	0.00.00	1.04.00
FES_MODE	0
BPM_DEF	216.000	216.000	216.000	216.000
MET_DEF	4	4
RESOLUTION	384
CLK_DEF	576
COMPATIBLE_CODE	MA2

BPM	0	0	216.000
MET	0	0	4	3
MET	6	0	4	5
MET	56	0	4	4
MET	57	0	4	2
MET	57	192	8	3
MET	58	96	4	4
MET	59	96	8	9
MET	81	288	8	5
MET	91	288	4	4
MET	92	288	4	2
MET	93	96	8	3
MET	94	0	4	4
MET	95	0	4	3

NMSTR	1	192	0
NMSSL	1	192	0	96	288	4
EXTAP	3	0	6
EXTAP	3	0	7
NMTAP	3	96	3
NMTAP	3	96	5
NMTAP	3	192	2
NMTAP	3	192	4
NMTAP	3	288	0
NMTAP	3	288	1
NMTAP	4	0	2
NMTAP	4	0	7
NMTAP	4	48	2
NMTAP	4	48	7
NMTAP	4	144	0
NMTAP	4	144	5
EXTAP	4	192	0
EXTAP	4	192	5
NMTAP	4	288	2
NMTAP	4	288	4
NMTAP	5	0	3
NMTAP	5	0	5
NMTAP	5	96	6
NMTAP	5	144	7
NMTAP	5	192	0
BRTAP	5	240	1
NMHLD	6	0	5	144
NMTAP	6	144	4
NMTAP	6	240	3
NMTAP	6	288	3
NMTAP	7	0	2
NMTAP	7	0	4
NMHLD	7	96	2	144
NMTAP	7	240	3
NMTAP	7	336	4
NMTAP	8	0	4
NMTAP	8	96	3
NMTAP	8	96	5
NMHLD	8	192	5	144
NMTAP	8	336	4
NMTAP	9	48	2
NMTAP	9	96	2
NMTAP	9	192	1
NMTAP	9	192	3
NMHLD	9	288	2	144
NMTAP	10	48	3
NMTAP	10	144	5
NMTAP	10	192	5
NMTAP	10	288	4
NMTAP	10	288	6
NMTAP	11	0	5
NMTAP	11	48	4
NMTAP	11	96	3
NMHLD	11	144	2	96
NMTAP	11	240	3
NMTAP	11	288	3
NMTAP	12	0	1
NMTAP	12	0	4
NMTAP	12	96	2
NMTAP	12	144	3
NMTAP	12	192	4
NMHLD	12	240	5	96
NMTAP	12	336	4
NMTAP	13	0	4
NMTAP	13	96	3
NMTAP	13	96	6
NMTAP	13	192	5
NMTAP	13	240	4
NMTAP	13	288	2
NMHLD	13	336	1	96
NMTAP	14	48	3
NMTAP	14	96	3
NMTAP	14	192	0
NMTAP	14	192	4
NMTAP	14	288	2
NMTAP	14	336	3
NMTAP	15	0	5
NMHLD	15	48	6	96
NMTAP	15	144	4
NMTAP	15	192	4
NMTAP	15	288	0
NMTAP	15	288	7
NMHLD	16	0	2	96
NMTAP	16	96	3
NMTAP	16	144	2
NMTAP	16	192	3
NMTAP	16	288	1
NMTAP	16	288	4
NMTAP	17	0	2
NMTAP	17	0	4
NMHLD	17	96	5	96
NMTAP	17	192	4
NMTAP	17	240	5
NMTAP	17	288	4
NMTAP	18	0	3
NMTAP	18	0	6
NMTAP	18	96	3
NMTAP	18	96	5
NMHLD	18	192	1	96
NMTAP	18	288	3
NMTAP	18	336	1
NMTAP	19	0	3
NMTAP	19	96	2
NMTAP	19	96	4
NMTAP	19	192	3
NMTAP	19	192	5
NMHLD	19	288	6	96
NMTAP	20	0	4
NMTAP	20	48	6
NMTAP	20	96	4
NMTAP	20	192	3
NMTAP	20	192	5
NMTAP	20	288	2
NMTAP	20	288	4
NMHLD	21	0	1	96
NMTAP	21	96	0
NMTAP	21	144	1
NMTAP	21	192	0
NMTAP	21	288	1
NMTAP	21	288	7
NMTAP	22	0	0
NMTAP	22	0	7
NMHLD	22	96	6	96
NMTAP	22	192	7
NMTAP	22	240	6
NMTAP	22	288	7
NMTAP	23	0	0
NMTAP	23	0	6
NMTAP	23	96	0
NMTAP	23	96	7
NMHLD	23	192	1	96
NMTAP	23	288	0
NMTAP	23	336	1
NMTAP	24	0	0
NMTAP	24	96	1
NMTAP	24	96	7
NMTAP	24	192	0
NMSTR	24	192	6
NMSCL	24	192	6	96	384	7
NMHLD	26	0	0	192
NMTAP	26	96	2
NMHLD	26	192	3	192
NMTAP	26	288	2
NMTAP	27	0	1
NMTAP	27	96	0
NMTAP	27	96	1
NMTAP	27	240	6
NMTAP	27	240	7
NMTAP	27	336	5
NMTAP	28	0	4
NMTAP	28	96	3
NMTAP	28	96	6
NMHLD	28	192	7	192
NMTAP	28	288	5
NMHLD	29	0	4	192
NMTAP	29	96	5
NMTAP	29	192	6
NMTAP	29	288	6
NMTAP	29	288	7
NMTAP	30	48	0
NMTAP	30	48	1
NMTAP	30	144	2
NMTAP	30	192	3
NMTAP	30	288	1
NMTAP	30	288	4
NMHLD	31	0	0	192
NMTAP	31	96	2
NMHLD	31	192	3	288
NMTAP	31	288	2
NMTAP	32	0	1
NMHLD	32	96	0	192
NMTAP	32	192	7
NMHLD	32	288	6	192
NMTAP	33	0	7
NMSTR	33	96	0
NMSCL	33	96	0	96	288	2
NMTAP	34	96	5
NMSTR	34	192	5
NMSCR	34	192	5	96	192	2
BRTAP	35	192	1
BRTAP	35	192	4
EXHLD	36	0	6	168
EXHLD	36	0	7	168
NMTTP	36	240	4	A	0	M1
NMTTP	36	240	5	E	0	M1
NMTTP	36	240	5	A	0	M1
NMTTP	36	240	5	D	1	M1
NMHLD	37	96	0	168
NMHLD	37	96	1	168
NMTTP	37	336	2	A	0	M1
NMTTP	37	336	3	E	0	M1
NMTTP	37	336	3	A	0	M1
NMTTP	37	336	3	D	1	M1
NMHLD	38	192	6	144
NMHLD	38	192	7	144
NMTTP	39	48	1	B	0	M1
NMTTP	39	48	1	A	1	M1
NMTTP	39	48	1	D	0	M1
NMTTP	39	48	2	D	0	M1
NMHLD	39	288	2	168
NMHLD	39	288	3	168
NMTTP	40	144	5	B	0	M1
NMTTP	40	144	5	A	1	M1
NMTTP	40	144	5	D	0	M1
NMTTP	40	144	6	D	0	M1
NMHLD	41	0	1	80
NMTAP	41	80	0
NMHLD	41	120	1	80
NMTAP	41	200	2
NMHLD	41	240	1	80
NMTAP	41	320	3
NMTAP	41	360	1
NMTAP	41	360	3
NMHLD	42	96	6	80
NMTAP	42	176	7
NMHLD	42	216	6	80
NMTAP	42	296	5
NMHLD	42	336	6	80
NMTAP	43	32	4
NMTAP	43	72	4
NMTAP	43	72	6
NMHLD	43	192	2	80
NMTAP	43	272	3
NMHLD	43	312	2	80
NMTAP	44	8	1
NMHLD	44	48	2	80
NMTAP	44	128	0
NMTAP	44	168	0
NMTAP	44	168	2
NMHLD	44	288	5	80
NMTAP	44	368	4
NMHLD	45	24	5	80
NMTAP	45	104	6
NMHLD	45	144	5	80
NMTAP	45	224	7
BRTAP	45	264	5
BRTAP	45	264	7
NMSTR	46	0	6
NMSCL	46	0	6	96	48	3
NMSTR	46	120	0
NMSI_	46	120	0	96	48	4
NMSTR	46	240	7
NMSI_	46	240	7	96	48	3
NMTAP	46	360	2
NMSTR	47	96	1
NMSCR	47	96	1	96	48	4
NMSTR	47	216	7
NMSI_	47	216	7	96	48	3
NMSTR	47	336	0
NMSI_	47	336	0	96	48	4
NMTAP	48	72	5
NMSTR	48	192	6
NMSI_	48	192	6	96	48	3
NMSTR	48	312	1
NMSCR	48	312	1	96	48	4
NMSTR	49	48	5
NMSCR	49	48	5	96	48	0
NMTAP	49	168	2
NMSTR	49	288	1
NMSI_	49	288	1	96	48	4
NMSTR	50	24	6
NMSCL	50	24	6	96	48	3
NMSTR	50	144	2
NMSCL	50	144	2	96	48	7
NMTAP	50	264	5
NMSTR	51	0	6
NMSI_	51	0	6	96	48	3
NMSTR	51	120	1
NMSI_	51	120	1	96	48	4
NMSTR	51	240	7
NMSI_	51	240	7	96	48	3
NMSTR	51	360	0
NMSI_	51	360	0	96	48	4
NMSTR	52	96	5
NMSCR	52	96	5	96	48	0
NMSTR	52	216	1
NMSI_	52	216	1	96	48	4
NMSTR	52	336	6
NMSI_	52	336	6	96	48	3
NMSTR	53	72	7
NMSCR	53	72	7	96	48	2
NMSTR	53	192	5
NMSI_	53	192	5	96	48	0
NMSTR	53	312	4
NMSI_	53	312	4	96	48	1
NMSTR	54	48	7
NMSCL	54	48	7	96	48	4
NMSTR	54	168	0
NMSCR	54	168	0	96	48	3
NMSTR	54	288	4
NMSF_	54	288	4	96	144	0
BRTAP	55	288	2
BRTAP	55	288	6
NMTAP	56	0	0
NMTAP	56	48	7
NMTAP	56	96	0
NMTAP	56	144	1
NMTAP	56	144	6
NMTAP	56	240	3
NMTAP	56	240	4
NMTAP	56	288	3
NMTAP	56	288	4
EXTAP	57	0	6
EXTAP	57	0	7
EXTAP	57	96	4
EXTAP	57	96	5
EXTAP	57	192	2
EXTAP	57	192	3
EXTAP	57	288	0
EXTAP	57	288	1
EXSTR	57	336	0
NMSI_	57	336	0	96	144	5
EXSTR	57	336	1
NMSI_	57	336	1	96	144	4
CNSI_	58	192	4	0	96	2
CNSI_	58	192	5	0	96	7
NMTAP	59	0	0
NMTAP	59	0	1
BRTAP	59	96	2
BRTAP	59	96	7
NMTAP	59	192	6
NMHLD	59	240	6	96
NMTAP	59	336	4
NMTAP	60	48	2
NMTAP	60	48	5
NMTAP	60	144	0
NMTAP	60	144	4
NMTAP	60	240	1
NMHLD	60	288	1	96
NMTAP	61	0	3
NMTAP	61	96	2
NMTAP	61	96	5
NMTAP	61	192	3
NMTAP	61	192	7
NMTAP	61	288	6
NMHLD	61	336	6	96
NMTAP	62	48	4
NMTAP	62	144	2
NMTAP	62	144	5
NMTAP	62	240	0
NMTAP	62	240	3
NMTAP	62	336	1
NMHLD	63	0	1	96
NMTAP	63	96	3
NMTAP	63	192	2
NMTAP	63	192	5
NMTAP	63	288	4
NMTAP	63	288	7
NMTAP	64	0	6
NMTAP	64	48	3
NMTAP	64	96	5
NMTAP	64	144	2
NMTAP	64	240	1
NMTAP	64	240	4
NMTAP	64	336	0
NMTAP	64	336	3
NMTAP	65	48	1
NMTAP	65	96	4
NMTAP	65	144	2
NMTAP	65	192	5
NMTAP	65	288	3
NMTAP	65	288	6
NMTAP	66	0	4
NMTAP	66	0	7
NMTAP	66	96	6
NMTAP	66	144	5
NMTAP	66	192	3
NMTAP	66	240	2
NMTAP	66	336	1
NMTAP	66	336	4
NMTAP	67	48	0
NMTAP	67	48	3
NMTAP	67	144	1
NMTAP	67	192	2
NMTAP	67	240	4
NMTAP	67	288	5
BRTAP	68	0	0
BRTAP	68	0	7
NMHLD	68	96	6	96
NMTAP	68	192	4
NMHLD	68	240	4	96
NMTAP	68	336	3
NMHLD	69	0	3	96
NMTAP	69	96	1
NMHLD	69	144	1	96
NMTAP	69	240	7
NMHLD	69	288	7	96
NMTAP	70	0	0
NMTAP	70	96	3
NMTAP	70	96	4
NMTAP	70	192	5
NMHLD	70	240	5	96
NMTAP	70	336	7
NMHLD	71	0	7	96
NMTAP	71	96	0
NMHLD	71	144	0	96
NMTAP	71	240	1
EXTAP	71	288	0
EXTAP	71	288	1
EXTAP	72	0	2
EXTAP	72	0	3
EXTAP	72	96	4
EXTAP	72	96	5
EXTAP	72	192	6
EXSTR	72	192	7
NMSCR	72	192	7	96	576	5
NMTTP	72	288	0	C	1	M1
CNSUR	74	96	5	0	720	6
NMTAP	77	96	3
NMHLD	77	128	2	160
NMTAP	77	288	5
NMHLD	77	320	6	176
NMTAP	78	112	2
NMHLD	78	144	1	192
NMTAP	78	336	6
NMHLD	78	368	7	208
NMTAP	79	192	0
NMHLD	79	224	1	176
NMTAP	80	16	6
NMHLD	80	48	5	176
NMTAP	80	224	2
NMHLD	80	256	3	320
NMTAP	81	48	5
NMHLD	81	80	4	112
EXSTR	81	288	0
NMSI_	81	288	0	96	48	5
EXSTR	81	288	1
NMSI_	81	288	1	96	48	4
NMTAP	81	336	0
NMTAP	81	336	1
BXTAP	82	144	3
BXTAP	82	144	6
EXSTR	83	0	6
NMSI_	83	0	6	96	48	3
EXSTR	83	0	7
NMSI_	83	0	7	96	48	2
NMTAP	83	48	6
NMTAP	83	48	7
BXTAP	83	240	1
BXTAP	83	240	4
EXSTR	84	96	0
NMSI_	84	96	0	96	48	6
EXSTR	84	96	1
NMSI_	84	96	1	96	48	5
NMTAP	84	144	0
NMTAP	84	144	1
BXTAP	84	336	4
BXTAP	84	336	7
EXSTR	85	192	6
NMSI_	85	192	6	96	48	2
EXSTR	85	192	7
NMSI_	85	192	7	96	48	1
NMTAP	85	240	6
NMTAP	85	240	7
BXTAP	86	48	0
BXTAP	86	48	3
EXTAP	86	288	3
EXTAP	86	288	7
NMTAP	86	368	4
NMTAP	86	368	6
NMTAP	87	24	4
NMTAP	87	24	6
NMTAP	87	104	2
NMTAP	87	104	5
NMTAP	87	144	2
NMTAP	87	144	5
NMTAP	87	224	1
NMTAP	87	224	3
BXTAP	87	264	1
BXTAP	87	264	3
EXTAP	88	0	0
EXTAP	88	0	4
NMTAP	88	80	1
NMTAP	88	80	3
NMTAP	88	120	1
NMTAP	88	120	3
NMTAP	88	200	2
NMTAP	88	200	5
NMTAP	88	240	2
NMTAP	88	240	5
NMTAP	88	320	4
NMTAP	88	320	6
BXTAP	88	360	4
BXTAP	88	360	6
EXTAP	89	96	3
EXTAP	89	96	7
NMTAP	89	176	0
NMTAP	89	176	2
NMTAP	89	216	0
NMTAP	89	216	2
NMTAP	89	296	1
NMTAP	89	296	6
NMTAP	89	336	1
NMTAP	89	336	6
NMTAP	90	32	5
NMTAP	90	32	7
BXTAP	90	72	5
BXTAP	90	72	7
EXTAP	90	192	0
EXTAP	90	192	4
NMTAP	90	272	5
NMTAP	90	272	7
NMTAP	90	312	5
NMTAP	90	312	7
NMTAP	91	8	1
NMTAP	91	8	6
NMTAP	91	48	1
NMTAP	91	48	6
NMTAP	91	128	0
NMTAP	91	128	2
BXTAP	91	168	0
BXTAP	91	168	2
NMTAP	91	288	7
NMTAP	91	336	0
NMTAP	92	0	7
NMTAP	92	48	1
NMTAP	92	48	6
NMTAP	92	144	3
NMTAP	92	144	4
NMTAP	92	192	3
NMTAP	92	192	4
NMTAP	92	288	1
NMTAP	92	336	4
NMTAP	93	0	2
NMTAP	93	48	6
NMTAP	93	96	3
NMTAP	93	144	5
NMTAP	93	192	2
EXSTR	93	240	2
NMSCR	93	240	2	96	336	0
EXTAP	95	0	3
EXSTR	95	0	5
NMSCL	95	0	5	96	336	7
NMTAP	96	192	0
NMTAP	96	240	6
NMTAP	96	288	2
NMTAP	96	336	4
NMTAP	97	0	3
NMTAP	97	0	4
NMTAP	97	48	3
NMTAP	97	48	4
NMTTP	97	96	0	C	1	M1
NMTTP	97	96	1	B	0	M1
NMTTP	97	96	2	E	0	M1
NMTTP	97	96	5	B	0	M1
NMTTP	97	96	6	E	0	M1

T_REC_TAP	319
T_REC_BRK	11
T_REC_XTP	28
T_REC_BXX	16
T_REC_HLD	61
T_REC_XHO	2
T_REC_BHO	0
T_REC_BXH	0
T_REC_STR	29
T_REC_BST	0
T_REC_XST	13
T_REC_XBS	0
T_REC_TTP	22
T_REC_THO	0
T_REC_SLD	42
T_REC_BSL	0
T_REC_ALL	543
T_NUM_TAP	411
T_NUM_BRK	27
T_NUM_HLD	63
T_NUM_SLD	42
T_NUM_ALL	543
T_JUDGE_TAP	438
T_JUDGE_HLD	181
T_JUDGE_SLD	42
T_JUDGE_ALL	661
TTM_EACHPAIRS	124
TTM_SCR_TAP	205500
TTM_SCR_BRK	70200
TTM_SCR_HLD	63000
TTM_SCR_SLD	63000
TTM_SCR_ALL	401700
TTM_SCR_S	387050
TTM_SCR_SS	399000
TTM_RAT_ACV	10067

