VERSION	0.00.00	1.04.00
FES_MODE	0
BPM_DEF	168.000	168.000	195.000	168.000
MET_DEF	4	4
RESOLUTION	384
CLK_DEF	384
COMPATIBLE_CODE	MA2

BPM	0	0	168.000
BPM	74	0	174.000
BPM	78	0	180.000
BPM	80	0	183.000
BPM	84	0	184.000
BPM	85	0	190.000
BPM	88	0	193.000
BPM	88	192	195.000
MET	0	0	4	4

EXHLD	2	0	5	192
NMHLD	2	192	3	192
NMHLD	3	0	4	192
NMHLD	3	192	2	192
EXHLD	4	0	5	192
NMTAP	4	48	4
NMTAP	4	144	4
NMHLD	4	192	2	192
NMTAP	4	240	3
NMTAP	4	336	3
NMHLD	5	0	5	192
NMTAP	5	48	4
NMTAP	5	144	4
NMHLD	5	192	2	144
NMTAP	5	240	3
NMTAP	5	336	3
EXTAP	6	0	1
EXTAP	6	0	4
NMTAP	6	96	2
NMTAP	6	96	5
NMTAP	6	192	3
NMTAP	6	192	6
NMTAP	6	288	2
NMTAP	6	288	5
NMTAP	7	0	1
NMTAP	7	0	3
NMTAP	7	96	3
NMTAP	7	96	4
NMTAP	7	192	4
NMTAP	7	192	6
NMTAP	7	288	3
NMTAP	7	288	4
EXTAP	8	0	1
EXTAP	8	0	5
NMTAP	8	48	6
NMTAP	8	96	2
NMTAP	8	96	5
NMTAP	8	144	6
NMTAP	8	192	3
NMTAP	8	192	5
NMTAP	8	240	6
NMTAP	8	288	4
NMTAP	8	288	5
NMTAP	8	336	6
NMTAP	9	0	2
NMTAP	9	0	5
NMTAP	9	48	1
NMSTR	9	96	2
NMSXR	9	96	2	96	144	7
NMSTR	9	96	4
NMSXL	9	96	4	96	144	7
NMTAP	9	144	1
NMTAP	9	192	2
NMTAP	9	192	4
BXSTR	10	0	1
NMSCR	10	0	1	96	48	4
NMTAP	10	96	0
NMSTR	10	192	6
NMSCL	10	192	6	96	48	3
NMTAP	10	288	7
NMSTR	11	0	2
NMSCL	11	0	2	96	48	7
NMTAP	11	96	3
NMSTR	11	192	5
NMSCR	11	192	5	96	48	0
NMTAP	11	288	4
NMSTR	12	0	1
NMSUR	12	0	1	96	48	5
NMTAP	12	96	0
NMSTR	12	192	6
NMSUL	12	192	6	96	48	2
NMTAP	12	288	7
NMSTR	13	0	0
NMSUR	13	0	0	96	48	4
NMTAP	13	96	6
NMSTR	13	192	7
NMSI_	13	192	7	96	48	2
NMSI_	13	192	7	96	48	4
BXSTR	14	0	6
NMSV_	14	0	6	96	48	4
NMTAP	14	96	7
NMSTR	14	192	1
NMSV_	14	192	1	96	48	3
NMTAP	14	288	0
NMSTR	15	0	4
NMSLR	15	0	4	96	96	0
NMTAP	15	96	1
NMSTR	15	192	3
NMSLL	15	192	3	96	96	7
NMTAP	15	288	6
NMSTR	16	0	5
NMSI_	16	0	5	96	48	0
NMSI_	16	0	5	96	48	2
NMTAP	16	96	5
NMSTR	16	192	1
NMSI_	16	192	1	96	48	4
NMSI_	16	192	1	96	48	6
NMTAP	16	288	1
NMTAP	17	0	3
NMTAP	17	0	5
NMTAP	17	48	2
NMTAP	17	96	2
NMTAP	17	96	4
NMTAP	17	144	5
NMTTP	17	192	3	E	0	M1
NMHLD	17	192	5	96
NMTTP	17	204	2	E	0	M1
NMTTP	17	216	1	E	0	M1
NMTTP	17	228	0	E	0	M1
NMTTP	17	240	7	E	0	M1
NMTTP	17	252	6	E	0	M1
NMTTP	17	264	5	E	0	M1
NMTTP	17	276	4	E	0	M1
NMTTP	17	288	3	E	0	M1
EXSTR	18	0	7
NMSCL	18	0	7	96	192	3
NMTAP	18	96	3
NMTAP	18	192	2
NMTAP	18	288	1
NMSTR	19	0	0
NMSCR	19	0	0	96	192	4
NMTAP	19	96	4
NMTAP	19	192	5
NMTAP	19	288	6
NMSTR	20	0	2
NMSUL	20	0	2	96	192	5
NMSTR	20	0	6
NMSCR	20	0	6	96	192	1
NMHLD	21	0	3	48
NMTTP	21	48	6	E	0	M1
NMHLD	21	96	2	48
NMTTP	21	144	5	E	0	M1
NMHLD	21	192	1	48
NMTTP	21	240	4	E	0	M1
NMHLD	21	288	0	48
NMTTP	21	336	3	E	0	M1
EXSTR	22	0	0
NMSCR	22	0	0	96	192	4
NMTAP	22	96	4
NMTAP	22	192	5
NMTAP	22	288	6
NMSTR	23	0	7
NMSCL	23	0	7	96	192	3
NMTAP	23	96	3
NMTAP	23	192	2
NMTAP	23	288	1
NMSTR	24	0	0
NMSXL	24	0	0	96	192	0
NMSXR	24	0	0	96	192	0
NMHLD	25	0	4	48
NMTTP	25	48	2	E	0	M1
NMHLD	25	96	5	48
NMTTP	25	144	3	E	0	M1
NMHLD	25	192	6	48
NMTTP	25	240	4	E	0	M1
NMHLD	25	288	7	48
NMTTP	25	336	5	E	0	M1
EXSTR	26	0	7
NMSCL	26	0	7	96	192	3
NMTAP	26	96	3
NMTAP	26	192	2
NMTAP	26	288	1
NMSTR	27	0	0
NMSCR	27	0	0	96	192	4
NMTAP	27	96	4
NMTAP	27	192	5
NMTAP	27	288	6
NMSTR	28	0	7
BRSXR	28	0	7	96	144	7
NMSTR	28	96	1
BRSXL	28	96	1	96	144	1
NMTAP	28	144	1
NMHLD	29	0	7	48
NMTTP	29	48	2	E	0	M1
NMHLD	29	96	6	48
NMTTP	29	144	1	E	0	M1
NMHLD	29	192	5	48
NMTTP	29	240	0	E	0	M1
NMHLD	29	288	4	48
NMTTP	29	336	7	E	0	M1
NMSTR	30	0	4
NMSI_	30	0	4	96	96	1
NMSTR	30	96	1
NMSI_	30	96	1	96	96	6
NMSTR	30	192	6
NMSI_	30	192	6	96	96	3
NMSTR	30	288	3
NMSCL	30	288	3	96	96	0
NMSTR	31	0	0
NMSCL	31	0	0	96	96	5
NMSTR	31	96	5
NMSCL	31	96	5	96	96	2
NMSTR	31	192	2
NMSI_	31	192	2	96	48	6
NMTAP	31	288	0
EXSTR	32	0	1
NMSI_	32	0	1	96	48	4
NMTAP	32	48	0
EXSTR	32	96	6
NMSI_	32	96	6	96	48	3
NMTAP	32	144	7
EXSTR	32	192	1
NMSI_	32	192	1	96	48	5
NMTAP	32	240	0
EXSTR	32	288	6
NMSUL	32	288	6	96	96	4
NMTAP	32	336	7
EXHLD	33	0	1	96
NMTAP	33	144	0
NMTAP	33	168	1
EXSTR	33	192	2
NMSI_	33	192	2	96	48	6
EXSTR	33	192	3
NMSI_	33	192	3	96	48	7
BRTAP	34	0	0
BRTAP	34	0	1
BRTAP	34	96	4
BRTAP	34	96	5
BRSTR	34	192	2
BRSV_	34	192	2	96	48	0
BRSTR	34	192	6
NMSV_	34	192	6	96	48	4
EXTAP	35	0	5
EXSTR	35	0	7
NMSI_	35	0	7	96	48	3
NMTAP	35	48	6
NMTAP	35	96	1
NMTAP	35	96	7
NMSTR	35	192	0
NMSI_	35	192	0	96	48	4
NMTAP	35	192	6
NMTAP	35	240	7
NMTAP	35	288	0
NMTAP	35	288	2
NMTAP	36	0	3
NMSTR	36	0	5
NMSXR	36	0	5	96	96	6
NMTAP	36	96	2
NMTAP	36	144	1
NMSTR	36	192	0
NMSI_	36	192	0	96	48	2
NMSI_	36	192	0	96	48	6
NMTAP	36	288	0
NMTAP	37	0	1
NMTAP	37	0	3
NMTAP	37	48	2
NMTAP	37	96	4
NMTAP	37	96	6
NMTAP	37	144	5
NMTAP	37	192	0
NMTAP	37	192	3
NMTAP	37	240	2
NMTAP	37	264	4
NMTAP	37	288	3
NMTAP	37	336	4
NMTAP	37	336	5
NMSTR	38	0	6
NMSI_	38	0	6	96	48	2
NMSTR	38	48	0
NMSI_	38	48	0	96	48	4
NMTAP	38	96	6
NMTAP	38	144	0
NMTAP	38	192	7
NMTAP	38	288	3
NMTAP	38	288	6
EXSTR	39	0	0
NMSI_	39	0	0	96	48	4
EXTAP	39	0	2
NMTAP	39	48	1
NMTAP	39	96	0
NMTAP	39	96	6
NMTAP	39	192	1
NMSTR	39	192	7
NMSI_	39	192	7	96	48	3
NMTAP	39	240	0
NMTAP	39	288	5
NMTAP	39	288	7
NMSTR	39	336	5
NMSCL	39	336	5	96	96	2
NMSTR	40	48	2
NMSXL	40	48	2	96	144	5
NMTAP	40	96	1
NMTAP	40	144	0
NMSTR	40	192	7
BRSI_	40	192	7	96	48	2
NMTAP	40	288	7
EXTAP	41	0	4
EXTAP	41	0	6
NMTAP	41	48	5
NMTAP	41	96	1
NMTAP	41	96	3
NMTAP	41	144	2
EXTAP	41	192	4
EXTAP	41	192	7
NMTAP	41	240	5
NMTAP	41	264	3
NMTAP	41	288	4
NMTAP	41	336	2
NMTAP	41	336	3
NMTAP	42	0	1
NMTAP	42	24	0
NMTAP	42	48	1
NMTAP	42	72	0
NMTAP	42	96	2
NMTAP	42	120	3
NMTAP	42	144	2
NMTAP	42	168	3
BRTAP	42	192	1
BRTAP	42	192	4
BRTAP	42	288	3
BRTAP	42	288	6
EXTAP	43	0	2
EXSTR	43	0	4
NMSI_	43	0	4	96	48	0
NMTAP	43	48	3
NMTAP	43	96	4
NMTAP	43	96	6
NMTAP	43	192	1
NMSTR	43	192	3
NMSI_	43	192	3	96	48	7
NMTAP	43	240	2
NMTAP	43	288	3
NMTAP	43	288	5
NMSTR	44	0	0
NMSXR	44	0	0	96	96	1
NMTAP	44	0	6
NMTAP	44	96	6
NMTAP	44	144	5
NMSTR	44	192	4
NMSI_	44	192	4	96	48	2
NMSI_	44	192	4	96	48	6
NMTAP	44	288	4
NMTAP	45	0	1
NMTAP	45	0	3
NMTAP	45	48	2
NMTAP	45	96	4
NMTAP	45	96	6
NMTAP	45	144	5
NMTAP	45	192	0
NMTAP	45	192	3
NMTAP	45	240	2
NMTAP	45	264	4
NMTAP	45	288	3
NMTAP	45	336	4
NMTAP	45	336	5
NMTAP	46	0	6
NMTAP	46	0	7
NMTAP	46	48	0
NMTAP	46	48	1
NMSTR	46	96	2
NMSSR	46	96	2	96	96	6
NMSTR	46	96	3
NMSSL	46	96	3	96	96	7
NMTAP	46	192	2
NMTAP	46	192	3
EXSTR	47	0	6
NMSI_	47	0	6	96	48	3
NMSTR	47	96	7
NMSI_	47	96	7	96	48	3
NMSTR	47	192	0
NMSI_	47	192	0	96	48	4
NMTAP	47	288	1
NMSTR	47	336	1
NMSI_	47	336	1	96	48	4
NMTAP	48	48	6
NMSTR	48	96	7
NMSXR	48	96	7	96	144	3
NMTAP	48	144	1
NMSTR	48	192	0
NMSI_	48	192	0	96	48	2
NMTAP	48	288	0
NMTAP	49	0	4
NMTAP	49	0	6
NMTAP	49	48	5
NMTAP	49	96	1
NMTAP	49	96	3
NMTAP	49	144	2
NMTAP	49	192	4
NMTAP	49	192	7
NMTAP	49	240	5
NMTAP	49	264	3
NMTAP	49	288	4
NMTAP	49	336	1
NMTAP	49	336	3
EXTAP	50	0	0
EXSTR	50	0	7
NMSXL	50	0	7	96	144	5
NMTAP	50	96	3
NMTAP	50	168	4
NMTAP	50	192	4
NMTAP	50	240	3
NMTAP	50	288	2
NMTAP	50	288	4
EXTAP	51	0	4
NMTAP	51	32	2
NMTAP	51	64	2
NMTAP	51	96	5
NMTAP	51	128	3
NMTAP	51	160	3
NMTAP	51	192	6
NMTAP	51	224	4
NMTAP	51	256	4
BRHLD	51	288	7	32
BRHLD	51	352	0	32
BRHLD	51	352	6	32
BRHLD	52	32	1	32
BRHLD	52	32	5	32
EXTAP	52	96	2
NMTAP	52	128	4
NMTAP	52	160	4
NMTAP	52	192	1
NMTAP	52	224	3
NMTAP	52	256	3
NMTAP	52	288	0
NMTAP	52	320	2
NMTAP	52	352	2
BRHLD	53	0	0	32
BRHLD	53	64	1	32
BRHLD	53	64	7	32
BRHLD	53	128	2	32
BRHLD	53	128	6	32
EXTAP	53	192	5
NMTAP	53	224	3
NMTAP	53	256	3
NMTAP	53	288	4
NMTAP	53	320	2
NMTAP	53	352	2
NMTAP	54	0	3
NMTAP	54	32	1
NMTAP	54	64	1
BRHLD	54	96	0	32
BRHLD	54	96	4	32
BRHLD	54	160	2	32
BRHLD	54	160	5	32
BRHLD	54	224	3	32
BRHLD	54	224	7	32
EXTAP	54	288	2
NMTAP	54	320	4
NMTAP	54	352	4
NMTAP	55	0	3
NMTAP	55	32	5
NMTAP	55	64	5
NMTAP	55	96	4
NMTAP	55	128	6
NMTAP	55	160	6
BRHLD	55	192	3	32
BRHLD	55	192	7	32
BRHLD	55	256	2	32
BRHLD	55	256	5	32
BRHLD	55	320	0	32
BRHLD	55	320	4	32
EXSTR	56	0	1
NMSI_	56	0	1	96	48	4
NMSTR	56	96	6
NMSI_	56	96	6	96	48	2
NMSTR	56	192	3
NMSI_	56	192	3	96	48	7
NMSTR	56	288	4
NMSUR	56	288	4	96	48	0
NMSTR	57	0	1
NMSI_	57	0	1	96	48	5
NMSTR	57	96	6
NMSI_	57	96	6	96	48	2
NMSTR	57	192	7
NMSCR	57	192	7	96	48	3
NMTAP	57	288	5
NMSTR	58	0	7
NMSI_	58	0	7	96	48	3
NMSTR	58	96	2
NMSI_	58	96	2	96	48	6
NMSTR	58	192	0
NMSI_	58	192	0	96	48	5
NMSTR	58	288	3
NMSUL	58	288	3	96	48	7
NMSTR	59	0	6
NMSI_	59	0	6	96	48	2
NMSTR	59	96	0
NMSI_	59	96	0	96	48	4
BRTAP	59	192	0
NMSTR	59	192	7
NMSCL	59	192	7	96	48	4
BRTAP	59	288	1
BRTAP	59	288	7
EXSTR	60	0	3
NMSI_	60	0	3	96	48	7
NMSTR	60	96	6
NMSI_	60	96	6	96	48	2
NMSTR	60	192	4
NMSI_	60	192	4	96	48	1
NMSTR	60	288	7
NMSUL	60	288	7	96	48	3
NMSTR	61	0	2
NMSI_	61	0	2	96	48	6
NMSTR	61	96	0
NMSI_	61	96	0	96	48	4
NMSTR	61	192	1
NMSI_	61	192	1	96	48	6
NMTAP	61	288	5
BRSTR	62	0	4
NMSI_	62	0	4	96	48	0
NMTAP	62	96	4
NMTAP	62	96	5
NMTAP	62	192	1
BRSTR	62	192	7
NMSI_	62	192	7	96	48	3
NMTAP	62	288	6
NMTAP	62	288	7
NMTAP	63	0	1
NMTAP	63	24	0
NMTAP	63	48	1
NMTAP	63	72	0
NMTAP	63	96	2
NMTAP	63	120	3
NMTAP	63	144	2
NMTAP	63	168	3
NMTAP	63	192	1
NMTAP	63	204	2
NMTAP	63	216	3
NMTAP	63	228	4
NMTAP	63	240	5
NMTAP	63	252	6
NMTAP	63	264	7
NMTAP	63	276	0
BXTAP	63	288	1
EXSTR	64	0	6
NMSCL	64	0	6	96	48	3
NMTAP	64	48	7
NMTAP	64	96	0
NMTAP	64	144	1
NMSTR	64	192	1
NMSCR	64	192	1	96	48	4
NMTAP	64	240	0
NMTAP	64	288	7
NMSTR	64	336	6
NMSI_	64	336	6	96	48	3
NMTAP	65	48	3
NMTAP	65	48	6
NMSTR	65	96	2
NMSI_	65	96	2	96	48	7
NMTAP	65	192	2
NMTAP	65	192	4
NMTAP	65	288	6
NMSTR	65	336	1
NMSV_	65	336	1	96	96	4
NMTAP	65	336	7
NMTAP	66	48	1
NMTAP	66	96	0
NMTAP	66	144	7
NMSTR	66	192	6
NMSV_	66	192	6	96	96	3
NMTAP	66	240	7
NMTAP	66	288	0
NMTAP	66	336	1
NMSTR	67	0	2
NMSCL	67	0	2	96	48	7
NMSTR	67	96	4
BRSXL	67	96	4	96	96	5
BRSXR	67	96	4	96	96	3
NMTAP	67	144	4
EXTAP	67	192	4
EXSTR	68	0	1
NMSCR	68	0	1	96	48	4
NMTAP	68	48	0
NMTAP	68	96	7
NMTAP	68	144	6
NMSTR	68	192	6
NMSCL	68	192	6	96	48	3
NMTAP	68	240	7
NMTAP	68	288	0
NMSTR	68	336	1
NMSCR	68	336	1	96	96	4
NMSTR	69	48	4
NMSXR	69	48	4	96	144	1
NMTAP	69	96	6
NMTAP	69	144	7
NMSTR	69	192	0
BRSCL	69	192	0	96	48	5
NMTAP	69	288	0
NMHLD	69	336	2	192
NMTAP	70	48	4
NMTAP	70	96	5
NMTAP	70	144	6
NMTAP	70	192	4
NMTAP	70	192	7
NMTAP	70	240	3
NMTAP	70	264	4
NMTAP	70	288	2
NMTAP	70	336	0
NMTAP	70	336	1
NMTAP	71	0	6
NMTAP	71	24	7
NMTAP	71	48	6
NMTAP	71	72	7
NMTAP	71	96	5
NMTAP	71	120	4
NMTAP	71	144	5
NMTAP	71	168	4
NMTAP	71	192	6
NMTAP	71	204	7
NMTAP	71	216	0
NMTAP	71	228	1
NMTAP	71	240	2
NMTAP	71	252	3
NMTAP	71	264	4
NMTAP	71	276	5
BXTAP	71	288	6
EXSTR	72	0	5
NMSCR	72	0	5	96	48	0
NMTAP	72	48	4
NMTAP	72	96	3
NMTAP	72	144	2
NMSTR	72	192	1
NMSCR	72	192	1	96	48	4
NMTAP	72	240	0
NMTAP	72	288	7
NMSTR	72	336	6
NMSI_	72	336	6	96	48	3
NMTAP	73	48	2
NMTAP	73	48	6
NMSTR	73	96	1
NMSI_	73	96	1	96	48	4
NMTAP	73	192	1
NMTAP	73	192	5
NMTAP	73	288	7
NMSTR	73	336	2
NMSV_	73	336	2	96	96	7
NMTAP	73	336	6
NMTAP	74	48	2
NMTAP	74	96	3
NMTAP	74	144	4
NMSTR	74	192	5
NMSV_	74	192	5	96	48	0
NMTAP	74	240	4
NMTAP	74	288	3
NMTAP	74	336	2
NMSTR	75	0	2
NMSCR	75	0	2	96	48	5
NMSTR	75	96	6
NMSI_	75	96	6	96	48	2
NMTAP	75	144	7
NMSTR	75	192	0
NMSI_	75	192	0	96	48	4
BRTAP	75	192	6
BRTAP	75	288	0
BRTAP	75	288	1
EXSTR	76	0	2
NMSCL	76	0	2	96	48	7
NMTAP	76	48	3
NMTAP	76	96	4
NMTAP	76	144	5
NMSTR	76	192	6
NMSCL	76	192	6	96	48	3
NMTAP	76	240	7
NMTAP	76	288	0
NMSTR	76	336	1
NMSCL	76	336	1	96	48	6
NMTAP	77	48	1
NMTAP	77	48	4
NMSTR	77	96	5
NMSCL	77	96	5	96	48	2
NMTAP	77	192	1
NMTAP	77	192	5
NMSTR	77	288	0
NMSLR	77	288	0	96	96	4
NMTAP	77	336	6
BRSTR	78	0	4
NMSLR	78	0	4	96	96	0
NMSTR	78	96	0
NMSLR	78	96	0	96	96	4
BRSTR	78	192	4
NMSI_	78	192	4	96	48	0
NMTAP	78	288	0
NMSTR	79	0	7
NMSI_	79	0	7	96	48	2
BRTAP	79	96	1
NMSTR	79	96	7
NMSI_	79	96	7	96	48	4
BRTAP	79	192	6
NMSTR	79	192	7
NMSI_	79	192	7	96	48	3
BRTAP	79	288	2
BRTAP	79	288	7
EXSTR	80	0	1
NMSI_	80	0	1	96	48	4
NMTAP	80	48	5
NMTAP	80	96	1
NMTAP	80	144	0
NMSTR	80	192	3
NMSI_	80	192	3	96	48	7
NMTAP	80	240	6
NMTAP	80	288	3
NMTAP	80	336	4
NMSTR	81	0	0
NMSI_	81	0	0	96	48	4
NMTAP	81	48	6
NMTAP	81	96	0
NMTAP	81	144	7
NMSTR	81	192	5
NMSI_	81	192	5	96	48	1
NMTAP	81	240	6
NMTAP	81	288	5
NMTAP	81	336	7
NMSTR	82	0	6
NMSI_	82	0	6	96	48	3
NMTAP	82	48	2
NMTAP	82	96	6
NMTAP	82	144	7
NMSTR	82	192	4
NMSI_	82	192	4	96	48	0
NMTAP	82	240	1
NMTAP	82	288	4
NMTAP	82	336	3
NMSTR	83	0	7
NMSI_	83	0	7	96	48	3
NMTAP	83	48	1
NMTAP	83	96	7
NMTAP	83	144	0
NMSTR	83	192	4
NMSI_	83	192	4	96	48	1
NMSI_	83	192	4	96	48	7
BRTAP	83	288	4
EXSTR	84	0	2
NMSI_	84	0	2	96	48	7
NMTAP	84	48	6
NMTAP	84	96	2
NMTAP	84	144	3
NMSTR	84	192	0
NMSI_	84	192	0	96	48	4
NMTAP	84	240	5
NMTAP	84	288	0
NMTAP	84	336	7
NMSTR	85	0	3
NMSI_	85	0	3	96	48	7
NMTAP	85	48	5
NMTAP	85	96	3
NMTAP	85	144	4
NMTAP	85	192	0
NMTAP	85	240	5
NMTAP	85	288	2
NMTAP	85	288	6
NMTAP	86	0	0
BRSTR	86	0	7
NMSI_	86	0	7	96	48	3
NMTAP	86	48	6
NMTAP	86	96	5
NMTAP	86	96	7
BRSTR	86	192	4
NMSI_	86	192	4	96	48	0
NMTAP	86	240	5
NMTAP	86	288	4
NMTAP	86	288	6
BRTAP	87	0	1
NMSTR	87	0	7
NMSI_	87	0	7	96	48	3
NMTAP	87	48	6
NMSTR	87	96	1
NMSI_	87	96	1	96	48	5
BRTAP	87	96	7
NMTAP	87	144	2
BRTAP	87	192	1
NMSTR	87	192	4
NMSI_	87	192	4	96	48	0
NMTAP	87	240	6
BRTAP	87	288	4
NMTAP	87	288	7
EXHLD	88	0	1	48
EXHLD	88	0	3	48
NMHLD	88	96	0	48
NMHLD	88	96	7	48
EXHLD	88	192	4	48
EXHLD	88	192	6	48
NMTAP	88	288	2
NMTAP	88	288	3
BRSTR	88	336	0
NMSSL	88	336	0	96	336	4
BRSTR	88	336	1
NMSCR	88	336	1	96	336	6
CNSSL	90	0	4	0	384	0
CNSCL	90	0	6	0	384	1

T_REC_TAP	375
T_REC_BRK	23
T_REC_XTP	17
T_REC_BXX	2
T_REC_HLD	22
T_REC_XHO	7
T_REC_BHO	22
T_REC_BXH	0
T_REC_STR	106
T_REC_BST	10
T_REC_XST	22
T_REC_XBS	2
T_REC_TTP	21
T_REC_THO	0
T_REC_SLD	141
T_REC_BSL	7
T_REC_ALL	777
T_NUM_TAP	541
T_NUM_BRK	66
T_NUM_HLD	29
T_NUM_SLD	141
T_NUM_ALL	777
T_JUDGE_TAP	578
T_JUDGE_HLD	79
T_JUDGE_SLD	148
T_JUDGE_ALL	805
TTM_EACHPAIRS	104
TTM_SCR_TAP	270500
TTM_SCR_BRK	171600
TTM_SCR_HLD	29000
TTM_SCR_SLD	211500
TTM_SCR_ALL	682600
TTM_SCR_S	655750
TTM_SCR_SS	676000
TTM_RAT_ACV	10097

