VERSION	0.00.00	1.04.00
FES_MODE	0
BPM_DEF	168.000	168.000	195.000	168.000
MET_DEF	4	4
RESOLUTION	384
CLK_DEF	384
COMPATIBLE_CODE	MA2

BPM	0	0	168.000
BPM	74	0	174.000
BPM	78	0	180.000
BPM	80	0	183.000
BPM	84	0	184.001
BPM	85	0	190.000
BPM	88	0	193.001
BPM	88	192	195.000
MET	0	0	4	4

NMHLD	2	0	2	192
NMHLD	2	192	3	192
NMHLD	3	0	1	192
NMTAP	3	192	3
NMHLD	4	0	5	192
NMHLD	4	192	4	192
NMHLD	5	0	6	192
NMTAP	5	192	4
NMTAP	6	0	1
NMHLD	6	96	1	480
NMTAP	6	192	3
NMTAP	6	288	3
NMTAP	7	0	2
NMTAP	7	96	2
NMTAP	7	192	3
NMTAP	7	288	2
NMTAP	7	288	4
NMTAP	8	0	5
NMHLD	8	96	5	384
NMTAP	8	192	3
NMTAP	8	288	3
NMTAP	9	0	4
NMTAP	9	96	4
BXTAP	9	192	2
BXTAP	9	192	6
NMTAP	10	0	1
NMTAP	10	96	0
NMTAP	10	96	1
NMTAP	10	192	2
NMTAP	10	288	2
NMTAP	10	288	3
NMTAP	11	0	5
NMTAP	11	96	4
NMTAP	11	96	5
NMTAP	11	192	6
NMTAP	11	288	6
NMTAP	11	288	7
NMTAP	12	0	6
NMTAP	12	0	7
NMTAP	12	96	5
NMTAP	12	192	3
NMTAP	12	192	4
NMTAP	12	288	2
NMTAP	13	0	0
NMSTR	13	0	1
NMSCR	13	0	1	96	144	6
NMTAP	14	0	6
NMTAP	14	96	6
NMTAP	14	96	7
NMTAP	14	192	5
NMTAP	14	288	4
NMTAP	14	288	5
NMTAP	15	0	2
NMTAP	15	96	2
NMTAP	15	96	3
NMTAP	15	192	1
NMTAP	15	288	0
NMTAP	15	288	1
EXTAP	16	0	0
EXTAP	16	0	1
NMTAP	16	96	2
NMTAP	16	192	3
NMTAP	16	192	4
NMTAP	16	288	5
NMSTR	17	0	6
NMSCL	17	0	6	96	96	3
NMSTR	17	0	7
NMSCR	17	0	7	96	96	2
EXSTR	18	0	1
NMSCL	18	0	1	96	192	6
EXTAP	18	0	3
CNSI_	18	288	6	0	144	2
CNSI_	19	48	2	0	144	5
NMSTR	20	0	4
NMSCR	20	0	4	96	360	2
NMHLD	20	0	6	576
CNSV_	21	72	2	0	120	3
NMTAP	22	0	2
NMSTR	22	0	4
NMSI_	22	0	4	96	144	1
CNSCL	22	240	1	0	192	6
CNSI_	23	48	6	0	144	3
NMHLD	24	0	2	288
NMSTR	24	0	3
NMSXL	24	0	3	96	192	4
NMTAP	25	0	2
NMTAP	25	0	3
NMTAP	25	96	3
NMTAP	25	96	4
EXTAP	25	192	2
EXTAP	25	192	5
NMSTR	26	0	2
NMSXR	26	0	2	96	288	2
NMTAP	26	0	4
NMTAP	27	192	3
NMTAP	27	288	4
NMHLD	28	0	3	384
NMSTR	28	0	5
BRSXL	28	0	5	96	288	5
NMTAP	29	192	3
NMTAP	29	192	5
NMTAP	29	288	2
NMTAP	30	0	1
NMTAP	30	0	3
NMTAP	30	96	2
NMTAP	30	192	3
NMTAP	30	192	4
NMTAP	30	288	5
NMTAP	31	0	4
NMTAP	31	0	6
NMTAP	31	96	4
NMTAP	31	96	6
NMTAP	31	192	0
NMTAP	31	192	7
NMTAP	31	288	0
NMTAP	31	288	7
NMTAP	32	0	1
NMTAP	32	48	1
NMTAP	32	96	0
NMTAP	32	192	6
NMTAP	32	240	6
NMTAP	32	288	7
NMHLD	33	0	0	288
NMHLD	33	0	7	288
NMTTP	34	0	7	B	1	M1
NMTTP	34	96	1	B	1	M1
NMTTP	34	192	3	B	1	M1
NMTTP	34	288	5	B	1	M1
NMTAP	35	0	1
NMTAP	35	0	7
NMTAP	35	96	2
NMTAP	35	192	0
NMTAP	35	192	6
NMTAP	35	288	5
NMTAP	36	0	0
NMTAP	36	0	1
NMTAP	36	96	2
NMTAP	36	144	2
NMTAP	36	192	3
NMTAP	36	288	4
NMTAP	36	288	5
NMTAP	37	0	6
NMTAP	37	48	6
NMTAP	37	96	0
NMTAP	37	144	0
NMTAP	37	192	7
NMTAP	37	240	7
NMSTR	37	288	1
NMSCL	37	288	1	96	240	3
NMSUL	37	288	1	96	240	3
NMTAP	39	0	2
NMTAP	39	0	4
NMTAP	39	96	0
NMTAP	39	192	3
NMTAP	39	192	5
NMTAP	39	288	7
NMHLD	40	0	6	96
NMHLD	40	96	4	96
NMTAP	40	192	3
NMTAP	40	288	1
NMTAP	40	288	3
NMTAP	41	0	2
NMTAP	41	48	2
NMTAP	41	96	4
NMTAP	41	144	4
NMTAP	41	192	3
NMTAP	41	240	3
NMTAP	41	288	5
EXHLD	42	0	4	96
EXHLD	42	0	6	96
BRTAP	42	192	1
BRTAP	42	192	7
BRTAP	42	288	0
BRTAP	42	288	6
NMTAP	43	0	4
NMTAP	43	0	5
NMTAP	43	96	1
NMTAP	43	96	7
NMTAP	43	192	2
NMTAP	43	192	3
NMTAP	43	288	0
NMTAP	43	288	6
NMTAP	44	0	1
NMTAP	44	0	7
NMTAP	44	96	5
NMTAP	44	144	5
NMTAP	44	192	4
NMTAP	44	288	3
NMTAP	44	288	6
NMTAP	45	0	2
NMTAP	45	48	2
NMTAP	45	96	4
NMTAP	45	144	4
NMTAP	45	192	3
NMTAP	45	240	3
NMSTR	45	288	5
NMSCL	45	288	5	96	192	0
NMSUL	45	288	5	96	192	0
NMTAP	47	0	6
NMTAP	47	0	7
NMTAP	47	96	2
NMTAP	47	96	4
NMTAP	47	192	0
NMTAP	47	192	1
NMTAP	47	288	3
NMTAP	47	288	5
NMTAP	48	0	1
NMTAP	48	0	4
NMTAP	48	96	2
NMTAP	48	96	3
NMTAP	48	192	3
NMTAP	48	192	6
NMTAP	48	288	4
NMTAP	48	288	5
NMTAP	49	0	5
NMTAP	49	48	5
NMTAP	49	96	3
NMTAP	49	144	3
NMTAP	49	192	4
NMTAP	49	240	4
NMTAP	49	288	2
NMTAP	49	288	4
NMTHO	50	0	0	192	C	1	M1
NMHLD	51	0	1	352
NMTTP	51	288	3	E	0	M1
NMTTP	51	352	4	E	0	M1
NMTTP	52	32	5	E	0	M1
EXHLD	52	96	6	352
NMTTP	53	0	6	E	0	M1
NMTTP	53	64	5	E	0	M1
NMTTP	53	128	4	E	0	M1
EXHLD	53	192	2	352
NMTTP	54	96	3	E	0	M1
NMTTP	54	160	2	E	0	M1
NMTTP	54	224	1	E	0	M1
EXHLD	54	288	7	288
EXTAP	55	192	0
EXTAP	55	256	0
EXTAP	55	320	1
EXTAP	56	0	0
EXTAP	56	0	1
NMTAP	56	96	4
NMTAP	56	192	6
NMTAP	56	192	7
NMTAP	56	288	3
NMTAP	57	0	0
NMTAP	57	0	1
NMTAP	57	96	4
NMTAP	57	192	6
NMTAP	57	192	7
NMTAP	57	288	3
NMTAP	58	0	0
NMTAP	58	96	1
NMTAP	58	96	3
NMTAP	58	192	2
NMTAP	58	192	4
NMTAP	58	288	3
NMTAP	58	288	5
NMTAP	59	0	4
NMTAP	59	0	6
NMTAP	59	96	4
NMTAP	59	96	6
EXTAP	59	192	3
EXTAP	59	192	7
EXTAP	60	0	6
EXTAP	60	0	7
NMTAP	60	96	3
NMTAP	60	192	0
NMTAP	60	192	1
NMTAP	60	288	4
NMTAP	61	0	6
NMTAP	61	0	7
NMTAP	61	96	3
NMTAP	61	192	0
NMTAP	61	192	1
NMTAP	61	288	4
NMTAP	62	0	7
NMTAP	62	96	4
NMTAP	62	96	6
NMTAP	62	192	3
NMTAP	62	192	5
NMTAP	62	288	2
NMTAP	62	288	4
NMSTR	63	0	1
NMSCL	63	0	1	96	192	3
NMTAP	63	0	3
EXTAP	64	0	2
EXTAP	64	0	3
NMTAP	64	96	0
NMTAP	64	96	1
NMTAP	64	192	6
NMTAP	64	192	7
NMTAP	64	288	3
NMTAP	64	288	5
NMTAP	64	336	3
NMTAP	64	336	5
NMTAP	65	48	2
NMTAP	65	48	4
NMTAP	65	96	2
NMTAP	65	96	4
NMTAP	65	192	0
NMTAP	65	192	6
NMTAP	65	288	1
NMHLD	65	336	1	144
NMTAP	66	48	4
NMTAP	66	96	4
NMTAP	66	192	2
NMTAP	66	240	2
NMTAP	66	288	4
NMTAP	66	336	4
NMHLD	67	0	3	192
NMTAP	67	96	5
NMTAP	67	144	5
NMTAP	67	192	5
NMTAP	67	288	2
NMTAP	67	288	6
EXTAP	68	0	4
EXTAP	68	0	5
NMTAP	68	96	6
NMTAP	68	96	7
NMTAP	68	192	0
NMTAP	68	192	1
NMTAP	68	288	2
NMTAP	68	288	4
NMTAP	68	336	2
NMTAP	68	336	4
NMTAP	69	48	3
NMTAP	69	48	5
NMTAP	69	96	3
NMTAP	69	96	5
NMTAP	69	192	1
NMTAP	69	192	7
NMTAP	69	288	6
NMHLD	69	336	6	144
NMTAP	70	48	3
NMTAP	70	96	3
NMTAP	70	192	5
NMTAP	70	240	5
NMTAP	70	288	3
NMTAP	70	336	3
NMTAP	71	0	4
NMTAP	71	96	2
NMTAP	71	96	3
BRTAP	71	192	1
BRTAP	71	192	4
NMTAP	72	0	0
NMSTR	72	0	6
NMSI_	72	0	6	96	48	3
NMSTR	72	192	1
NMSI_	72	192	1	96	48	4
NMTAP	72	192	7
NMTAP	73	0	0
NMSTR	73	0	6
NMSI_	73	0	6	96	48	3
NMSTR	73	192	1
NMSI_	73	192	1	96	48	4
NMTAP	73	192	7
NMTAP	74	0	6
NMTAP	74	0	7
NMTAP	74	96	4
NMTAP	74	96	5
NMTAP	74	192	2
NMTAP	74	192	3
NMTAP	74	288	0
NMTAP	74	288	1
NMTAP	75	0	6
NMTAP	75	0	7
NMTAP	75	96	4
NMTAP	75	96	5
NMTAP	75	192	2
NMTAP	75	192	3
NMTAP	75	288	0
NMTAP	75	288	1
NMSTR	76	0	0
NMSI_	76	0	0	96	48	4
NMSTR	76	0	1
NMSI_	76	0	1	96	48	4
NMSTR	76	192	6
NMSI_	76	192	6	96	48	3
NMSTR	76	192	7
NMSI_	76	192	7	96	48	3
NMSTR	77	0	0
NMSI_	77	0	0	96	48	4
NMSTR	77	0	1
NMSI_	77	0	1	96	48	4
NMSTR	77	192	6
NMSI_	77	192	6	96	48	3
NMSTR	77	192	7
NMSI_	77	192	7	96	48	3
NMTAP	78	0	0
NMTAP	78	0	1
NMTAP	78	96	2
NMTAP	78	96	3
NMTAP	78	192	4
NMTAP	78	192	5
NMTAP	78	288	6
NMTAP	78	288	7
NMTAP	79	0	6
NMTAP	79	0	7
NMTAP	79	96	0
NMTAP	79	96	5
BRTAP	79	192	1
BRTAP	79	192	4
EXTAP	80	0	0
EXTAP	80	0	1
NMTAP	80	96	0
NMTAP	80	96	7
NMTAP	80	192	6
NMTAP	80	192	7
NMTAP	80	288	0
NMTAP	80	288	5
NMTAP	80	336	0
NMTAP	80	336	5
NMTAP	81	48	2
NMTAP	81	48	7
NMTAP	81	96	2
NMTAP	81	96	7
NMTAP	81	192	3
NMTAP	81	192	4
NMTAP	81	288	1
NMHLD	81	336	1	144
NMTAP	82	48	0
NMTAP	82	96	0
NMTAP	82	192	2
NMTAP	82	240	2
NMTAP	82	288	4
NMTAP	82	336	4
NMHLD	83	0	3	192
NMTAP	83	96	6
NMTAP	83	144	6
NMTAP	83	192	6
NMTAP	83	288	4
NMTAP	83	288	5
EXTAP	84	0	6
EXTAP	84	0	7
NMTAP	84	96	0
NMTAP	84	96	7
NMTAP	84	192	0
NMTAP	84	192	1
NMTAP	84	288	2
NMTAP	84	288	7
NMTAP	84	336	2
NMTAP	84	336	7
NMTAP	85	48	0
NMTAP	85	48	5
NMTAP	85	96	0
NMTAP	85	96	5
NMTAP	85	192	3
NMTAP	85	192	4
NMTAP	85	288	1
NMTAP	85	288	3
NMTAP	86	0	2
NMTAP	86	0	4
NMTAP	86	96	3
NMTAP	86	96	5
NMTAP	86	192	4
NMTAP	86	192	6
NMTAP	86	288	0
NMTAP	86	288	7
NMTAP	87	0	3
BXTAP	87	0	5
NMTAP	87	96	1
BXTAP	87	96	7
NMTAP	87	192	2
BXTAP	87	192	6
EXTAP	87	288	0
BXTAP	87	288	4
NMTAP	88	0	1
NMTAP	88	0	3
NMTAP	88	96	0
NMTAP	88	96	7
NMTAP	88	192	4
NMTAP	88	192	6
NMTAP	88	288	0
NMTAP	88	288	7
BRSTR	88	336	0
NMSLL	88	336	0	96	720	3
BRSTR	88	336	7
NMSLR	88	336	7	96	720	4

T_REC_TAP	343
T_REC_BRK	8
T_REC_XTP	23
T_REC_BXX	6
T_REC_HLD	21
T_REC_XHO	5
T_REC_BHO	0
T_REC_BXH	0
T_REC_STR	23
T_REC_BST	2
T_REC_XST	1
T_REC_XBS	0
T_REC_TTP	13
T_REC_THO	1
T_REC_SLD	27
T_REC_BSL	1
T_REC_ALL	474
T_NUM_TAP	403
T_NUM_BRK	17
T_NUM_HLD	27
T_NUM_SLD	27
T_NUM_ALL	474
T_JUDGE_TAP	419
T_JUDGE_HLD	139
T_JUDGE_SLD	28
T_JUDGE_ALL	586
TTM_EACHPAIRS	149
TTM_SCR_TAP	201500
TTM_SCR_BRK	44200
TTM_SCR_HLD	27000
TTM_SCR_SLD	40500
TTM_SCR_ALL	313200
TTM_SCR_S	302200
TTM_SCR_SS	311500
TTM_RAT_ACV	10054

