VERSION	0.00.00	1.04.00
FES_MODE	0
BPM_DEF	180.000	180.000	180.000	180.000
MET_DEF	4	4
RESOLUTION	384
CLK_DEF	384
COMPATIBLE_CODE	MA2

BPM	0	0	180.000
MET	0	0	4	4

NMSTR	1	0	0
NMSCR	1	0	0	96	384	7
NMTAP	2	288	7
NMSTR	3	0	0
NMSCR	3	0	0	96	384	7
NMTAP	4	288	7
NMSTR	5	0	0
NMSXL	5	0	0	96	288	3
NMTAP	5	288	6
NMSTR	6	0	7
NMSXR	6	0	7	96	288	4
NMTAP	6	288	1
NMSTR	7	0	0
NMSCR	7	0	0	96	96	3
NMTAP	7	96	6
NMSTR	7	192	7
NMSCL	7	192	7	96	96	4
NMTAP	7	288	1
NMSTR	8	0	0
NMSI_	8	0	0	96	48	4
NMSTR	8	96	6
NMSI_	8	96	6	96	48	2
NMSTR	8	192	1
NMSI_	8	192	1	96	48	5
BRTAP	8	288	7
NMTAP	9	0	6
NMTAP	9	48	6
NMSTR	9	96	4
NMSCL	9	96	4	96	96	0
NMSTR	9	192	0
NMSCL	9	192	0	96	96	4
NMSTR	9	288	4
NMSCL	9	288	4	96	96	0
NMSTR	10	0	0
NMSCL	10	0	0	96	96	4
NMTAP	10	96	4
NMTAP	10	192	0
NMTAP	10	240	0
NMTAP	10	288	2
NMTAP	10	288	6
NMTAP	11	0	1
NMTAP	11	48	1
NMSTR	11	96	3
NMSCR	11	96	3	96	96	7
NMSTR	11	192	7
NMSCR	11	192	7	96	96	3
NMSTR	11	288	3
NMSCR	11	288	3	96	96	7
NMSTR	12	0	7
NMSCR	12	0	7	96	96	3
NMTAP	12	96	3
NMTAP	12	192	7
NMTAP	12	240	7
NMTAP	12	288	1
NMTAP	12	288	5
NMSTR	13	0	0
NMSCR	13	0	0	96	96	4
NMSTR	13	96	4
NMSCR	13	96	4	96	96	0
NMTAP	13	192	0
NMTAP	13	288	4
NMSTR	14	0	7
NMSCL	14	0	7	96	96	3
NMSTR	14	96	3
NMSCL	14	96	3	96	96	7
NMTAP	14	192	7
NMTAP	14	288	3
NMSTR	15	0	0
NMSV_	15	0	0	96	48	3
NMSV_	15	0	0	96	48	5
NMTAP	15	96	0
NMSTR	15	192	7
NMSI_	15	192	7	96	48	2
NMSI_	15	192	7	96	48	4
NMTAP	15	288	7
NMSTR	16	0	0
NMSCL	16	0	0	96	48	5
NMSCR	16	0	0	96	48	3
NMTAP	16	96	0
NMTAP	16	192	7
NMTAP	16	240	0
NMTAP	16	240	6
BRTAP	16	288	1
BRTAP	16	288	5
NMTAP	17	0	7
NMTAP	17	48	7
NMTAP	17	96	2
NMTAP	17	120	3
NMTAP	17	144	1
NMTAP	17	192	0
NMTAP	17	240	0
NMTAP	17	288	5
NMTAP	17	312	4
NMTAP	17	336	6
NMTAP	18	0	7
NMTAP	18	48	7
NMTAP	18	96	2
NMTAP	18	120	3
NMTAP	18	144	1
NMSTR	18	192	0
NMSI_	18	192	0	96	48	4
NMSTR	18	240	7
NMSI_	18	240	7	96	48	3
NMTAP	18	288	0
NMTAP	18	336	7
NMTAP	19	0	0
NMTAP	19	48	0
NMTAP	19	96	5
NMTAP	19	120	4
NMTAP	19	144	6
NMTAP	19	192	7
NMTAP	19	240	7
NMTAP	19	288	2
NMTAP	19	312	3
NMTAP	19	336	1
NMTAP	20	0	0
NMTAP	20	48	0
NMTAP	20	96	5
NMTAP	20	120	4
NMTAP	20	144	6
NMSTR	20	192	7
NMSI_	20	192	7	96	48	3
NMSTR	20	240	1
NMSI_	20	240	1	96	48	5
NMTAP	20	288	7
NMTAP	20	336	1
NMTAP	21	0	7
NMTAP	21	48	7
NMTAP	21	96	3
NMTAP	21	120	4
NMTAP	21	144	2
NMTAP	21	192	0
NMTAP	21	240	0
NMTAP	21	288	4
NMTAP	21	312	3
NMTAP	21	336	5
NMTAP	22	0	7
NMTAP	22	48	7
NMTAP	22	96	2
NMTAP	22	120	3
NMTAP	22	144	1
NMSTR	22	192	0
NMSI_	22	192	0	96	48	4
NMSTR	22	240	6
NMSI_	22	240	6	96	48	2
NMTAP	22	288	0
NMTAP	22	336	6
NMSTR	23	0	0
NMSF_	23	0	0	96	48	4
EXTAP	23	96	0
NMSTR	23	192	7
NMSF_	23	192	7	96	48	3
EXTAP	23	288	7
NMSTR	24	0	0
NMSI_	24	0	0	96	48	2
NMSI_	24	0	0	96	48	6
NMSTR	24	96	0
BRSF_	24	96	0	96	48	4
EXTAP	24	192	0
BXTAP	24	288	2
BXTAP	24	288	6
NMTAP	25	0	0
NMTAP	25	48	2
NMTAP	25	96	5
NMTAP	25	120	4
NMTAP	25	144	6
NMTAP	25	192	7
NMTAP	25	240	5
NMTAP	25	288	2
NMTAP	25	312	3
NMTAP	25	336	1
NMTAP	26	0	0
NMTAP	26	48	2
NMTAP	26	96	5
NMTAP	26	120	4
NMTAP	26	144	6
NMSTR	26	192	7
NMSCL	26	192	7	96	48	4
NMSTR	26	240	0
NMSCR	26	240	0	96	48	3
NMTAP	26	288	7
NMTAP	26	336	0
NMTAP	27	0	7
NMTAP	27	48	5
NMTAP	27	96	2
NMTAP	27	120	3
NMTAP	27	144	1
NMTAP	27	192	0
NMTAP	27	240	2
NMTAP	27	288	5
NMTAP	27	312	4
NMTAP	27	336	6
NMTAP	28	0	7
NMTAP	28	48	5
NMTAP	28	96	2
NMTAP	28	120	3
NMTAP	28	144	1
NMSTR	28	192	0
NMSI_	28	192	0	96	48	4
NMSTR	28	240	6
NMSCL	28	240	6	96	48	3
NMTAP	28	288	0
NMTAP	28	336	6
NMTAP	29	0	0
NMTAP	29	48	2
NMTAP	29	96	5
NMTAP	29	120	4
NMTAP	29	144	6
NMTAP	29	192	7
NMTAP	29	240	5
NMTAP	29	288	2
NMTAP	29	312	3
NMTAP	29	336	1
NMTAP	30	0	0
NMTAP	30	48	2
NMTAP	30	96	5
NMTAP	30	120	4
NMTAP	30	144	6
NMSTR	30	192	7
NMSI_	30	192	7	96	48	3
NMSTR	30	240	1
NMSCR	30	240	1	96	48	4
NMTAP	30	288	7
NMTAP	30	336	1
NMSTR	31	0	7
NMSF_	31	0	7	96	48	3
EXTAP	31	96	7
NMSTR	31	192	0
NMSF_	31	192	0	96	48	4
EXTAP	31	288	0
NMSTR	32	0	7
NMSI_	32	0	7	96	48	1
NMSI_	32	0	7	96	48	5
NMSTR	32	96	7
BRSF_	32	96	7	96	48	3
EXTAP	32	192	7
BXTAP	32	288	1
BXTAP	32	288	5
NMTAP	33	0	6
NMTAP	33	48	6
NMTTP	33	96	6	E	0	M1
NMTTP	33	120	5	E	0	M1
NMTTP	33	144	4	E	0	M1
NMTAP	33	192	1
NMTAP	33	240	1
NMTTP	33	288	2	E	0	M1
NMTTP	33	312	3	E	0	M1
NMTTP	33	336	4	E	0	M1
NMTAP	34	0	6
NMTAP	34	48	6
EXSTR	34	96	7
NMSI_	34	96	7	96	48	4
NMSI_	34	96	7	96	48	5
EXSTR	34	192	7
NMSI_	34	192	7	96	48	2
NMSI_	34	192	7	96	48	3
EXTAP	34	288	7
EXTAP	35	0	1
EXTAP	35	48	1
NMTTP	35	96	2	E	0	M1
NMTTP	35	120	3	E	0	M1
NMTTP	35	144	4	E	0	M1
NMTAP	35	192	6
NMTAP	35	240	6
NMTTP	35	288	6	E	0	M1
NMTTP	35	312	5	E	0	M1
NMTTP	35	336	4	E	0	M1
NMTAP	36	0	1
NMTAP	36	48	1
EXSTR	36	96	0
NMSI_	36	96	0	96	48	2
NMSI_	36	96	0	96	48	3
EXSTR	36	192	0
NMSI_	36	192	0	96	48	4
NMSI_	36	192	0	96	48	5
EXTAP	36	288	0
NMTAP	37	0	6
NMHLD	37	48	6	48
NMTAP	37	96	4
NMHLD	37	144	4	48
NMTAP	37	192	2
NMHLD	37	240	2	48
NMTAP	37	288	0
NMSTR	38	0	7
NMSI_	38	0	7	96	48	3
NMSTR	38	48	3
NMSI_	38	48	3	96	48	7
NMSTR	38	192	0
NMSI_	38	192	0	96	48	4
NMSTR	38	240	4
NMSI_	38	240	4	96	48	0
NMSTR	39	0	5
NMSI_	39	0	5	96	48	7
NMTAP	39	48	5
NMTAP	39	96	4
NMSTR	39	192	2
NMSI_	39	192	2	96	48	0
NMTAP	39	240	2
NMTAP	39	288	3
NMSTR	40	0	6
NMSI_	40	0	6	96	48	2
NMSTR	40	96	0
NMSI_	40	96	0	96	48	4
EXTAP	40	96	6
EXTAP	40	192	0
NMSTR	40	192	7
NMSI_	40	192	7	96	48	3
BRTAP	40	288	1
EXTAP	40	288	7
NMTAP	41	0	0
NMHLD	41	48	0	144
NMTTP	41	96	2	E	0	M1
NMTTP	41	120	3	E	0	M1
NMTTP	41	144	4	E	0	M1
NMTAP	41	192	7
NMHLD	41	240	7	144
NMTTP	41	288	6	E	0	M1
NMTTP	41	312	5	E	0	M1
NMTTP	41	336	4	E	0	M1
NMTAP	42	0	2
NMTAP	42	48	2
NMSTR	42	96	1
NMSI_	42	96	1	96	48	7
NMSTR	42	96	5
NMSI_	42	96	5	96	48	7
NMSTR	42	192	1
NMSI_	42	192	1	96	48	3
NMSTR	42	192	5
NMSI_	42	192	5	96	48	3
NMTAP	42	288	1
NMTAP	42	288	5
NMTAP	43	0	7
NMHLD	43	48	7	144
NMTTP	43	96	6	E	0	M1
NMTTP	43	120	5	E	0	M1
NMTTP	43	144	4	E	0	M1
NMTAP	43	192	0
NMHLD	43	240	0	144
NMTTP	43	288	2	E	0	M1
NMTTP	43	312	3	E	0	M1
NMTTP	43	336	4	E	0	M1
NMTAP	44	0	5
NMTAP	44	48	5
NMSTR	44	96	2
NMSI_	44	96	2	96	48	0
NMSTR	44	96	6
NMSI_	44	96	6	96	48	0
NMSTR	44	192	2
NMSI_	44	192	2	96	48	4
NMSTR	44	192	6
NMSI_	44	192	6	96	48	4
NMTAP	44	288	2
NMTAP	44	288	6
NMTAP	45	0	1
NMHLD	45	48	1	48
NMTAP	45	96	3
NMHLD	45	144	3	48
NMTAP	45	192	5
NMHLD	45	240	5	48
NMTAP	45	288	7
NMSTR	46	0	0
NMSI_	46	0	0	96	48	4
NMSTR	46	48	4
NMSI_	46	48	4	96	48	0
NMSTR	46	192	7
NMSI_	46	192	7	96	48	3
NMSTR	46	240	3
NMSI_	46	240	3	96	48	7
NMSTR	47	0	2
NMSI_	47	0	2	96	48	0
NMTAP	47	48	2
NMTAP	47	96	3
NMSTR	47	192	5
NMSI_	47	192	5	96	48	7
NMTAP	47	240	5
NMTAP	47	288	4
NMSTR	48	0	2
NMSI_	48	0	2	96	48	7
EXTAP	48	96	2
NMSTR	48	96	6
NMSI_	48	96	6	96	48	2
NMTAP	48	192	3
EXTAP	48	192	6
BRTAP	48	288	0
BRTAP	48	288	7
NMHLD	49	0	1	96
NMHLD	49	96	3	96
NMHLD	49	192	5	96
NMTAP	49	288	7
NMTAP	49	336	7
NMSTR	50	96	2
NMSI_	50	96	2	96	48	4
NMSTR	50	96	6
NMSI_	50	96	6	96	48	0
NMTAP	50	192	2
NMTAP	50	192	6
NMTAP	50	288	3
NMTAP	50	288	7
NMHLD	51	0	6	96
NMHLD	51	96	4	96
NMHLD	51	192	2	96
NMTAP	51	288	0
NMTAP	51	336	0
NMSTR	52	96	1
NMSI_	52	96	1	96	48	7
NMSTR	52	96	5
NMSI_	52	96	5	96	48	3
NMTAP	52	192	1
NMTAP	52	192	5
NMTAP	52	288	0
NMTAP	52	288	4
NMHLD	53	0	5	96
NMHLD	53	96	7	96
NMHLD	53	192	1	96
NMTAP	53	288	3
NMTAP	53	336	3
NMSTR	54	96	2
NMSI_	54	96	2	96	48	7
NMSTR	54	96	6
NMSI_	54	96	6	96	48	3
NMTAP	54	192	2
NMTAP	54	192	6
NMTAP	54	288	1
NMTAP	54	288	5
NMHLD	55	0	2	96
NMHLD	55	96	0	96
NMHLD	55	192	6	96
NMTAP	55	288	4
NMTAP	55	336	4
NMSTR	56	96	1
NMSCR	56	96	1	96	48	4
NMSTR	56	96	5
NMSCR	56	96	5	96	48	0
NMTAP	56	192	1
NMTAP	56	192	5
NMTAP	56	288	2
NMTAP	56	288	6
NMHLD	57	0	5	96
NMTAP	57	48	4
NMHLD	57	96	3	96
NMTAP	57	144	4
NMHLD	57	192	6	96
NMTAP	57	240	4
NMTAP	57	288	3
NMTAP	57	336	2
NMSTR	58	0	0
NMSI_	58	0	0	96	48	3
NMTAP	58	0	1
NMTAP	58	96	0
NMSTR	58	96	7
NMSI_	58	96	7	96	48	4
NMSTR	58	192	6
NMSCR	58	192	6	96	48	1
NMTAP	58	192	7
NMTAP	58	288	3
NMTAP	58	288	6
NMHLD	59	0	2	96
NMTAP	59	48	3
NMHLD	59	96	4	96
NMTAP	59	144	3
NMHLD	59	192	1	96
NMTAP	59	240	3
NMTAP	59	288	4
NMTAP	59	336	5
NMTAP	60	0	6
NMSTR	60	0	7
NMSI_	60	0	7	96	48	4
NMSTR	60	96	0
NMSI_	60	96	0	96	48	3
NMTAP	60	96	7
NMTAP	60	192	0
NMTAP	60	192	1
NMTAP	60	288	1
NMTAP	60	288	4
NMTAP	61	0	0
NMSTR	61	0	7
NMSI_	61	0	7	96	48	4
NMTAP	61	96	1
NMSTR	61	96	7
NMSI_	61	96	7	96	48	2
NMTAP	61	192	5
NMSTR	61	192	7
NMSI_	61	192	7	96	48	3
NMTAP	61	288	1
NMTAP	61	288	7
NMSTR	62	0	0
NMSI_	62	0	0	96	48	3
NMTAP	62	0	7
NMSTR	62	96	0
NMSI_	62	96	0	96	48	5
NMTAP	62	96	6
NMSTR	62	192	0
NMSI_	62	192	0	96	48	4
NMTAP	62	192	2
NMTAP	62	288	0
NMTAP	62	288	6
NMSTR	63	0	7
NMSI_	63	0	7	96	48	3
NMSTR	63	96	2
NMSI_	63	96	2	96	48	6
NMSTR	63	192	4
NMSI_	63	192	4	96	48	7
NMTAP	63	288	3
NMTAP	63	336	3
BRTAP	64	96	1
BRTAP	64	96	5
BRTAP	64	144	0
BRTAP	64	144	4
BRTAP	64	192	3
BRTAP	64	192	7
BXTAP	64	288	1
BXTAP	64	288	5
NMTAP	65	0	6
NMTAP	65	0	7
NMTAP	65	48	0
NMTAP	65	96	2
NMTAP	65	120	3
NMTAP	65	144	1
NMTAP	65	192	0
NMTAP	65	192	1
NMTAP	65	240	7
NMTAP	65	288	6
NMTAP	65	312	4
NMTAP	65	336	5
NMTAP	65	360	4
NMTAP	66	0	5
NMTAP	66	48	6
NMSTR	66	96	0
NMSI_	66	96	0	96	48	2
NMSTR	66	144	7
NMSI_	66	144	7	96	48	3
NMSTR	66	192	0
NMSI_	66	192	0	96	48	4
NMSTR	66	240	7
NMSI_	66	240	7	96	48	5
NMTAP	66	288	0
NMTAP	66	336	7
NMTAP	67	0	1
NMTAP	67	48	2
NMTAP	67	48	4
NMTAP	67	96	5
NMTAP	67	120	4
NMTAP	67	144	6
NMTAP	67	192	6
NMTAP	67	192	7
NMTAP	67	240	0
NMTAP	67	288	1
NMTAP	67	312	3
NMTAP	67	336	2
NMTAP	67	360	3
NMTAP	68	0	2
NMTAP	68	48	1
NMSTR	68	96	7
NMSI_	68	96	7	96	48	5
NMSTR	68	144	0
NMSI_	68	144	0	96	48	4
NMSTR	68	192	7
NMSI_	68	192	7	96	48	3
NMSTR	68	240	0
NMSI_	68	240	0	96	48	2
NMTAP	68	288	7
NMTAP	68	336	0
NMTAP	69	0	6
NMTAP	69	48	3
NMTAP	69	48	5
NMTAP	69	96	2
NMTAP	69	120	3
NMTAP	69	144	1
NMTAP	69	192	0
NMTAP	69	192	1
NMTAP	69	240	7
NMTAP	69	288	6
NMTAP	69	312	4
NMTAP	69	336	5
NMTAP	69	360	4
NMTAP	70	0	5
NMTAP	70	48	6
NMSTR	70	96	0
NMSI_	70	96	0	96	48	2
NMSTR	70	144	7
NMSI_	70	144	7	96	48	5
NMSTR	70	192	0
NMSI_	70	192	0	96	48	4
NMSTR	70	240	7
NMSI_	70	240	7	96	48	3
NMTAP	70	288	0
NMTAP	70	336	7
NMSTR	71	0	0
NMSUR	71	0	0	96	48	4
NMSLR	71	0	0	96	48	4
NMSTR	71	192	7
NMSUL	71	192	7	96	48	3
NMSLL	71	192	7	96	48	3
NMSTR	72	0	0
NMSCL	72	0	0	96	48	6
NMSCR	72	0	0	96	48	2
NMSTR	72	96	0
BRSF_	72	96	0	96	48	4
NMTAP	72	192	0
BXTAP	72	288	2
BXTAP	72	288	6
NMTAP	73	0	2
NMTAP	73	0	4
NMTAP	73	48	3
NMTAP	73	48	5
NMTAP	73	96	6
NMTAP	73	120	7
NMTAP	73	144	6
NMTAP	73	192	0
NMTAP	73	192	1
NMTAP	73	240	2
NMTAP	73	240	3
NMTAP	73	288	5
NMTAP	73	312	4
NMTAP	73	336	5
NMTAP	73	360	4
NMTAP	74	0	6
NMTAP	74	48	3
NMTAP	74	48	7
NMSTR	74	96	1
NMSCL	74	96	1	96	48	7
NMSTR	74	144	5
NMSCL	74	144	5	96	48	3
NMSTR	74	192	1
NMSI_	74	192	1	96	48	4
NMSTR	74	240	5
NMSI_	74	240	5	96	48	0
NMTAP	74	288	1
NMTAP	74	336	5
EXTAP	75	0	3
NMTAP	75	48	2
NMTAP	75	48	4
NMTAP	75	96	1
NMTAP	75	120	0
NMTAP	75	144	1
NMTAP	75	192	6
NMTAP	75	192	7
NMTAP	75	240	4
NMTAP	75	240	5
NMTAP	75	288	2
NMTAP	75	312	3
NMTAP	75	336	2
NMTAP	75	360	3
NMTAP	76	0	1
NMTAP	76	48	0
NMTAP	76	48	4
NMSTR	76	96	6
NMSCR	76	96	6	96	48	0
NMSTR	76	144	2
NMSCR	76	144	2	96	48	4
NMSTR	76	192	6
NMSI_	76	192	6	96	48	3
NMSTR	76	240	2
NMSI_	76	240	2	96	48	7
NMTAP	76	288	6
NMTAP	76	336	2
NMTTP	77	0	0	C	1	M1
NMTTP	77	0	3	B	0	M1
NMTTP	77	0	4	B	0	M1
NMTAP	77	144	0
NMTAP	77	168	7
NMTAP	77	192	0
NMSTR	77	240	2
BRSCL	77	240	2	96	48	0
NMSTR	77	240	5
BRSCR	77	240	5	96	48	7
NMTAP	77	288	3
NMTAP	77	288	4
EXTAP	78	48	7
EXTAP	78	96	6
EXTAP	78	144	1
EXTAP	78	144	5
NMTAP	78	192	0
NMTAP	78	216	1
NMTAP	78	240	2
NMTAP	78	264	3
NMTAP	78	288	4
NMTAP	78	312	5
NMTAP	78	336	6
NMTAP	78	360	7
BRTAP	79	0	0
NMTAP	79	48	2
NMTAP	79	48	4
NMTAP	79	96	2
NMTAP	79	96	4
BRTAP	79	192	1
BRTAP	79	192	5
NMTAP	79	240	6
NMSTR	79	288	0
NMSI_	79	288	0	96	48	4
NMSTR	79	288	7
NMSI_	79	288	7	96	48	5
NMSTR	80	0	0
NMSI_	80	0	0	96	48	2
NMSTR	80	0	7
NMSI_	80	0	7	96	48	3
NMSTR	80	96	0
NMSI_	80	96	0	96	48	4
NMSTR	80	96	7
NMSI_	80	96	7	96	48	5
NMSTR	80	192	0
NMSI_	80	192	0	96	48	2
NMSTR	80	192	7
NMSI_	80	192	7	96	48	3
NMSTR	80	288	0
NMSUL	80	288	0	96	384	7
NMTAP	80	288	7
BRTAP	81	0	0
CNSCL	82	0	7	0	192	1

T_REC_TAP	337
T_REC_BRK	16
T_REC_XTP	20
T_REC_BXX	8
T_REC_HLD	28
T_REC_XHO	0
T_REC_BHO	0
T_REC_BXH	0
T_REC_STR	126
T_REC_BST	0
T_REC_XST	4
T_REC_XBS	0
T_REC_TTP	27
T_REC_THO	0
T_REC_SLD	137
T_REC_BSL	5
T_REC_ALL	708
T_NUM_TAP	514
T_NUM_BRK	29
T_NUM_HLD	28
T_NUM_SLD	137
T_NUM_ALL	708
T_JUDGE_TAP	538
T_JUDGE_HLD	54
T_JUDGE_SLD	142
T_JUDGE_ALL	734
TTM_EACHPAIRS	77
TTM_SCR_TAP	257000
TTM_SCR_BRK	75400
TTM_SCR_HLD	28000
TTM_SCR_SLD	205500
TTM_SCR_ALL	565900
TTM_SCR_S	546150
TTM_SCR_SS	563000
TTM_RAT_ACV	10051

