VERSION	0.00.00	1.04.00
FES_MODE	0
BPM_DEF	180.000	180.000	180.000	180.000
MET_DEF	4	4
RESOLUTION	384
CLK_DEF	384
COMPATIBLE_CODE	MA2

BPM	0	0	180.000
MET	0	0	4	4

EXTAP	1	0	2
EXTAP	1	0	3
EXHLD	1	48	2	480
EXHLD	1	48	3	480
EXTAP	2	240	3
EXTAP	2	240	4
EXTAP	2	288	3
EXTAP	2	288	4
EXTAP	3	0	4
EXTAP	3	0	5
EXHLD	3	48	4	480
EXHLD	3	48	5	480
EXTAP	4	240	3
EXTAP	4	240	4
EXTAP	4	288	3
EXTAP	4	288	4
NMTAP	5	0	2
NMTAP	5	0	4
NMHLD	5	48	2	192
NMHLD	5	48	4	192
NMTAP	5	288	2
NMTAP	5	288	4
NMTAP	6	0	3
NMTAP	6	0	5
NMHLD	6	48	3	192
NMHLD	6	48	5	192
NMTAP	6	288	3
NMTAP	6	288	5
NMHLD	7	0	2	96
NMHLD	7	0	3	96
NMHLD	7	192	4	96
NMHLD	7	192	5	96
NMTAP	8	0	3
NMTAP	8	0	4
NMTAP	8	96	2
NMTAP	8	96	5
BXTAP	8	192	1
BXTAP	8	192	6
NMTAP	9	0	1
NMTAP	9	96	0
NMTAP	9	96	1
NMTAP	9	192	6
NMTAP	9	288	6
NMTAP	9	288	7
NMTAP	10	0	5
NMTAP	10	48	5
NMTAP	10	96	4
NMTAP	10	96	5
NMTAP	10	192	2
NMTAP	10	192	3
NMTAP	10	240	2
NMTAP	10	240	3
NMTAP	10	288	2
NMTAP	10	288	3
NMTAP	11	0	6
NMTAP	11	96	6
NMTAP	11	96	7
NMTAP	11	192	1
NMTAP	11	288	0
NMTAP	11	288	1
NMTAP	12	0	2
NMTAP	12	48	2
NMTAP	12	96	2
NMTAP	12	96	3
NMTAP	12	192	4
NMTAP	12	192	5
NMTAP	12	240	4
NMTAP	12	240	5
NMTAP	12	288	4
NMTAP	12	288	5
NMTAP	13	0	2
NMTAP	13	0	3
NMTAP	13	96	2
NMTAP	13	96	3
NMTAP	13	192	1
NMTAP	13	192	4
NMTAP	13	288	3
NMTAP	13	288	4
NMTAP	14	0	4
NMTAP	14	0	5
NMTAP	14	96	4
NMTAP	14	96	5
NMTAP	14	192	3
NMTAP	14	192	6
NMTAP	14	288	3
NMTAP	14	288	4
NMTAP	15	0	1
NMTAP	15	48	1
NMTAP	15	96	0
NMTAP	15	96	1
NMTAP	15	192	6
NMTAP	15	240	6
NMTAP	15	288	6
NMTAP	15	288	7
NMTTP	16	0	1	E	0	M1
NMTTP	16	0	7	E	0	M1
NMTTP	16	96	3	E	0	M1
NMTTP	16	96	5	E	0	M1
NMTTP	16	192	0	C	1	M1
NMTAP	17	0	1
NMTAP	17	48	1
NMTAP	17	96	0
NMTAP	17	192	2
NMTAP	17	192	3
NMTAP	17	288	4
NMTAP	17	288	5
NMTAP	18	0	6
NMTAP	18	48	6
NMTAP	18	96	7
NMTAP	18	192	0
NMSTR	18	192	5
NMSI_	18	192	5	96	48	2
NMTAP	19	0	1
NMTAP	19	48	1
NMTAP	19	96	0
NMTAP	19	192	6
NMTAP	19	192	7
NMTAP	19	288	4
NMTAP	19	288	5
NMTAP	20	0	2
NMTAP	20	48	2
NMTAP	20	96	3
BXTAP	20	192	5
BXTAP	20	240	5
BXTAP	20	288	3
BXTAP	20	336	3
NMTAP	21	0	7
NMTAP	21	48	7
NMTAP	21	96	0
NMTAP	21	192	4
NMTAP	21	192	6
NMTAP	21	288	1
NMTAP	21	288	3
NMTAP	22	0	6
NMTAP	22	48	6
NMTAP	22	96	7
NMSTR	22	192	1
NMSI_	22	192	1	96	48	4
NMTAP	22	192	7
NMTAP	23	0	6
NMTAP	23	48	6
NMTAP	23	96	6
NMTAP	23	96	7
NMTAP	23	192	1
NMTAP	23	240	1
NMTAP	23	288	0
NMTAP	23	288	1
BXTAP	24	0	0
BXTAP	24	0	7
BXTAP	24	96	1
BXTAP	24	96	6
BXTAP	24	192	2
BXTAP	24	192	5
BXTAP	24	288	3
BXTAP	24	288	4
NMTAP	25	0	5
NMTAP	25	48	5
NMTAP	25	96	4
NMTAP	25	192	6
NMTAP	25	192	7
NMTAP	25	288	0
NMTAP	25	288	1
NMTAP	26	0	2
NMTAP	26	48	2
NMTAP	26	96	3
NMSTR	26	192	1
NMSI_	26	192	1	96	48	6
NMTAP	26	192	4
NMTAP	27	0	5
NMTAP	27	48	5
NMTAP	27	96	4
NMTAP	27	192	2
NMTAP	27	192	3
NMTAP	27	288	0
NMTAP	27	288	1
NMTAP	28	0	6
NMTAP	28	48	6
NMTAP	28	96	7
BXTAP	28	192	5
BXTAP	28	240	5
BXTAP	28	288	1
BXTAP	28	336	1
NMTAP	29	0	4
NMTAP	29	48	4
NMTAP	29	96	3
NMTAP	29	192	4
NMTAP	29	192	6
NMTAP	29	288	1
NMTAP	29	288	3
NMTAP	30	0	6
NMTAP	30	48	6
NMTAP	30	96	7
NMTAP	30	192	0
NMSTR	30	192	1
NMSI_	30	192	1	96	48	3
NMTAP	31	0	5
NMTAP	31	48	5
NMTAP	31	96	4
NMTAP	31	96	5
NMTAP	31	192	2
NMTAP	31	240	2
NMTAP	31	288	2
NMTAP	31	288	3
BRSTR	32	0	3
BRSXR	32	0	3	96	192	0
BRSTR	32	0	4
BRSXL	32	0	4	96	192	7
NMHLD	33	0	1	576
NMTAP	33	96	0
NMTAP	33	192	2
NMTAP	33	288	3
NMTAP	34	0	4
NMTAP	34	96	5
NMTAP	34	192	6
NMTAP	34	288	6
NMTAP	34	288	7
NMHLD	35	0	6	576
NMTAP	35	0	7
NMTAP	35	96	7
NMTAP	35	192	5
NMTAP	35	288	4
NMTAP	36	0	3
NMTAP	36	96	2
NMTAP	36	192	1
NMTAP	36	288	0
NMTAP	36	288	1
NMHLD	37	0	2	96
NMHLD	37	96	3	96
NMHLD	37	192	4	96
NMTAP	37	288	5
NMHLD	38	0	6	96
NMHLD	38	96	7	96
NMHLD	38	192	0	96
NMTAP	38	288	1
NMTAP	39	0	2
NMTAP	39	96	1
NMTAP	39	96	3
NMTAP	39	192	5
NMTAP	39	288	4
NMTAP	39	288	6
NMTAP	40	0	3
NMTAP	40	0	4
NMTAP	40	96	3
NMTAP	40	96	4
BRTAP	40	192	0
BRTAP	40	192	7
NMTAP	41	0	0
NMHLD	41	0	7	576
NMTAP	41	96	0
NMTAP	41	192	6
NMTAP	41	288	6
NMTAP	42	0	1
NMTAP	42	96	1
NMTAP	42	192	4
NMTAP	42	288	4
NMTAP	42	288	5
NMHLD	43	0	0	576
NMTAP	43	0	7
NMTAP	43	96	7
NMTAP	43	192	1
NMTAP	43	288	1
NMTAP	44	0	6
NMTAP	44	96	6
NMTAP	44	192	3
NMTAP	44	288	2
NMTAP	44	288	3
NMHLD	45	0	1	96
NMHLD	45	96	3	96
NMTAP	45	192	5
NMTAP	45	288	6
NMTAP	45	288	7
NMHLD	46	0	6	96
NMHLD	46	96	4	96
NMTAP	46	192	2
NMTAP	46	288	0
NMTAP	46	288	1
NMTAP	47	0	6
NMTAP	47	0	7
NMTAP	47	96	0
NMTAP	47	96	5
NMTAP	47	192	0
NMTAP	47	192	1
NMTAP	47	288	2
NMTAP	47	288	7
NMTTP	48	0	3	B	0	M1
NMTTP	48	0	3	E	0	M1
NMTTP	48	0	4	B	0	M1
NMTTP	48	0	5	E	0	M1
NMTTP	48	96	0	B	0	M1
NMTTP	48	96	1	E	0	M1
NMTTP	48	96	7	B	0	M1
NMTTP	48	96	7	E	0	M1
NMTTP	48	192	0	C	1	M1
NMTTP	48	192	2	E	0	M1
NMTTP	48	192	6	E	0	M1
NMHLD	49	0	0	96
NMTAP	49	0	7
NMHLD	49	96	1	96
NMHLD	49	192	2	96
NMTAP	49	288	3
NMSTR	49	336	3
NMSCR	49	336	3	96	96	6
NMTAP	50	192	7
NMTAP	50	288	6
NMTAP	50	288	7
NMTAP	51	0	0
NMHLD	51	0	7	96
NMHLD	51	96	6	96
NMHLD	51	192	5	96
NMTAP	51	288	4
NMSTR	51	336	4
NMSCL	51	336	4	96	96	1
NMTAP	52	192	0
NMTAP	52	288	0
NMTAP	52	288	1
NMHLD	53	0	0	96
NMTAP	53	0	7
NMHLD	53	96	1	96
NMHLD	53	192	2	96
NMTAP	53	288	3
NMSTR	53	336	3
NMSLR	53	336	3	96	120	0
NMTAP	54	192	1
NMTAP	54	288	0
NMTAP	54	288	1
NMHLD	55	0	7	96
NMHLD	55	96	6	96
NMHLD	55	192	5	96
NMTAP	55	288	4
NMSTR	55	336	4
NMSLL	55	336	4	96	120	7
NMTAP	56	192	6
NMTAP	56	288	6
NMTAP	56	288	7
NMHLD	57	0	0	96
NMTAP	57	0	7
NMHLD	57	96	1	96
NMHLD	57	192	2	96
NMTAP	57	288	3
EXSTR	57	336	2
NMSI_	57	336	2	96	72	0
EXSTR	57	336	3
NMSI_	57	336	3	96	72	6
NMTAP	58	192	7
NMTAP	58	288	6
NMTAP	58	288	7
NMTAP	59	0	0
NMHLD	59	0	7	96
NMHLD	59	96	6	96
EXTAP	59	192	5
EXTAP	59	240	5
EXSTR	59	336	4
NMSI_	59	336	4	96	72	1
EXSTR	59	336	5
NMSI_	59	336	5	96	72	7
NMTAP	60	192	0
NMTAP	60	288	0
NMTAP	60	288	7
EXTAP	61	0	0
EXTAP	61	0	1
NMTAP	61	96	0
NMTAP	61	96	1
NMTAP	61	192	2
NMTAP	61	192	3
NMTAP	61	288	2
NMTAP	61	288	3
EXTAP	62	0	4
EXTAP	62	0	5
NMTAP	62	96	4
NMTAP	62	96	5
NMTAP	62	192	6
NMTAP	62	192	7
NMTAP	62	288	6
NMTAP	62	288	7
BXHLD	63	0	0	96
BXHLD	63	0	1	96
BXHLD	63	192	6	96
BXHLD	63	192	7	96
BXTAP	64	0	0
BXTAP	64	0	7
BXTAP	64	48	0
BXTAP	64	48	7
BXTAP	64	96	0
BXTAP	64	96	7
NMTTP	64	192	0	C	1	M1
NMTTP	64	192	1	B	0	M1
NMTTP	64	192	2	B	0	M1
NMTTP	64	192	5	B	0	M1
NMTTP	64	192	6	B	0	M1
NMTAP	65	0	7
NMTAP	65	48	7
NMTAP	65	96	1
NMTAP	65	120	0
NMTAP	65	144	1
NMTAP	65	192	2
NMTAP	65	192	7
NMTAP	65	288	4
NMTAP	65	288	5
NMTAP	66	0	6
NMTAP	66	0	7
NMTAP	66	48	6
NMTAP	66	48	7
NMSTR	66	96	6
NMSI_	66	96	6	96	48	3
NMTAP	66	96	7
NMSTR	66	192	2
NMSI_	66	192	2	96	48	7
NMTAP	66	288	6
NMTAP	67	0	5
NMTAP	67	48	5
NMTAP	67	96	3
NMTAP	67	120	4
NMTAP	67	144	3
NMTAP	67	192	2
NMTAP	67	192	5
NMTAP	67	288	0
NMTAP	67	288	1
NMTAP	68	0	6
NMTAP	68	48	6
NMTAP	68	96	4
NMTAP	68	144	4
BRTAP	68	192	7
BRTAP	68	240	3
BRTAP	68	288	5
BRTAP	68	336	1
NMTAP	69	0	6
NMTAP	69	48	6
NMTAP	69	96	0
NMTAP	69	120	7
NMTAP	69	144	0
NMTAP	69	192	1
NMTAP	69	192	6
NMTAP	69	288	4
NMTAP	69	288	5
NMTAP	70	0	2
NMTAP	70	0	3
NMTAP	70	48	2
NMTAP	70	48	3
NMSTR	70	96	2
NMSI_	70	96	2	96	48	7
NMTAP	70	96	3
NMSTR	70	192	6
NMSI_	70	192	6	96	48	3
NMTAP	70	288	0
EXTAP	71	0	1
EXTAP	71	0	4
EXTAP	71	48	2
EXTAP	71	72	3
EXTAP	71	96	2
EXTAP	71	192	3
EXTAP	71	192	6
EXTAP	71	240	5
EXTAP	71	264	4
EXTAP	71	288	5
NMTTP	72	0	3	A	0	M1
NMTTP	72	0	4	E	0	M1
NMTTP	72	0	4	A	0	M1
NMTTP	72	0	4	D	0	M1
NMTTP	72	96	0	E	0	M1
NMTTP	72	96	0	A	0	M1
NMTTP	72	96	0	D	0	M1
NMTTP	72	96	7	A	0	M1
NMTTP	72	192	0	C	1	M1
NMTTP	72	192	1	B	0	M1
NMTTP	72	192	2	B	0	M1
NMTTP	72	192	2	E	0	M1
NMTTP	72	192	5	B	0	M1
NMTTP	72	192	6	B	0	M1
NMTTP	72	192	6	E	0	M1
NMTAP	73	0	0
NMTAP	73	48	0
NMTAP	73	96	6
NMTAP	73	120	7
NMTAP	73	144	6
NMTAP	73	192	0
NMTAP	73	192	5
NMTAP	73	240	0
NMTAP	73	240	5
NMTAP	73	288	1
NMTAP	73	288	4
NMTAP	74	0	2
NMTAP	74	48	2
NMSTR	74	96	1
NMSI_	74	96	1	96	48	4
NMTAP	74	96	3
NMSTR	74	192	5
NMSI_	74	192	5	96	48	0
NMTAP	74	288	1
NMTAP	75	0	7
NMTAP	75	48	7
NMTAP	75	96	1
NMTAP	75	120	0
NMTAP	75	144	1
NMTAP	75	192	2
NMTAP	75	192	7
NMTAP	75	240	2
NMTAP	75	240	7
NMTAP	75	288	3
NMTAP	75	288	6
NMTAP	76	0	5
NMTAP	76	48	5
NMTAP	76	96	3
NMTAP	76	120	4
NMTAP	76	144	3
BRTAP	76	192	2
BRTAP	76	192	5
BRTAP	76	240	2
BRTAP	76	240	5
BRTAP	76	288	1
BRTAP	76	288	6
BRTAP	76	336	1
BRTAP	76	336	6
BRTAP	77	0	0
BRTAP	77	0	7
NMTAP	77	144	1
NMTAP	77	168	0
NMTAP	77	192	1
NMTAP	77	240	6
NMTAP	77	264	7
NMTAP	77	288	6
NMTAP	77	336	0
NMTAP	77	336	5
NMTAP	78	48	2
NMTAP	78	72	3
NMTAP	78	96	2
NMTAP	78	144	5
NMTAP	78	168	4
NMTAP	78	192	5
NMTAP	78	288	0
NMTAP	78	288	7
BRTAP	79	0	1
NMTAP	79	24	0
NMTAP	79	48	1
NMTAP	79	72	0
NMTAP	79	96	1
BRTAP	79	192	6
NMTAP	79	216	7
NMTAP	79	240	6
NMTAP	79	264	7
NMTAP	79	288	6
BRSTR	80	0	0
BRSI_	80	0	0	96	48	3
BRSTR	80	96	5
BRSI_	80	96	5	96	48	0
BRSTR	80	192	1
BRSI_	80	192	1	96	48	3
BRSTR	80	288	4
BRSF_	80	288	4	96	48	0

T_REC_TAP	347
T_REC_BRK	18
T_REC_XTP	28
T_REC_BXX	24
T_REC_HLD	39
T_REC_XHO	4
T_REC_BHO	0
T_REC_BXH	4
T_REC_STR	14
T_REC_BST	6
T_REC_XST	4
T_REC_XBS	0
T_REC_TTP	36
T_REC_THO	0
T_REC_SLD	18
T_REC_BSL	6
T_REC_ALL	548
T_NUM_TAP	429
T_NUM_BRK	58
T_NUM_HLD	43
T_NUM_SLD	18
T_NUM_ALL	548
T_JUDGE_TAP	477
T_JUDGE_HLD	174
T_JUDGE_SLD	24
T_JUDGE_ALL	675
TTM_EACHPAIRS	138
TTM_SCR_TAP	214500
TTM_SCR_BRK	150800
TTM_SCR_HLD	43000
TTM_SCR_SLD	27000
TTM_SCR_ALL	435300
TTM_SCR_S	416650
TTM_SCR_SS	429500
TTM_RAT_ACV	10135

