VERSION	0.00.00	1.03.00
FES_MODE	0
BPM_DEF	160.000	160.000	160.000	160.000
MET_DEF	4	4
RESOLUTION	384
CLK_DEF	384
COMPATIBLE_CODE	MA2

BPM	0	0	160.000
MET	0	0	4	4

TAP	2	0	0
TAP	2	0	7
TAP	2	48	1
TAP	2	48	6
TTP	2	96	2	E	0	M1
TTP	2	96	3	E	0	M1
TTP	2	96	5	E	0	M1
TTP	2	96	6	E	0	M1
HLD	2	192	1	240
TTP	2	240	3	B	0	M1
TTP	2	240	4	B	0	M1
TTP	2	240	4	E	0	M1
TAP	2	336	7
HLD	3	48	6	48
TTP	3	96	0	B	0	M1
TTP	3	96	0	C	0	M1
TTP	3	96	7	B	0	M1
HLD	3	192	1	48
TTP	3	240	3	B	0	M1
TTP	3	240	4	B	0	M1
TTP	3	240	4	E	0	M1
TAP	4	0	0
TAP	4	0	7
TAP	4	48	1
TAP	4	48	6
TTP	4	96	2	E	0	M1
TTP	4	96	3	E	0	M1
TTP	4	96	5	E	0	M1
TTP	4	96	6	E	0	M1
HLD	4	192	1	144
TTP	4	240	3	B	0	M1
TTP	4	240	4	B	0	M1
TTP	4	240	4	E	0	M1
TAP	4	336	7
HLD	5	0	7	72
HLD	5	72	6	72
STR	5	144	5
SI_	5	144	5	96	48	2
TAP	5	192	5
TAP	6	0	2
TAP	6	24	3
TAP	6	48	2
TAP	6	72	5
TAP	6	96	4
TAP	6	120	5
TAP	6	144	1
TAP	6	168	3
TAP	6	192	1
TAP	6	216	6
TAP	6	240	4
TAP	6	264	6
BRK	6	288	0
BRK	6	360	1
BRK	6	360	7
BRK	7	48	2
BRK	7	48	6
TAP	7	96	5
TAP	7	120	4
TAP	7	144	5
TAP	7	168	2
TAP	7	192	3
TAP	7	216	2
TAP	7	240	6
TAP	7	264	4
TAP	7	288	6
TAP	7	312	1
TAP	7	336	3
TAP	7	360	1
BRK	8	0	7
BRK	8	72	0
BRK	8	72	6
BRK	8	144	1
BRK	8	144	5
TAP	8	192	2
TAP	8	216	3
TAP	8	240	2
TAP	8	264	6
TAP	8	288	4
TAP	8	312	6
TAP	8	336	1
TAP	8	360	2
TAP	9	0	1
TAP	9	24	6
TAP	9	48	4
TAP	9	72	6
BRK	9	96	0
BRK	9	168	1
BRK	9	168	7
BRK	9	240	2
BRK	9	240	6
TAP	9	288	5
TAP	9	312	4
TAP	9	336	5
TAP	9	360	1
TAP	10	0	3
TAP	10	24	1
TAP	10	48	6
TAP	10	72	5
STR	10	96	6
SCR	10	96	6	96	96	4
TAP	10	144	2
XHO	10	192	1	96
XTP	11	0	0
XTP	11	0	5
TAP	11	96	0
TAP	11	96	1
TAP	11	192	2
STR	11	240	4
SCL	11	240	4	96	48	1
TAP	11	240	6
TAP	11	336	7
STR	12	0	7
SCL	12	0	7	96	48	4
TAP	12	96	2
STR	12	144	2
SCL	12	144	2	96	48	7
TAP	12	240	6
TAP	12	288	6
STR	12	336	5
SCL	12	336	5	96	48	2
TAP	13	48	1
TAP	13	96	1
TAP	13	144	0
TAP	13	192	6
TAP	13	192	7
TAP	13	240	5
TAP	13	288	0
TAP	13	288	7
TAP	13	336	1
TAP	14	0	5
TAP	14	24	5
TAP	14	48	4
TAP	14	72	4
TAP	14	96	3
TAP	14	120	3
TAP	14	144	2
TAP	14	168	2
TAP	14	192	6
TAP	14	216	6
TAP	14	240	7
TAP	14	264	7
TAP	14	288	0
TAP	14	312	0
TAP	14	336	1
TAP	14	360	1
XTP	15	0	5
TAP	15	96	4
TAP	15	96	6
TAP	15	192	1
STR	15	240	0
SCL	15	240	0	96	48	5
TAP	15	240	2
TAP	15	336	3
STR	16	0	3
SCL	16	0	3	96	48	0
TAP	16	96	6
STR	16	144	6
SCL	16	144	6	96	48	3
TAP	16	240	2
TAP	16	288	2
TAP	16	336	1
TAP	17	0	7
TAP	17	24	6
TAP	17	48	5
TAP	17	72	4
TAP	17	96	0
TAP	17	120	1
TAP	17	144	2
TAP	17	168	3
TAP	17	192	6
TAP	17	216	5
TAP	17	240	4
TAP	17	264	3
TAP	17	288	0
TAP	17	312	1
HLD	17	336	2	96
TAP	18	48	4
TAP	18	72	3
HLD	18	96	5	144
TAP	18	240	2
TAP	18	288	3
TAP	18	288	7
BRK	18	336	1
BRK	18	336	5
TAP	19	48	3
TAP	19	96	4
TAP	19	144	5
STR	19	192	1
SI_	19	192	1	96	48	4
STR	19	240	4
SI_	19	240	4	96	48	1
TAP	20	48	4
TAP	20	96	3
TAP	20	144	2
STR	20	192	6
SI_	20	192	6	96	48	3
STR	20	240	3
SI_	20	240	3	96	48	6
TAP	21	48	2
TAP	21	96	3
TAP	21	144	4
TAP	21	192	2
TAP	21	240	1
TAP	21	288	0
STR	21	336	7
SI_	21	336	7	96	48	2
STR	22	48	1
SI_	22	48	1	96	48	4
STR	22	144	6
SI_	22	144	6	96	48	3
TAP	22	240	2
XTP	22	336	1
XTP	22	336	7
TAP	23	48	1
TAP	23	96	2
TAP	23	96	3
TAP	23	144	4
STR	23	192	1
SUL	23	192	1	96	48	4
STR	23	240	4
SCL	23	240	4	96	48	1
TAP	24	48	6
TAP	24	96	4
TAP	24	96	5
TAP	24	144	3
STR	24	192	6
SUR	24	192	6	96	48	3
STR	24	240	3
SCR	24	240	3	96	48	6
TAP	25	48	2
TAP	25	96	0
TAP	25	96	1
TAP	25	144	7
TAP	25	192	1
TAP	25	240	2
TAP	25	240	3
TAP	25	288	4
STR	25	336	1
SI_	25	336	1	96	48	4
STR	26	48	6
SI_	26	48	6	96	48	3
STR	26	144	0
SI_	26	144	0	96	48	5
BRK	26	240	7
TTP	27	0	2	E	0	M1
XTP	27	0	6
TTP	27	72	3	E	0	M1
TAP	27	72	7
TAP	27	144	0
TTP	27	144	4	E	0	M1
XTP	27	192	1
TTP	27	192	6	E	0	M1
TAP	27	264	0
TTP	27	264	5	E	0	M1
TTP	27	336	4	E	0	M1
TAP	27	336	7
TTP	28	0	2	E	0	M1
XTP	28	0	6
TTP	28	72	3	E	0	M1
TAP	28	72	7
TAP	28	144	0
TTP	28	144	4	E	0	M1
XHO	28	192	0	96
TTP	28	192	6	E	0	M1
TAP	28	288	7
XTP	29	0	2
TTP	29	0	6	E	0	M1
TAP	29	72	3
TTP	29	72	7	E	0	M1
TTP	29	144	0	E	0	M1
TAP	29	144	4
TTP	29	192	2	E	0	M1
XTP	29	192	5
TTP	29	264	1	E	0	M1
TAP	29	264	4
TTP	29	336	0	E	0	M1
TAP	29	336	3
XTP	30	0	2
TTP	30	0	6	E	0	M1
TAP	30	72	3
TTP	30	72	7	E	0	M1
TTP	30	144	0	E	0	M1
TAP	30	144	4
TTP	30	192	2	E	0	M1
XST	30	192	5
SCL	30	192	5	96	48	2
TTP	31	0	2	E	0	M1
XTP	31	0	6
TTP	31	72	3	E	0	M1
TAP	31	72	7
TAP	31	144	0
TTP	31	144	4	E	0	M1
XTP	31	192	1
TTP	31	192	6	E	0	M1
TAP	31	264	0
TTP	31	264	5	E	0	M1
TTP	31	336	4	E	0	M1
TAP	31	336	7
TTP	32	0	2	E	0	M1
XTP	32	0	6
TTP	32	72	0	C	0	M1
TAP	32	72	7
TAP	32	144	0
TTP	32	144	6	E	0	M1
HLD	32	192	1	96
TAP	32	192	6
TAP	32	288	0
TAP	32	336	7
TTP	33	0	2	E	0	M1
XTP	33	0	6
TTP	33	72	3	E	0	M1
TAP	33	72	7
TAP	33	144	0
TTP	33	144	4	E	0	M1
XTP	33	192	1
TTP	33	192	6	E	0	M1
TAP	33	264	0
TTP	33	264	0	C	0	M1
TTP	33	336	2	E	0	M1
TAP	33	336	7
XHO	34	0	6	96
TTP	34	96	0	C	0	M1
TTP	34	96	3	B	0	M1
TTP	34	96	4	B	0	M1
STR	34	192	1
SI_	34	192	1	96	48	4
STR	34	192	6
SI_	34	192	6	96	48	3
XTP	34	288	1
XTP	34	288	6
TAP	35	0	1
STR	35	48	2
SI_	35	48	2	96	48	6
TAP	35	48	5
XST	35	144	2
SCR	35	144	2	96	48	5
XTP	35	144	6
XST	35	240	2
SCL	35	240	2	96	48	7
XTP	35	240	6
XTP	35	336	2
XTP	35	336	7
TAP	36	48	6
TAP	36	96	4
TAP	36	96	5
TAP	36	144	3
STR	36	192	2
SI_	36	192	2	96	48	6
STR	36	192	5
SI_	36	192	5	96	48	3
BRK	36	288	2
BRK	36	288	5
TAP	37	0	1
TAP	37	48	0
TAP	37	48	7
TAP	37	96	6
TAP	37	144	4
TAP	37	144	5
TAP	37	192	3
TAP	37	240	1
TAP	37	240	2
STR	37	288	0
SI_	37	288	0	96	48	4
STR	37	336	7
SI_	37	336	7	96	48	5
XST	38	0	0
SI_	38	0	0	96	48	2
XST	38	48	7
SI_	38	48	7	96	48	3
XST	38	96	0
SI_	38	96	0	96	48	4
XTP	38	144	7
BRK	38	192	0
BRK	38	288	1
BRK	38	288	6
TAP	39	0	0
TAP	39	0	7
STR	39	48	1
SI_	39	48	1	96	48	5
TAP	39	144	1
STR	39	144	6
SI_	39	144	6	96	48	0
STR	39	240	2
SI_	39	240	2	96	48	4
TAP	39	240	6
TAP	39	336	2
STR	39	336	5
SI_	39	336	5	96	48	1
TAP	40	48	0
TAP	40	96	0
TAP	40	144	7
STR	40	192	0
SI_	40	192	0	96	48	4
STR	40	192	6
SI_	40	192	6	96	48	2
BRK	40	288	0
BRK	40	288	6
HLD	41	0	0	96
TAP	41	48	7
HLD	41	96	6	96
TAP	41	144	7
TAP	41	192	1
TAP	41	240	4
TAP	41	264	3
STR	41	288	4
SCL	41	288	4	96	192	5
TAP	41	336	1
HLD	42	0	1	192
TAP	42	288	1
TAP	42	288	6
TAP	42	336	3
TAP	43	0	4
TAP	43	48	2
STR	43	48	5
SI_	43	48	5	96	48	1
XTP	43	144	1
XST	43	144	5
SCL	43	144	5	96	48	2
XTP	43	240	1
XST	43	240	5
SCR	43	240	5	96	48	0
XTP	43	336	0
XTP	43	336	5
TAP	44	48	1
TAP	44	96	2
TAP	44	96	3
TAP	44	144	4
STR	44	192	2
SI_	44	192	2	96	48	4
STR	44	192	5
SI_	44	192	5	96	48	1
BRK	44	288	2
BRK	44	288	5
TAP	45	0	6
TAP	45	48	0
TAP	45	48	7
TAP	45	96	1
TAP	45	144	2
TAP	45	144	3
TAP	45	192	4
TAP	45	240	5
TAP	45	240	6
STR	45	288	7
SI_	45	288	7	96	48	3
STR	45	336	0
SI_	45	336	0	96	48	2
XST	46	0	7
SI_	46	0	7	96	48	5
XST	46	48	0
SI_	46	48	0	96	48	4
XST	46	96	7
SI_	46	96	7	96	48	3
XTP	46	144	0
BRK	46	192	7
BRK	46	288	1
BRK	46	288	6
TAP	47	0	0
TAP	47	0	7
STR	47	48	6
SI_	47	48	6	96	48	2
STR	47	144	1
SI_	47	144	1	96	48	7
TAP	47	144	6
TAP	47	240	1
STR	47	240	5
SI_	47	240	5	96	48	3
STR	47	336	2
SI_	47	336	2	96	48	6
TAP	47	336	5
TAP	48	48	7
TAP	48	96	7
TAP	48	144	0
STR	48	192	1
SI_	48	192	1	96	48	5
STR	48	192	7
SI_	48	192	7	96	48	3
BRK	48	288	1
BRK	48	288	7
HLD	49	0	7	96
TAP	49	48	0
HLD	49	96	1	96
TAP	49	144	0
TAP	49	192	6
TAP	49	240	3
TAP	49	264	4
STR	49	288	3
SCR	49	288	3	96	192	2
TAP	49	336	7
XHO	50	0	7	192
BRK	50	288	1
BRK	50	288	6
XTP	51	0	2
XTP	51	0	7
TAP	51	96	6
TAP	51	96	7
TAP	51	192	5
TAP	51	240	1
STR	51	240	3
SCR	51	240	3	96	48	6
TAP	51	336	0
STR	52	0	0
SCR	52	0	0	96	48	3
TAP	52	96	5
STR	52	144	5
SCR	52	144	5	96	48	0
TAP	52	240	1
TAP	52	288	1
STR	52	336	2
SCR	52	336	2	96	48	5
TAP	53	48	6
TAP	53	96	6
TAP	53	144	7
TAP	53	192	0
TAP	53	192	1
TAP	53	240	2
TAP	53	288	0
TAP	53	288	7
TAP	53	336	6
TAP	54	0	2
TAP	54	24	2
TAP	54	48	3
TAP	54	72	3
TAP	54	96	4
TAP	54	120	4
TAP	54	144	5
TAP	54	168	5
TAP	54	192	1
TAP	54	216	1
TAP	54	240	0
TAP	54	264	0
TAP	54	288	7
TAP	54	312	7
TAP	54	336	6
TAP	54	360	6
XTP	55	0	2
TAP	55	96	1
TAP	55	96	3
TAP	55	192	6
TAP	55	240	5
STR	55	240	7
SCR	55	240	7	96	48	2
TAP	55	336	4
STR	56	0	4
SCR	56	0	4	96	48	7
TAP	56	96	1
STR	56	144	1
SCR	56	144	1	96	48	4
TAP	56	240	5
TAP	56	288	5
TAP	56	336	6
TAP	57	0	0
TAP	57	24	1
TAP	57	48	2
TAP	57	72	3
TAP	57	96	7
TAP	57	120	6
TAP	57	144	5
TAP	57	168	4
TAP	57	192	1
TAP	57	216	2
TAP	57	240	3
TAP	57	264	4
TAP	57	288	7
TAP	57	312	6
HLD	57	336	5	96
TAP	58	48	3
TAP	58	72	4
HLD	58	96	2	144
TAP	58	240	5
TAP	58	288	0
TAP	58	288	4
BRK	58	336	2
BRK	58	336	6
TAP	59	0	0
TAP	59	0	7
TTP	59	96	3	B	0	M1
TTP	59	96	3	E	0	M1
TTP	59	96	4	B	0	M1
TTP	59	96	5	E	0	M1
TAP	59	192	6
TAP	59	192	7
TTP	59	288	2	B	0	M1
TTP	59	288	2	E	0	M1
TTP	59	288	3	B	0	M1
TTP	59	288	4	E	0	M1
TAP	60	0	0
TAP	60	0	1
TTP	60	96	4	B	0	M1
TTP	60	96	4	E	0	M1
TTP	60	96	5	B	0	M1
TTP	60	96	6	E	0	M1
TAP	60	192	0
TAP	60	192	7
TTP	60	288	3	B	0	M1
TTP	60	288	3	E	0	M1
TTP	60	288	4	B	0	M1
TTP	60	288	5	E	0	M1
HLD	61	0	6	96
TAP	61	0	7
TTP	61	96	4	B	0	M1
TTP	61	96	5	B	0	M1
TTP	61	96	5	E	0	M1
TAP	61	192	0
HLD	61	192	1	96
TTP	61	288	2	B	0	M1
TTP	61	288	3	B	0	M1
TTP	61	288	3	E	0	M1
TAP	62	0	0
TAP	62	0	7
STR	62	96	2
SUL	62	96	2	96	96	5
STR	62	96	6
SCR	62	96	6	96	96	1
TAP	63	0	0
TAP	63	0	7
TAP	63	48	1
TAP	63	48	6
TTP	63	96	3	B	0	M1
TTP	63	96	3	E	0	M1
TTP	63	96	4	B	0	M1
TTP	63	96	5	E	0	M1
TAP	63	144	1
TAP	63	144	6
TAP	63	192	0
TAP	63	192	7
TAP	63	240	1
TAP	63	240	6
TTP	63	288	3	B	0	M1
TTP	63	288	3	E	0	M1
TTP	63	288	4	B	0	M1
TTP	63	288	5	E	0	M1
TAP	63	336	0
TAP	64	0	6
TAP	64	0	7
TAP	64	48	0
TAP	64	48	5
TTP	64	96	2	B	0	M1
TTP	64	96	2	E	0	M1
TTP	64	96	3	B	0	M1
TTP	64	96	4	E	0	M1
TAP	64	144	0
TAP	64	144	5
TAP	64	192	6
TAP	64	192	7
TAP	64	240	0
TAP	64	240	5
TTP	64	288	2	B	0	M1
TTP	64	288	2	E	0	M1
TTP	64	288	3	B	0	M1
TTP	64	288	4	E	0	M1
TAP	64	336	7
TAP	65	0	0
TAP	65	0	1
TAP	65	48	2
TAP	65	48	7
TTP	65	96	4	B	0	M1
TTP	65	96	4	E	0	M1
TTP	65	96	5	B	0	M1
TTP	65	96	6	E	0	M1
TAP	65	144	1
TAP	65	192	0
TAP	65	192	7
TAP	65	240	1
TAP	65	240	6
TTP	65	288	3	B	0	M1
TTP	65	288	3	E	0	M1
TTP	65	288	4	B	0	M1
TTP	65	288	5	E	0	M1
TAP	65	336	1
TAP	65	336	6
XST	66	0	0
SI_	66	0	0	96	24	4
XST	66	0	7
SI_	66	0	7	96	24	3
BRK	66	96	0
BRK	66	96	7
TTP	66	108	0	C	1	M1
TAP	66	336	4
TAP	67	0	3
TAP	67	48	2
STR	67	48	5
SI_	67	48	5	96	48	1
XTP	67	144	1
XST	67	144	5
SCL	67	144	5	96	48	2
XTP	67	240	1
XST	67	240	5
SCR	67	240	5	96	48	0
XTP	67	336	0
XTP	67	336	5
TAP	68	48	1
TAP	68	96	0
TAP	68	96	7
TAP	68	144	6
STR	68	192	1
SI_	68	192	1	96	48	4
STR	68	192	5
SI_	68	192	5	96	48	0
BRK	68	288	1
BRK	68	288	5
TAP	69	0	1
TAP	69	48	0
TAP	69	48	7
TAP	69	96	6
TAP	69	144	4
TAP	69	144	5
TAP	69	192	3
TAP	69	240	1
TAP	69	240	2
STR	69	288	0
SI_	69	288	0	96	48	4
STR	69	336	7
SI_	69	336	7	96	48	5
XST	70	0	0
SI_	70	0	0	96	48	2
XST	70	48	7
SI_	70	48	7	96	48	3
XST	70	96	0
SI_	70	96	0	96	48	4
XTP	70	144	7
BST	70	192	0
SCL	70	192	0	96	48	5
SCR	70	192	0	96	48	3
BRK	70	288	0
TAP	71	0	0
TAP	71	0	7
STR	71	48	6
SI_	71	48	6	96	48	2
STR	71	144	1
SI_	71	144	1	96	48	7
TAP	71	144	6
TAP	71	240	1
STR	71	240	5
SI_	71	240	5	96	48	3
STR	71	336	2
SI_	71	336	2	96	48	6
TAP	71	336	5
TAP	72	48	7
TAP	72	96	7
TAP	72	144	0
STR	72	192	1
SI_	72	192	1	96	48	5
STR	72	192	7
SI_	72	192	7	96	48	3
BRK	72	288	1
BRK	72	288	7
HLD	73	0	7	96
TAP	73	48	0
HLD	73	96	1	96
TAP	73	144	0
TAP	73	192	6
TAP	73	240	2
TAP	73	264	3
STR	73	288	2
SCR	73	288	2	96	192	1
TAP	73	336	6
HLD	74	0	6	192
TAP	74	288	1
TAP	74	288	6
TAP	74	336	3
TAP	75	0	4
STR	75	48	2
SI_	75	48	2	96	48	6
TAP	75	48	5
XST	75	144	2
SCR	75	144	2	96	48	5
XTP	75	144	6
XST	75	240	2
SCL	75	240	2	96	48	7
XTP	75	240	6
XTP	75	336	2
XTP	75	336	7
TAP	76	48	6
TAP	76	96	0
TAP	76	96	7
TAP	76	144	1
STR	76	192	2
SI_	76	192	2	96	48	7
STR	76	192	6
SI_	76	192	6	96	48	3
BRK	76	288	2
BRK	76	288	6
TAP	77	0	6
TAP	77	48	0
TAP	77	48	7
TAP	77	96	1
TAP	77	144	2
TAP	77	144	3
TAP	77	192	4
TAP	77	240	5
TAP	77	240	6
STR	77	288	7
SI_	77	288	7	96	48	3
STR	77	336	0
SI_	77	336	0	96	48	2
XST	78	0	7
SI_	78	0	7	96	48	5
XST	78	48	0
SI_	78	48	0	96	48	4
XST	78	96	7
SI_	78	96	7	96	48	3
XTP	78	144	0
BST	78	192	7
SCL	78	192	7	96	48	4
SCR	78	192	7	96	48	2
BRK	78	288	7
TAP	79	0	0
TAP	79	0	7
STR	79	48	1
SI_	79	48	1	96	48	5
TAP	79	144	1
STR	79	144	6
SI_	79	144	6	96	48	0
STR	79	240	2
SI_	79	240	2	96	48	4
TAP	79	240	6
TAP	79	336	2
STR	79	336	5
SI_	79	336	5	96	48	1
TAP	80	48	0
TAP	80	96	0
TAP	80	144	7
STR	80	192	0
SI_	80	192	0	96	48	4
STR	80	192	6
SI_	80	192	6	96	48	2
BRK	80	288	0
BRK	80	288	6
HLD	81	0	0	96
TAP	81	48	7
HLD	81	96	6	96
TAP	81	144	7
TAP	81	192	1
TAP	81	240	5
TAP	81	264	4
STR	81	288	5
SCL	81	288	5	96	192	6
TAP	81	336	0
XHO	82	0	0	192
BRK	82	288	1
BRK	82	288	6
XTP	83	0	0
XTP	83	0	5
TAP	83	96	0
TAP	83	96	1
TAP	83	192	2
STR	83	240	4
SCL	83	240	4	96	48	1
TAP	83	240	6
TAP	83	336	7
STR	84	0	7
SCL	84	0	7	96	48	4
TAP	84	96	2
STR	84	144	2
SCL	84	144	2	96	48	7
TAP	84	240	6
TAP	84	288	6
STR	84	336	5
SCL	84	336	5	96	48	2
TAP	85	48	1
TAP	85	96	1
TAP	85	144	0
TAP	85	192	6
TAP	85	192	7
TAP	85	240	5
TAP	85	288	0
TAP	85	288	7
TAP	85	336	1
TAP	86	0	6
TAP	86	24	6
TAP	86	48	7
TAP	86	72	7
TAP	86	96	0
TAP	86	120	0
TAP	86	144	1
TAP	86	168	1
TAP	86	192	5
TAP	86	216	5
TAP	86	240	4
TAP	86	264	4
TAP	86	288	3
TAP	86	312	3
TAP	86	336	2
TAP	86	360	2
XTP	87	0	6
TAP	87	96	5
TAP	87	96	7
TAP	87	192	1
STR	87	240	0
SCL	87	240	0	96	48	5
TAP	87	240	2
TAP	87	336	3
STR	88	0	3
SCL	88	0	3	96	48	0
TAP	88	96	6
STR	88	144	6
SCL	88	144	6	96	48	3
TAP	88	240	2
TAP	88	288	2
TAP	88	336	1
TAP	89	0	7
TAP	89	24	6
TAP	89	48	5
TAP	89	72	4
TAP	89	96	0
TAP	89	120	1
TAP	89	144	2
TAP	89	168	3
TAP	89	192	6
TAP	89	216	5
TAP	89	240	4
TAP	89	264	3
TAP	89	288	0
TAP	89	312	1
HLD	89	336	2	96
TAP	90	48	4
TAP	90	72	3
HLD	90	96	5	144
BRK	90	240	2
BRK	90	288	3
BRK	90	288	7
BRK	90	336	1
BRK	90	336	5

T_REC_TAP	459
T_REC_BRK	55
T_REC_XTP	44
T_REC_HLD	25
T_REC_XHO	5
T_REC_STR	89
T_REC_BST	2
T_REC_XST	23
T_REC_TTP	105
T_REC_THO	0
T_REC_SLD	116
T_REC_ALL	923
T_NUM_TAP	720
T_NUM_BRK	57
T_NUM_HLD	30
T_NUM_SLD	116
T_NUM_ALL	923
T_JUDGE_TAP	777
T_JUDGE_HLD	73
T_JUDGE_SLD	116
T_JUDGE_ALL	966
TTM_EACHPAIRS	140
TTM_SCR_TAP	360000
TTM_SCR_BRK	148200
TTM_SCR_HLD	30000
TTM_SCR_SLD	174000
TTM_SCR_ALL	712200
TTM_SCR_S	685350
TTM_SCR_SS	706500
TTM_RAT_ACV	10080

