VERSION	0.00.00	1.03.00
FES_MODE	0
BPM_DEF	160.000	160.000	160.000	160.000
MET_DEF	4	4
RESOLUTION	384
CLK_DEF	384
COMPATIBLE_CODE	MA2

BPM	0	0	160.000
MET	0	0	4	4

TAP	1	336	3
HLD	2	0	3	480
TAP	2	96	4
TAP	2	288	4
TAP	3	96	4
TAP	3	288	3
TAP	3	336	4
HLD	4	0	4	288
TAP	4	96	3
STR	4	288	3
SUR	4	288	3	96	192	4
HLD	6	0	3	96
HLD	6	0	5	96
HLD	6	144	3	96
HLD	6	144	5	96
TAP	6	288	3
TAP	6	288	5
TAP	7	0	1
HLD	7	96	2	96
HLD	7	96	4	96
HLD	7	240	2	96
HLD	7	240	4	96
TAP	8	0	2
TAP	8	0	4
TAP	8	96	5
HLD	8	192	4	96
HLD	8	192	6	96
HLD	8	336	4	96
HLD	8	336	6	96
TAP	9	96	4
TAP	9	96	6
TAP	9	192	2
HLD	9	288	1	96
HLD	9	288	3	96
HLD	10	48	1	96
HLD	10	48	3	96
XTP	10	192	0
XTP	10	192	4
TAP	11	0	5
TAP	11	96	6
TAP	11	192	0
TAP	11	240	0
TAP	11	288	7
TAP	12	0	2
TAP	12	96	1
TAP	12	192	7
TAP	12	240	7
TAP	12	288	0
TAP	13	0	5
TAP	13	96	4
TAP	13	96	5
TAP	13	192	2
TAP	13	288	2
STR	13	288	3
SSR	13	288	3	96	192	7
XTP	14	288	0
XTP	14	288	6
TAP	15	0	5
TAP	15	96	6
TAP	15	192	0
TAP	15	240	0
TAP	15	288	7
TAP	16	0	2
TAP	16	96	1
TAP	16	192	0
TAP	16	192	7
TAP	16	288	1
TAP	16	288	6
TAP	17	0	5
TAP	17	48	5
TAP	17	96	4
TAP	17	192	2
TAP	17	240	2
TAP	17	288	3
TAP	18	0	3
TAP	18	0	4
HLD	18	96	2	96
HLD	18	96	5	96
TAP	18	240	2
TAP	18	240	5
XTP	18	288	2
XTP	18	288	5
XST	19	0	1
SI_	19	0	1	96	96	4
TAP	19	192	5
TAP	19	288	7
STR	20	0	6
SI_	20	0	6	96	96	3
TAP	20	192	2
TAP	20	288	0
STR	21	0	1
SCR	21	0	1	96	96	4
TAP	21	192	5
TAP	21	288	6
HLD	21	336	6	96
HLD	22	48	7	96
TAP	22	144	0
TAP	22	240	0
TAP	22	240	1
TAP	22	288	0
TAP	22	288	1
STR	23	0	2
SI_	23	0	2	96	96	7
TAP	23	192	6
TAP	23	288	4
STR	24	0	5
SI_	24	0	5	96	96	0
TAP	24	192	1
TAP	24	288	3
STR	25	0	2
SCL	25	0	2	96	96	7
TAP	25	192	6
TAP	25	288	4
TAP	25	336	4
TAP	26	48	3
TAP	26	48	5
TAP	26	144	2
TAP	26	144	4
XTP	26	240	1
XTP	26	240	5
XTP	26	288	1
XTP	26	288	5
XTP	27	0	0
TTP	27	96	2	B	0	M1
TTP	27	96	2	E	0	M1
TTP	27	96	3	B	0	M1
TTP	27	192	4	B	0	M1
TTP	27	192	5	B	0	M1
TTP	27	192	6	E	0	M1
TAP	27	288	7
TTP	28	0	0	B	0	M1
TTP	28	96	0	C	0	M1
TTP	28	192	3	B	0	M1
TTP	28	192	5	B	0	M1
XTP	28	336	2
XTP	28	336	6
XTP	29	0	2
XTP	29	0	6
TTP	29	96	1	B	0	M1
TTP	29	96	2	E	0	M1
TTP	29	192	3	B	0	M1
TTP	29	192	4	B	0	M1
TTP	29	288	6	B	0	M1
TTP	29	288	6	E	0	M1
TTP	30	0	0	E	0	M1
TTP	30	96	4	E	0	M1
XTP	30	192	2
XTP	30	192	5
XTP	30	336	7
XTP	31	0	7
TTP	31	96	4	B	0	M1
TTP	31	96	5	B	0	M1
TTP	31	96	6	E	0	M1
TTP	31	192	2	B	0	M1
TTP	31	192	2	E	0	M1
TTP	31	192	3	B	0	M1
TTP	31	288	0	C	0	M1
TAP	32	0	0
TAP	32	0	6
TAP	32	96	0
TAP	32	96	6
XTP	32	192	1
XTP	32	192	5
TAP	32	336	2
TAP	33	0	2
TAP	33	0	3
TAP	33	96	6
TAP	33	192	4
TAP	33	192	5
TAP	33	288	1
TAP	34	0	2
TAP	34	0	3
TAP	34	96	4
TAP	34	96	5
BST	34	192	0
SI_	34	192	0	96	48	3
BST	34	192	7
SI_	34	192	7	96	48	3
XTP	35	0	2
XTP	35	0	4
TAP	35	96	1
TAP	35	96	5
TAP	35	144	1
TAP	35	144	5
TAP	35	240	6
TAP	35	240	7
TAP	35	336	4
TAP	35	336	5
TAP	36	48	2
TAP	36	96	2
TAP	36	96	3
STR	36	192	1
SI_	36	192	1	96	48	4
XTP	36	192	7
XTP	36	288	7
XTP	37	0	3
XTP	37	0	6
TAP	37	96	2
TAP	37	144	2
TAP	37	192	1
TAP	37	192	3
TAP	37	288	5
TAP	37	336	5
BRK	38	0	4
BRK	38	0	6
BST	38	96	3
SCL	38	96	3	96	96	0
BST	38	96	7
SCL	38	96	7	96	96	4
XTP	39	0	0
XTP	39	0	4
TAP	39	96	1
TAP	39	96	5
TAP	39	144	1
TAP	39	144	5
TAP	39	240	2
TAP	39	240	6
TAP	39	336	4
TAP	39	336	5
TAP	40	48	2
TAP	40	48	3
TAP	40	96	2
TAP	40	96	3
STR	40	192	1
SI_	40	192	1	96	48	4
XTP	40	192	7
XTP	40	288	7
XTP	41	0	3
XTP	41	0	6
TAP	41	96	5
TAP	41	144	5
TAP	41	192	4
STR	41	288	2
SCL	41	288	2	96	192	5
TAP	41	288	3
BRK	42	0	4
BRK	42	288	3
BRK	42	288	4
XTP	43	0	2
XTP	43	0	5
TAP	43	96	0
TAP	43	96	6
TAP	43	144	0
TAP	43	144	6
TAP	43	240	1
TAP	43	240	7
TAP	43	336	2
TAP	43	336	3
TAP	44	48	4
TAP	44	48	6
TAP	44	96	4
TAP	44	96	6
XTP	44	192	1
STR	44	192	7
SI_	44	192	7	96	48	3
XTP	44	288	1
XTP	45	0	0
XTP	45	0	4
TAP	45	96	5
TAP	45	144	5
TAP	45	192	4
TAP	45	192	6
TAP	45	288	2
TAP	45	336	2
BRK	46	0	1
BRK	46	0	3
BST	46	96	0
SCR	46	96	0	96	96	3
BST	46	96	4
SCR	46	96	4	96	96	7
XTP	47	0	3
XTP	47	0	7
TAP	47	96	2
TAP	47	96	6
TAP	47	144	2
TAP	47	144	6
TAP	47	240	0
TAP	47	336	1
TAP	47	336	3
TAP	48	48	4
TAP	48	48	5
TAP	48	96	4
TAP	48	96	5
STR	48	192	6
SI_	48	192	6	96	48	3
STR	48	192	7
SI_	48	192	7	96	48	2
XTP	49	0	0
XTP	49	0	1
TAP	49	96	2
TAP	49	96	7
TAP	49	192	4
TAP	49	192	5
STR	49	288	6
SXR	49	288	6	96	216	3
STR	49	288	7
SXL	49	288	7	96	216	2
BRK	50	288	1
BRK	50	288	4
TAP	51	0	5
TAP	51	96	4
TAP	51	96	5
TAP	51	192	6
TAP	51	240	6
TAP	51	288	7
TAP	52	0	0
TAP	52	0	5
TAP	52	96	1
TAP	52	192	2
TAP	52	192	7
TAP	52	288	2
TAP	52	288	7
TAP	53	0	1
TAP	53	48	1
TAP	53	96	0
TAP	53	192	2
TAP	53	192	3
STR	53	288	4
SSL	53	288	4	96	192	0
TAP	53	288	5
XTP	54	288	1
XTP	54	288	6
TAP	55	0	2
TAP	55	96	2
TAP	55	96	3
TAP	55	192	1
TAP	55	240	1
TAP	55	288	0
TAP	56	0	1
TAP	56	0	7
TAP	56	96	6
TAP	56	192	0
TAP	56	192	5
TAP	56	288	1
TAP	56	288	4
TAP	57	0	2
TAP	57	48	2
TAP	57	96	4
TAP	57	144	4
TAP	57	192	3
TAP	57	240	3
TAP	57	288	5
TAP	57	336	5
XTP	58	48	4
XTP	58	48	6
XST	58	96	4
SI_	58	96	4	96	96	0
XTP	58	96	6
XHO	59	0	0	192
TAP	59	0	7
TAP	59	96	1
HLD	59	192	7	192
TAP	59	288	6
HLD	60	0	1	192
TAP	60	96	2
HLD	60	192	6	192
TAP	60	288	5
HLD	61	0	2	192
TAP	61	96	3
HLD	61	192	5	192
TAP	61	288	4
TAP	62	0	2
TAP	62	96	2
TAP	62	96	3
XTP	62	192	1
XTP	62	192	5
TAP	63	0	3
HLD	63	0	4	192
TTP	63	96	5	B	0	M1
HLD	63	192	3	192
TTP	63	288	2	B	0	M1
HLD	64	0	5	192
TTP	64	96	6	B	0	M1
HLD	64	192	2	192
TTP	64	288	1	B	0	M1
HLD	65	0	6	192
TTP	65	96	7	B	0	M1
HLD	65	192	0	192
TTP	65	288	1	B	0	M1
BST	66	0	7
SI_	66	0	7	96	48	3
BRK	66	96	0
XTP	67	0	2
XTP	67	0	4
TAP	67	96	1
TAP	67	96	5
TAP	67	144	1
TAP	67	144	5
TAP	67	240	6
TAP	67	240	7
TAP	67	336	4
TAP	67	336	5
TAP	68	48	2
TAP	68	96	2
TAP	68	96	3
XTP	68	192	0
STR	68	192	1
SI_	68	192	1	96	48	4
XTP	68	288	7
XTP	69	0	3
XTP	69	0	6
TAP	69	96	2
TAP	69	144	3
TAP	69	192	1
TAP	69	192	4
TAP	69	288	5
TAP	69	336	4
BRK	70	0	3
BRK	70	0	6
BST	70	96	2
SCL	70	96	2	96	96	7
BST	70	96	7
SCL	70	96	7	96	96	4
XTP	71	0	0
XTP	71	0	5
TAP	71	96	2
TAP	71	96	7
TAP	71	144	2
TAP	71	144	7
TAP	71	240	4
TAP	71	240	6
TAP	71	336	2
TAP	71	336	3
TAP	72	48	0
TAP	72	48	1
TAP	72	96	0
TAP	72	96	1
XTP	72	192	2
STR	72	192	7
SCL	72	192	7	96	48	4
XTP	72	288	2
XTP	73	0	1
XTP	73	0	3
TAP	73	96	2
TAP	73	144	2
TAP	73	192	3
TAP	73	288	4
STR	73	288	5
SCR	73	288	5	96	192	2
BRK	74	0	3
BRK	74	288	3
BRK	74	288	4
BRK	75	0	2
BRK	75	0	6
TAP	75	96	0
TAP	75	96	1
TAP	75	144	0
TAP	75	144	1
TAP	75	240	2
TAP	75	240	3
TAP	75	336	4
TAP	75	336	5
TAP	76	48	6
STR	76	96	6
SI_	76	96	6	96	48	2
BST	76	192	7
SI_	76	192	7	96	48	3
BRK	76	288	6
XTP	77	0	2
XTP	77	0	4
TAP	77	96	1
TAP	77	144	1
TAP	77	192	0
TAP	77	192	2
TAP	77	288	6
TAP	77	336	6
BRK	78	0	5
BRK	78	0	7
BST	78	96	0
SCR	78	96	0	96	96	3
BST	78	96	4
SUL	78	96	4	96	96	7
XTP	79	0	3
XTP	79	0	7
TAP	79	96	2
TAP	79	96	6
TAP	79	144	2
TAP	79	144	6
TAP	79	240	0
TAP	79	240	4
TAP	79	336	1
TAP	79	336	3
TAP	80	48	4
TAP	80	48	5
TAP	80	96	4
TAP	80	96	5
BST	80	192	6
SI_	80	192	6	96	48	2
BST	80	192	7
SI_	80	192	7	96	48	3
XTP	81	0	1
XTP	81	0	4
TAP	81	96	0
TAP	81	96	5
TAP	81	192	2
TAP	81	192	7
STR	81	288	3
SXR	81	288	3	96	216	7
HLD	81	288	6	288
BRK	82	288	0
BRK	82	288	5
HLD	83	0	1	96
TAP	83	0	4
TAP	83	96	3
TAP	83	192	0
TAP	83	240	0
TAP	83	288	1
TAP	83	288	7
TAP	84	0	2
HLD	84	0	6	96
TAP	84	96	4
HLD	84	192	1	96
TAP	84	192	5
TAP	84	288	3
TAP	85	0	2
TAP	85	48	2
TAP	85	96	4
TAP	85	192	3
TAP	85	192	5
STR	85	288	2
SCR	85	288	2	96	96	5
STR	85	288	6
SCR	85	288	6	96	96	1
XTP	86	192	3
XTP	86	192	7
BRK	86	288	2
BRK	86	288	6
HLD	87	0	1	96
TAP	87	0	5
TAP	87	96	0
TAP	87	192	3
TAP	87	240	3
TAP	87	288	2
TAP	87	288	4
TAP	88	0	1
HLD	88	0	5	96
TAP	88	96	7
HLD	88	192	2	96
TAP	88	192	6
TAP	88	288	0
TAP	89	0	1
TAP	89	48	1
TAP	89	96	4
TAP	89	144	4
TAP	89	192	3
TAP	89	240	3
TAP	89	288	6
TAP	89	336	4
TAP	89	336	6
TAP	90	48	3
TAP	90	48	7
HLD	90	96	3	144
TAP	90	96	7
BRK	90	240	5
BRK	90	288	1
BRK	90	336	7

T_REC_TAP	308
T_REC_BRK	27
T_REC_XTP	70
T_REC_HLD	41
T_REC_XHO	1
T_REC_STR	23
T_REC_BST	14
T_REC_XST	2
T_REC_TTP	31
T_REC_THO	0
T_REC_SLD	39
T_REC_ALL	556
T_NUM_TAP	434
T_NUM_BRK	41
T_NUM_HLD	42
T_NUM_SLD	39
T_NUM_ALL	556
T_JUDGE_TAP	475
T_JUDGE_HLD	125
T_JUDGE_SLD	39
T_JUDGE_ALL	639
TTM_EACHPAIRS	160
TTM_SCR_TAP	217000
TTM_SCR_BRK	106600
TTM_SCR_HLD	42000
TTM_SCR_SLD	58500
TTM_SCR_ALL	424100
TTM_SCR_S	407400
TTM_SCR_SS	420000
TTM_RAT_ACV	10097

