VERSION	0.00.00	1.03.00
FES_MODE	0
BPM_DEF	160.000	160.000	160.000	160.000
MET_DEF	4	4
RESOLUTION	384
CLK_DEF	384
COMPATIBLE_CODE	MA2

BPM	0	0	160.000
MET	0	0	4	4

STR	2	0	1
SXR	2	0	1	96	480	4
TAP	4	0	5
TAP	4	192	6
TAP	5	0	0
TAP	5	0	7
TAP	5	96	0
TAP	5	96	7
BRK	5	192	1
BRK	5	192	6
TAP	6	0	2
TAP	6	96	2
TAP	6	192	2
TAP	6	192	3
TAP	6	288	1
TAP	6	288	4
TAP	7	96	5
TAP	7	192	5
TAP	7	288	4
TAP	7	288	5
TAP	8	0	3
TAP	8	0	6
TAP	8	192	2
TAP	8	288	2
TAP	9	0	2
TAP	9	0	3
TAP	9	96	1
TAP	9	96	4
TAP	9	288	5
TAP	10	0	5
TAP	10	96	3
TAP	10	96	4
BRK	10	192	2
BRK	10	192	5
TAP	11	0	2
TAP	11	96	2
TAP	11	192	2
TAP	11	192	3
TAP	12	0	5
TAP	12	96	5
TAP	12	192	4
TAP	12	192	5
TAP	13	0	2
TAP	13	96	2
TAP	13	192	3
TAP	13	288	3
TAP	14	0	4
TAP	14	96	4
TAP	14	192	3
TAP	14	192	5
TAP	15	0	6
TAP	15	96	6
TAP	15	192	6
TAP	15	192	7
TAP	16	0	1
TAP	16	96	1
TAP	16	192	0
TAP	16	192	1
TAP	17	0	2
TAP	17	96	2
TAP	17	192	3
TAP	17	288	3
STR	18	0	3
SI_	18	0	3	96	144	0
STR	18	0	4
SI_	18	0	4	96	144	7
HLD	19	0	6	192
TAP	19	192	7
HLD	20	0	1	192
TAP	20	192	0
HLD	21	0	6	192
TAP	21	192	7
HLD	22	0	0	96
HLD	22	0	1	96
TAP	22	192	0
TAP	22	192	1
HLD	23	0	2	192
TAP	23	192	3
HLD	24	0	5	192
TAP	24	192	4
HLD	25	0	2	192
TAP	25	192	3
XTP	26	0	4
XTP	26	96	4
XTP	26	192	3
XTP	26	192	5
TTP	27	0	6	B	0	L1
TTP	27	0	6	E	0	L1
TTP	27	192	4	B	0	L1
TTP	27	192	5	E	0	L1
TTP	28	0	3	E	0	L1
TTP	28	96	2	B	0	L1
TTP	28	192	1	B	0	L1
TTP	29	0	4	B	0	L1
TTP	29	0	5	E	0	L1
TTP	29	192	6	B	0	L1
TTP	29	192	6	E	0	L1
TTP	30	0	1	B	0	L1
TTP	30	96	2	B	0	L1
TTP	30	192	3	E	0	L1
TTP	31	0	4	B	0	L1
TTP	31	96	5	B	0	L1
TTP	31	192	6	E	0	L1
TTP	32	0	3	B	0	L1
TTP	32	96	2	B	0	L1
TTP	32	192	2	E	0	L1
TTP	33	0	4	B	0	L1
TTP	33	96	5	B	0	L1
TTP	33	192	6	B	0	L1
TTP	33	288	7	B	0	L1
TTP	34	0	0	B	0	L1
TTP	34	96	1	B	0	L1
TTP	34	192	2	B	0	L1
XTP	35	0	7
TAP	35	96	7
TAP	35	192	6
TAP	35	192	7
TAP	35	288	6
TAP	35	288	7
TAP	36	0	1
TAP	36	96	1
TAP	36	192	0
TAP	36	192	1
TAP	36	288	0
TAP	36	288	1
TAP	37	0	2
TAP	37	96	2
TAP	37	192	3
TAP	37	288	3
XTP	38	0	4
XTP	38	96	3
XTP	38	96	5
XTP	38	192	2
XTP	38	192	6
TAP	39	0	2
TAP	39	96	2
TAP	39	192	2
TAP	39	192	3
TAP	39	288	2
TAP	39	288	3
TAP	40	0	5
TAP	40	96	5
TAP	40	192	4
TAP	40	192	5
TAP	40	288	4
TAP	40	288	5
TAP	41	0	6
TAP	41	96	7
TAP	41	192	0
TAP	41	288	1
BST	42	0	0
SCR	42	0	0	96	144	3
BST	42	0	7
SCL	42	0	7	96	144	4
TAP	43	0	2
TAP	43	96	2
TAP	43	192	2
TAP	43	192	3
TAP	43	288	2
TAP	43	288	3
TAP	44	0	5
TAP	44	96	5
TAP	44	192	4
TAP	44	192	5
TAP	44	288	4
TAP	44	288	5
TAP	45	0	6
TAP	45	96	6
TAP	45	192	7
TAP	45	288	7
XTP	46	0	0
XTP	46	96	1
XTP	46	96	7
XTP	46	192	2
XTP	46	192	6
TAP	47	0	6
TAP	47	96	6
TAP	47	192	6
TAP	47	192	7
TAP	47	288	6
TAP	47	288	7
TAP	48	0	1
TAP	48	96	1
TAP	48	192	0
TAP	48	192	1
TAP	48	288	0
TAP	48	288	1
TAP	49	0	2
TAP	49	96	3
TAP	49	192	4
TAP	49	288	5
BST	50	0	3
SI_	50	0	3	96	144	0
BST	50	0	4
SI_	50	0	4	96	144	7
STR	51	0	6
SI_	51	0	6	96	144	2
STR	52	0	1
SI_	52	0	1	96	144	4
STR	53	0	5
SI_	53	0	5	96	144	0
TAP	54	0	1
TAP	54	96	1
TAP	54	192	0
TAP	54	192	7
STR	55	0	7
SCL	55	0	7	96	144	4
STR	56	0	3
SCL	56	0	3	96	144	0
STR	57	0	7
SUL	57	0	7	96	144	3
TAP	58	0	2
TAP	58	96	2
BRK	58	192	3
BRK	58	192	4
HLD	59	0	5	192
HLD	59	192	4	192
HLD	60	0	3	192
TAP	60	192	2
HLD	61	0	1	192
HLD	61	192	0	192
HLD	62	0	7	192
TAP	62	192	6
TAP	63	0	5
TAP	63	96	5
TAP	63	192	4
TAP	63	192	5
TAP	64	0	2
TAP	64	96	2
TAP	64	192	2
TAP	64	192	3
TAP	65	0	5
TAP	65	96	5
TAP	65	192	4
TAP	65	192	5
TAP	66	0	3
TAP	66	0	4
BRK	66	96	2
BRK	66	96	5
TAP	67	0	1
TAP	67	96	0
TAP	67	96	1
TAP	67	192	1
TAP	67	288	0
TAP	67	288	1
TAP	68	0	6
TAP	68	96	6
TAP	68	96	7
TAP	68	192	6
TAP	68	288	6
TAP	68	288	7
TAP	69	0	5
TAP	69	96	5
TAP	69	192	4
TAP	69	288	4
XTP	70	0	3
XTP	70	96	2
XTP	70	96	4
XTP	70	192	1
XTP	70	192	5
TAP	71	0	5
TAP	71	96	4
TAP	71	96	5
TAP	71	192	5
TAP	71	288	4
TAP	71	288	5
TAP	72	0	2
TAP	72	96	2
TAP	72	96	3
TAP	72	192	2
TAP	72	288	2
TAP	72	288	3
TAP	73	0	1
TAP	73	96	0
TAP	73	192	7
TAP	73	288	6
BST	74	0	0
SCR	74	0	0	96	144	3
BST	74	0	7
SCL	74	0	7	96	144	4
TAP	75	0	5
TAP	75	96	4
TAP	75	96	5
TAP	75	192	5
TAP	75	288	4
TAP	75	288	5
TAP	76	0	2
TAP	76	96	2
TAP	76	96	3
TAP	76	192	2
TAP	76	288	2
TAP	76	288	3
TAP	77	0	1
TAP	77	96	1
TAP	77	192	0
TAP	77	288	0
XTP	78	0	7
XTP	78	96	0
XTP	78	96	6
XTP	78	192	1
XTP	78	192	5
TAP	79	0	1
TAP	79	96	0
TAP	79	96	1
TAP	79	192	1
TAP	79	288	0
TAP	79	288	1
TAP	80	0	6
TAP	80	96	6
TAP	80	96	7
TAP	80	192	6
TAP	80	288	6
TAP	80	288	7
TAP	81	0	5
TAP	81	96	4
TAP	81	192	3
TAP	81	288	2
BST	82	0	3
SI_	82	0	3	96	144	0
BST	82	0	4
SI_	82	0	4	96	144	7
STR	83	0	6
SUL	83	0	6	96	144	2
TAP	84	0	1
TAP	84	96	1
TAP	84	192	0
TAP	84	192	1
STR	85	0	1
SUR	85	0	1	96	144	5
TAP	86	0	6
TAP	86	96	6
TAP	86	192	6
TAP	86	192	7
STR	87	0	5
SCR	87	0	5	96	144	0
STR	88	0	1
SCR	88	0	1	96	144	4
TAP	89	0	5
TAP	89	96	4
TAP	89	96	5
TAP	89	192	2
TAP	89	288	2
TAP	89	288	3
TAP	90	0	3
TAP	90	0	4
TAP	90	96	2
TAP	90	96	5
XTP	90	240	3
XTP	90	240	4
XTP	90	288	3
XTP	90	288	4
XTP	90	336	3
XTP	90	336	4

T_REC_TAP	231
T_REC_BRK	8
T_REC_XTP	31
T_REC_HLD	14
T_REC_XHO	0
T_REC_STR	13
T_REC_BST	8
T_REC_XST	0
T_REC_TTP	27
T_REC_THO	0
T_REC_SLD	21
T_REC_ALL	353
T_NUM_TAP	302
T_NUM_BRK	16
T_NUM_HLD	14
T_NUM_SLD	21
T_NUM_ALL	353
T_JUDGE_TAP	318
T_JUDGE_HLD	52
T_JUDGE_SLD	21
T_JUDGE_ALL	391
TTM_EACHPAIRS	80
TTM_SCR_TAP	151000
TTM_SCR_BRK	41600
TTM_SCR_HLD	14000
TTM_SCR_SLD	31500
TTM_SCR_ALL	238100
TTM_SCR_S	229450
TTM_SCR_SS	236500
TTM_RAT_ACV	10067

