VERSION	0.00.00	1.03.00
FES_MODE	0
BPM_DEF	160.000	160.000	160.000	160.000
MET_DEF	4	4
RESOLUTION	384
CLK_DEF	384
COMPATIBLE_CODE	MA2

BPM	0	0	160.000
MET	0	0	4	4

TAP	2	0	0
TAP	3	0	0
TAP	4	0	7
BRK	5	0	7
TAP	6	0	0
HLD	6	96	0	192
TAP	7	96	1
HLD	7	192	1	192
TAP	8	192	2
HLD	8	288	2	192
TAP	9	288	3
TAP	9	288	4
HLD	10	0	3	192
HLD	10	0	4	192
XTP	11	0	4
TAP	11	192	4
TAP	12	0	4
TAP	12	0	5
TAP	13	0	6
TAP	13	192	6
TAP	14	0	6
TAP	14	0	7
TAP	15	0	1
TAP	15	192	1
TAP	16	0	0
TAP	16	0	1
TAP	17	0	7
TAP	17	192	7
TAP	18	0	0
TAP	18	0	7
TAP	19	0	7
TAP	19	192	7
TAP	20	0	6
TAP	20	192	6
TAP	21	0	5
TAP	21	192	5
XTP	22	0	4
XTP	22	0	5
TAP	23	0	3
TAP	23	192	3
TAP	24	0	2
TAP	24	192	2
TAP	25	0	1
TAP	25	192	1
XTP	26	0	0
XTP	26	0	1
STR	27	0	7
SI_	27	0	7	96	288	4
STR	29	0	3
SI_	29	0	3	96	288	7
STR	31	0	6
SI_	31	0	6	96	288	2
TAP	33	0	0
TAP	33	192	0
TAP	34	0	0
TAP	34	0	7
BRK	34	192	0
BRK	34	192	7
TAP	35	0	0
TAP	35	192	0
TAP	36	0	1
TAP	36	96	1
TAP	36	192	1
TAP	37	0	2
TAP	37	192	2
TAP	38	0	3
TAP	38	96	3
BRK	38	192	3
BRK	38	192	4
TAP	39	0	4
TAP	39	192	4
TAP	40	0	5
TAP	40	96	5
TAP	40	192	5
TAP	41	0	6
TAP	41	192	6
BRK	42	0	0
BRK	42	0	7
TAP	43	0	7
TAP	43	192	7
TAP	44	0	6
TAP	44	96	6
TAP	44	192	6
TAP	45	0	5
TAP	45	192	5
TAP	46	0	4
TAP	46	96	4
TAP	46	192	3
TAP	46	192	4
TAP	47	0	2
TAP	47	192	2
TAP	48	0	1
TAP	48	96	1
TAP	48	192	1
TAP	49	0	0
TAP	49	192	0
BRK	50	0	0
BRK	50	0	7
HLD	51	0	0	192
HLD	51	0	1	192
TAP	52	0	0
TAP	52	0	1
HLD	53	0	2	192
HLD	53	0	3	192
TAP	54	0	2
TAP	54	0	3
HLD	55	0	4	192
HLD	55	0	5	192
TAP	56	0	4
TAP	56	0	5
TAP	57	0	6
TAP	57	192	6
XTP	58	0	6
XTP	58	0	7
TTP	59	0	7	B	0	L1
TTP	59	192	6	B	0	L1
TTP	60	0	5	B	0	L1
TTP	60	192	4	B	0	L1
TTP	61	0	3	B	0	L1
TTP	61	192	2	B	0	L1
TTP	62	0	0	C	0	L1
TAP	63	0	1
TAP	63	96	1
TAP	63	192	1
TAP	64	0	7
TAP	64	96	7
TAP	64	192	7
TAP	65	0	0
TAP	65	96	0
TAP	65	192	0
BRK	66	0	6
BRK	66	0	7
BRK	66	96	6
BRK	66	96	7
TAP	67	0	0
TAP	67	96	0
TAP	67	192	0
TAP	68	0	1
TAP	68	96	1
TAP	68	192	1
TAP	69	0	2
TAP	69	96	2
TAP	69	192	2
XTP	70	0	3
XTP	70	0	4
XTP	70	96	3
XTP	70	96	4
BRK	70	192	3
BRK	70	192	4
TAP	71	0	4
TAP	71	96	4
TAP	71	192	4
TAP	72	0	5
TAP	72	96	5
TAP	72	192	5
TAP	73	0	6
TAP	73	96	6
TAP	73	192	6
BRK	74	0	0
BRK	74	0	7
TAP	75	0	7
TAP	75	96	7
TAP	75	192	6
TAP	75	288	6
TAP	76	0	4
TAP	76	0	5
TAP	76	96	4
TAP	76	96	5
TAP	76	192	4
TAP	76	192	5
TAP	77	0	3
TAP	77	96	3
TAP	77	192	2
TAP	77	288	2
BRK	78	0	0
BRK	78	0	1
BRK	78	96	0
BRK	78	96	1
BRK	78	192	0
BRK	78	192	1
TAP	79	0	0
TAP	79	96	0
TAP	79	192	1
TAP	79	288	1
TAP	80	0	2
TAP	80	96	2
XTP	80	192	3
XTP	80	192	4
XTP	80	288	3
XTP	80	288	4
TAP	81	0	5
TAP	81	96	5
TAP	81	192	6
TAP	81	288	6
BRK	82	0	0
BRK	82	0	7
TAP	83	0	6
TAP	83	96	6
TAP	83	192	6
TAP	83	192	7
HLD	84	0	6	192
HLD	84	0	7	192
TAP	85	0	5
TAP	85	96	5
TAP	85	192	4
TAP	85	192	5
HLD	86	0	4	192
HLD	86	0	5	192
TAP	87	0	2
TAP	87	96	2
TAP	87	192	2
TAP	87	192	3
HLD	88	0	2	192
HLD	88	0	3	192
TAP	89	0	1
TAP	89	96	1
TAP	89	192	0
TAP	89	288	0
TAP	90	0	0
TAP	90	0	7
TAP	90	96	0
TAP	90	96	7
XHO	90	192	1	144
XHO	90	192	6	144

T_REC_TAP	152
T_REC_BRK	25
T_REC_XTP	15
T_REC_HLD	17
T_REC_XHO	2
T_REC_STR	3
T_REC_BST	0
T_REC_XST	0
T_REC_TTP	7
T_REC_THO	0
T_REC_SLD	3
T_REC_ALL	224
T_NUM_TAP	177
T_NUM_BRK	25
T_NUM_HLD	19
T_NUM_SLD	3
T_NUM_ALL	224
T_JUDGE_TAP	202
T_JUDGE_HLD	74
T_JUDGE_SLD	3
T_JUDGE_ALL	279
TTM_EACHPAIRS	45
TTM_SCR_TAP	88500
TTM_SCR_BRK	65000
TTM_SCR_HLD	19000
TTM_SCR_SLD	4500
TTM_SCR_ALL	177000
TTM_SCR_S	169300
TTM_SCR_SS	174500
TTM_RAT_ACV	10143

