VERSION	0.00.00	1.05.00
FES_MODE	0
BPM_DEF	170.000	170.000	170.000	170.000
MET_DEF	4	4
RESOLUTION	384
CLK_DEF	384
COMPATIBLE_CODE	MA2

BPM	0	0	170.000
MET	0	0	4	4

NMTAP	1	0	3
NMTAP	1	72	3
NMTAP	1	144	3
NMTAP	1	192	3
NMTAP	1	288	3
NMTAP	2	0	3
NMTAP	2	72	3
NMTAP	2	144	3
NMTAP	2	192	3
NMTAP	2	240	4
NMTAP	2	288	2
NMTAP	3	0	4
NMTAP	3	72	4
NMTAP	3	144	4
NMTAP	3	192	4
NMTAP	3	288	4
NMTAP	4	0	4
NMTAP	4	72	4
NMTAP	4	144	4
BXHLD	4	192	2	48
BXHLD	4	192	4	96
EXSTR	5	0	3
NMSI_	5	0	3	96	48	7
NMSTR	5	192	1
NMSV_	5	192	1	96	48	2
NMSTR	5	192	5
NMSV_	5	192	5	96	48	4
NMSTR	6	0	3
NMSI_	6	0	3	96	48	7
NMSTR	6	192	1
NMSV_	6	192	1	96	48	2
NMSTR	6	192	5
NMSV_	6	192	5	96	48	4
NMSTR	7	0	3
NMSI_	7	0	3	96	48	7
NMTAP	7	192	0
NMTAP	7	192	6
NMTAP	7	240	0
NMTAP	7	240	6
NMHLD	7	288	1	384
NMTAP	7	288	5
NMTTP	8	0	6	E	1	M1
NMTTP	8	96	0	C	1	M1
NMTTP	8	192	2	E	1	M1
BRTAP	8	288	7
EXSTR	9	0	4
NMSI_	9	0	4	96	48	2
EXHLD	9	0	6	48
NMHLD	9	96	6	48
NMSTR	9	192	4
NMSCL	9	192	4	96	48	2
NMHLD	9	192	6	48
NMHLD	9	288	6	48
NMSTR	10	0	4
NMSI_	10	0	4	96	48	2
NMHLD	10	0	6	48
NMHLD	10	96	6	48
NMSTR	10	192	4
NMSI_	10	192	4	96	48	2
NMTAP	10	192	7
NMTAP	10	240	7
BRTAP	10	288	7
EXSTR	11	0	5
NMSI_	11	0	5	96	48	2
EXHLD	11	0	7	48
NMHLD	11	96	7	48
NMSTR	11	192	5
NMSCL	11	192	5	96	48	2
NMHLD	11	192	7	48
NMHLD	11	288	7	48
NMSTR	12	0	5
NMSI_	12	0	5	96	48	2
NMHLD	12	0	7	48
NMHLD	12	96	7	48
NMSTR	12	192	5
NMSI_	12	192	5	96	48	1
NMTAP	12	192	6
NMTAP	12	240	6
BRTAP	12	288	6
EXSTR	13	0	4
NMSI_	13	0	4	96	48	1
EXHLD	13	0	7	48
NMHLD	13	96	7	48
NMSTR	13	192	5
NMSI_	13	192	5	96	48	2
NMHLD	13	192	7	48
NMHLD	13	288	7	48
NMSTR	14	0	6
NMSUL	14	0	6	96	48	2
NMHLD	14	0	7	48
NMHLD	14	96	7	48
NMTAP	14	192	0
NMSTR	14	192	6
NMSCL	14	192	6	96	48	2
NMTAP	14	240	0
BRTAP	14	288	0
NMSTR	15	0	0
NMSI_	15	0	0	96	48	4
NMSTR	15	0	1
NMSI_	15	0	1	96	48	4
NMTAP	15	96	0
NMTAP	15	96	1
NMTAP	15	192	5
NMTAP	15	240	5
NMTAP	15	288	7
NMTAP	15	312	6
NMTAP	15	336	7
NMTAP	16	0	0
NMTAP	16	0	5
NMTAP	16	48	1
NMTAP	16	96	2
NMTAP	16	96	7
NMTAP	16	144	6
BRHLD	16	192	0	0
NMTAP	16	192	5
BRHLD	16	240	0	0
BRHLD	16	288	0	0
BRHLD	16	336	0	0
NMHLD	17	0	0	48
NMHLD	17	48	1	48
NMHLD	17	96	2	48
NMHLD	17	144	0	48
NMHLD	17	192	1	48
NMHLD	17	240	2	48
NMHLD	17	288	0	48
NMHLD	17	336	1	48
NMHLD	18	0	2	48
NMHLD	18	48	0	48
NMHLD	18	96	1	48
NMHLD	18	144	2	48
NMTAP	18	192	0
NMTAP	18	240	0
BRTAP	18	288	1
NMHLD	19	0	6	48
NMHLD	19	48	5	48
NMHLD	19	96	4	48
NMHLD	19	144	6	48
NMHLD	19	192	5	48
NMHLD	19	240	4	48
NMHLD	19	288	6	48
NMHLD	19	336	5	48
NMHLD	20	0	4	48
NMHLD	20	48	6	48
NMHLD	20	96	5	48
NMHLD	20	144	4	48
NMTAP	20	192	6
NMTAP	20	240	6
BRTAP	20	288	5
NMHLD	21	0	1	48
NMHLD	21	48	2	48
NMHLD	21	96	3	48
NMHLD	21	144	0	48
NMHLD	21	192	1	48
NMHLD	21	240	2	48
NMHLD	21	288	6	48
NMHLD	21	336	5	48
NMHLD	22	0	4	48
NMHLD	22	48	7	48
NMHLD	22	96	6	48
NMHLD	22	144	5	48
NMTAP	22	192	0
NMTAP	22	240	0
NMTAP	22	288	1
NMTAP	22	288	7
NMTAP	23	0	0
NMTAP	23	24	0
NMTAP	23	48	0
NMTAP	23	72	0
NMTAP	23	96	0
NMTAP	23	120	0
NMTAP	23	144	0
NMTAP	23	168	0
NMTAP	23	192	0
NMTAP	23	216	0
NMTAP	23	240	0
NMTAP	23	264	0
NMTAP	23	288	0
NMTAP	23	312	0
NMTAP	23	336	0
NMTAP	23	360	0
NMTAP	24	0	0
NMTAP	24	24	0
NMTAP	24	48	0
NMTAP	24	72	0
NMTAP	24	96	0
NMTAP	24	120	0
NMTAP	24	144	0
NMTAP	24	168	0
EXTAP	24	192	0
EXTAP	24	216	1
EXTAP	24	240	2
EXTAP	24	264	3
EXTAP	24	288	0
EXTAP	24	312	1
EXTAP	24	336	2
EXTAP	24	360	3
NMTTP	25	0	0	E	1	M1
NMTAP	25	0	4
NMTTP	27	0	5	A	0	M1
NMTTP	27	24	4	A	0	M1
NMTTP	27	48	3	A	0	M1
NMTTP	27	72	2	A	0	M1
NMTTP	27	192	5	A	0	M1
NMTTP	27	216	4	A	0	M1
NMTTP	27	240	3	A	0	M1
NMTTP	27	264	2	A	0	M1
NMTTP	28	0	5	B	0	M1
NMTTP	28	24	4	B	0	M1
NMTTP	28	48	3	B	0	M1
NMTTP	28	72	2	B	0	M1
NMTTP	28	192	5	B	0	M1
NMTTP	28	216	4	B	0	M1
NMTTP	28	240	3	B	0	M1
NMTTP	28	264	2	B	0	M1
NMTTP	29	0	5	A	0	M1
NMTTP	29	24	5	E	0	M1
NMTTP	29	48	4	B	0	M1
NMTTP	29	72	3	B	0	M1
NMTTP	29	96	3	E	0	M1
NMTTP	29	120	2	A	0	M1
NMTTP	29	192	5	A	0	M1
NMTTP	29	216	5	E	0	M1
NMTTP	29	240	4	B	0	M1
NMTTP	29	264	3	B	0	M1
NMTTP	29	288	3	E	0	M1
NMTTP	29	312	2	A	0	M1
NMTTP	30	0	7	E	0	M1
NMTTP	30	24	6	E	0	M1
NMTTP	30	48	5	E	0	M1
NMTTP	30	72	4	E	0	M1
NMTTP	30	96	3	E	0	M1
NMTTP	30	120	2	E	0	M1
NMTTP	30	144	1	E	0	M1
NMTTP	30	192	7	E	0	M1
NMTTP	30	216	6	E	0	M1
NMTTP	30	240	5	E	0	M1
NMTTP	30	264	4	E	0	M1
NMTTP	30	288	3	E	0	M1
NMTTP	30	312	2	E	0	M1
NMTTP	30	336	1	E	0	M1
NMTTP	31	0	7	A	0	M1
NMTTP	31	24	7	E	0	M1
NMTTP	31	48	6	B	0	M1
NMTTP	31	72	5	B	0	M1
NMTTP	31	96	3	A	0	M1
NMTTP	31	120	3	E	0	M1
NMTTP	31	144	2	B	0	M1
NMTTP	31	168	1	B	0	M1
NMTTP	31	192	6	A	0	M1
NMTTP	31	216	7	E	0	M1
NMTTP	31	240	7	B	0	M1
NMTTP	31	264	0	B	0	M1
NMTTP	31	288	2	A	0	M1
NMTTP	31	312	3	E	0	M1
NMTTP	31	336	3	B	0	M1
NMTTP	31	360	4	B	0	M1
NMTHO	32	0	5	96	A	0	M1
NMTHO	32	0	5	96	D	0	M1
NMTHO	32	0	6	96	D	0	M1
NMTHO	32	144	2	96	A	0	M1
NMTHO	32	144	2	96	D	0	M1
NMTHO	32	144	3	96	D	0	M1
BRTAP	32	288	0
BRTAP	32	288	7
NMSTR	33	0	6
NMSCL	33	0	6	96	48	3
NMTAP	33	48	6
NMSTR	33	96	7
NMSV_	33	96	7	96	48	2
NMTAP	33	144	7
NMSTR	33	192	6
NMSCL	33	192	6	96	48	3
NMTAP	33	240	6
NMSTR	33	288	7
NMSV_	33	288	7	96	48	2
NMTAP	33	336	7
NMSTR	34	0	6
NMSCL	34	0	6	96	48	3
NMTAP	34	48	6
NMSTR	34	96	7
NMSV_	34	96	7	96	48	2
NMTAP	34	144	7
NMSTR	34	192	6
NMSCL	34	192	6	96	48	3
NMTAP	34	240	6
NMSTR	34	288	7
NMSV_	34	288	7	96	48	2
NMTAP	34	336	7
NMSTR	35	0	6
NMSCL	35	0	6	96	48	3
NMTAP	35	48	6
NMSTR	35	96	7
NMSV_	35	96	7	96	48	2
NMTAP	35	144	7
NMSTR	35	192	6
NMSCL	35	192	6	96	48	3
NMTAP	35	240	6
NMSTR	35	288	7
NMSV_	35	288	7	96	48	2
NMTAP	35	336	7
NMSTR	36	0	6
NMSCL	36	0	6	96	48	3
NMTAP	36	48	6
NMTAP	36	96	7
NMTAP	36	144	7
BRTAP	36	192	0
BRTAP	36	192	4
NMSTR	37	0	1
NMSCR	37	0	1	96	48	4
NMTAP	37	48	1
NMSTR	37	96	0
NMSV_	37	96	0	96	48	5
NMTAP	37	144	0
NMSTR	37	192	1
NMSCR	37	192	1	96	48	4
NMTAP	37	240	1
NMSTR	37	288	0
NMSV_	37	288	0	96	48	5
NMTAP	37	336	0
NMSTR	38	0	1
NMSCR	38	0	1	96	48	4
NMTAP	38	48	1
NMSTR	38	96	0
NMSV_	38	96	0	96	48	5
NMTAP	38	144	0
NMSTR	38	192	1
NMSCR	38	192	1	96	48	4
NMTAP	38	240	1
NMSTR	38	288	0
NMSV_	38	288	0	96	48	5
NMTAP	38	336	0
NMSTR	39	0	1
NMSCR	39	0	1	96	48	4
NMTAP	39	48	1
NMSTR	39	96	0
NMSV_	39	96	0	96	48	5
NMTAP	39	144	0
NMSTR	39	192	1
NMSCR	39	192	1	96	48	4
NMTAP	39	240	1
NMSTR	39	288	0
NMSV_	39	288	0	96	48	5
NMTAP	39	336	0
NMSTR	40	0	1
NMSCR	40	0	1	96	48	4
NMTAP	40	48	1
NMTAP	40	96	0
NMTAP	40	144	0
BRTAP	40	192	3
BRTAP	40	192	7
NMTAP	41	0	5
NMTAP	41	24	5
NMTAP	41	48	4
NMTAP	41	96	5
NMTAP	41	120	5
NMTAP	41	144	4
NMTAP	41	192	5
NMTAP	41	216	5
NMTAP	41	240	6
NMTAP	41	288	5
NMTAP	41	312	5
NMTAP	41	336	6
NMTAP	42	0	5
NMTAP	42	24	5
NMTAP	42	48	7
NMTAP	42	96	5
NMTAP	42	120	5
NMTAP	42	144	0
NMTAP	42	192	5
NMTAP	42	216	5
NMTAP	42	240	1
NMTAP	42	288	2
NMTAP	42	288	4
NMTAP	43	0	2
NMTAP	43	24	2
NMTAP	43	48	3
NMTAP	43	96	2
NMTAP	43	120	2
NMTAP	43	144	3
NMTAP	43	192	2
NMTAP	43	216	2
NMTAP	43	240	1
NMTAP	43	288	2
NMTAP	43	312	2
NMTAP	43	336	1
NMTAP	44	0	2
NMTAP	44	24	2
NMTAP	44	48	0
NMTAP	44	96	2
NMTAP	44	120	2
NMTAP	44	144	7
NMTAP	44	192	2
NMTAP	44	216	2
NMTAP	44	240	6
NMTAP	44	288	3
NMTAP	44	288	5
NMTAP	45	0	5
NMHLD	45	48	5	48
NMTAP	45	96	4
NMHLD	45	144	4	48
NMTAP	45	192	3
NMHLD	45	240	3	48
NMTAP	45	288	2
NMHLD	45	336	2	48
NMTAP	46	0	6
NMHLD	46	48	6	48
NMTAP	46	96	7
NMHLD	46	144	7	48
NMTAP	46	192	0
NMHLD	46	240	0	48
NMTAP	46	288	1
NMHLD	46	336	1	48
NMTAP	47	0	3
NMTAP	47	24	2
NMTAP	47	72	5
NMTAP	47	96	4
NMTAP	47	120	5
NMTAP	47	168	3
NMTAP	47	192	4
NMTAP	47	216	3
NMTAP	47	264	5
NMTAP	47	288	4
NMTAP	47	336	3
NMTAP	47	336	6
NMTAP	48	0	3
NMTAP	48	0	6
NMTAP	48	48	2
NMTAP	48	96	1
NMTAP	48	96	5
NMTAP	48	144	6
NMTAP	48	192	2
NMTAP	48	192	7
NMTAP	48	204	6
NMTAP	48	216	5
NMTAP	48	228	4
NMTAP	48	240	3
NMTAP	48	252	2
NMTAP	48	264	1
NMTAP	48	276	0
NMSTR	48	288	7
NMSI_	48	288	7	96	48	2
BRSTR	49	0	3
NMSI_	49	0	3	96	48	0
BRSTR	49	0	7
NMSI_	49	0	7	96	48	4
NMTAP	49	96	3
NMSTR	49	96	7
NMSCL	49	96	7	96	96	1
BRTAP	49	192	3
NMSTR	49	288	7
NMSI_	49	288	7	96	48	2
BRSTR	50	0	3
NMSI_	50	0	3	96	48	0
BRSTR	50	0	7
NMSI_	50	0	7	96	48	4
NMTAP	50	96	3
NMSTR	50	96	7
NMSCL	50	96	7	96	96	1
BRTAP	50	192	3
NMTAP	50	288	7
BRTAP	51	0	0
BRSTR	51	0	6
NMSI_	51	0	6	96	48	2
NMSTR	51	96	0
NMSCR	51	96	0	96	48	3
NMTAP	51	96	6
NMTAP	51	192	0
NMTAP	51	192	4
NMSTR	51	240	5
NMSI_	51	240	5	96	48	1
NMSTR	51	336	0
NMSCR	51	336	0	96	48	3
NMTAP	51	336	5
NMTAP	52	48	0
NMTAP	52	48	7
NMSTR	52	96	6
NMSI_	52	96	6	96	48	2
NMSI_	52	96	6	96	48	3
NMTAP	52	192	6
NMTAP	52	288	1
NMTAP	52	288	4
NMSTR	53	0	0
NMSCR	53	0	0	96	96	4
NMTAP	53	0	5
NMSTR	53	96	4
NMSCR	53	96	4	96	96	0
NMSTR	53	192	0
NMSCR	53	192	0	96	96	4
NMSTR	53	288	4
BRSLL	53	288	4	96	96	0
NMSTR	54	0	0
NMSCL	54	0	0	96	96	4
NMSTR	54	96	4
NMSCL	54	96	4	96	96	0
NMTAP	54	192	0
NMTAP	54	288	4
NMTAP	55	0	0
NMHLD	55	0	5	96
NMTAP	55	96	7
NMHLD	55	144	7	96
NMTAP	55	240	0
NMTAP	55	288	0
NMTAP	56	0	1
NMTAP	56	0	3
NMTAP	56	96	2
NMTAP	56	96	3
NMTAP	56	192	1
NMTAP	56	216	3
NMTAP	56	264	3
NMSTR	56	288	0
NMSI_	56	288	0	96	48	5
NMSI_	56	288	0	96	48	6
BXSTR	57	0	0
NMSI_	57	0	0	96	48	2
NMSI_	57	0	0	96	48	3
NMSTR	57	96	0
NMSCL	57	96	0	96	96	2
BXTAP	57	192	3
NMSTR	57	288	0
NMSI_	57	288	0	96	48	5
NMSI_	57	288	0	96	48	6
BXSTR	58	0	0
NMSI_	58	0	0	96	48	2
NMSI_	58	0	0	96	48	3
NMSTR	58	96	0
NMSCL	58	96	0	96	96	2
BXTAP	58	192	3
NMTAP	58	288	0
NMSTR	59	0	7
BRSF_	59	0	7	96	48	3
BRTAP	59	96	7
BRTAP	59	192	1
BRTAP	59	192	7
BRSTR	59	240	0
BRSF_	59	240	0	96	48	4
BRTAP	59	336	0
NMTAP	60	48	0
NMHLD	60	96	0	96
NMHLD	60	192	7	72
NMHLD	60	264	6	72
EXSTR	60	336	5
NMSI_	60	336	5	96	144	1
EXSTR	61	144	7
NMSI_	61	144	7	96	96	3
EXSTR	61	288	1
NMSCR	61	288	1	96	96	4
EXSTR	62	0	7
NMSCL	62	0	7	96	96	4
EXSTR	62	144	2
NMSCL	62	144	2	96	96	7
EXSTR	62	288	6
NMSCL	62	288	6	96	96	3
EXSTR	63	0	0
NMSI_	63	0	0	96	96	4
EXSTR	63	144	7
NMSCR	63	144	7	96	96	2
NMTAP	64	0	1
NMTAP	64	0	3
NMTAP	64	48	0
NMTAP	64	96	4
NMTAP	64	96	6
NMTAP	64	144	7
NMTTP	64	192	1	E	0	M1
NMTTP	64	204	2	E	0	M1
NMTTP	64	216	3	E	0	M1
NMTTP	64	228	4	E	0	M1
NMTTP	64	240	5	E	0	M1
NMTTP	64	252	6	E	0	M1
NMTTP	64	264	7	E	0	M1
NMTTP	64	276	0	E	0	M1
NMTTP	64	288	0	C	1	M1
NMSTR	65	0	6
NMSI_	65	0	6	96	48	2
NMSTR	65	0	7
NMSI_	65	0	7	96	48	3
NMTAP	65	96	6
NMTAP	65	96	7
NMHLD	65	192	1	72
NMHLD	65	264	2	72
NMTAP	65	336	3
NMTAP	66	0	3
NMTAP	66	0	4
NMTAP	66	48	5
NMTAP	66	72	5
NMTAP	66	96	4
NMTAP	66	120	4
NMTAP	66	144	6
NMTAP	66	192	2
NMTAP	66	216	2
NMTAP	66	240	3
NMTAP	66	264	3
NMTAP	66	288	1
NMSTR	67	0	2
NMSV_	67	0	2	96	48	7
NMSTR	67	0	4
NMSV_	67	0	4	96	48	7
NMTAP	67	96	2
NMTAP	67	96	4
NMHLD	67	192	6	72
NMHLD	67	264	5	72
NMTAP	67	336	4
NMTAP	68	0	4
NMTAP	68	24	5
NMTAP	68	48	6
NMTAP	68	72	7
NMTAP	68	96	4
NMTAP	68	120	3
NMTAP	68	144	2
NMTAP	68	168	1
NMTAP	68	192	4
NMTAP	68	216	5
NMTAP	68	240	6
NMTAP	68	264	7
NMTAP	68	288	0
NMTAP	68	312	1
NMTAP	68	336	2
NMTAP	68	360	3
NMSTR	69	0	4
NMSI_	69	0	4	96	48	1
NMSI_	69	0	4	96	48	7
NMTAP	69	96	4
NMTAP	69	192	0
NMHLD	69	240	0	96
NMHLD	69	336	2	96
NMHLD	70	48	4	96
NMTAP	70	144	6
NMTAP	70	192	4
NMTAP	70	192	6
NMTAP	70	240	5
NMTAP	70	288	3
NMTAP	70	288	4
NMTAP	70	336	2
NMTAP	71	0	1
NMSTR	71	0	3
NMSXL	71	0	3	96	96	3
NMSXR	71	0	3	96	96	3
NMSTR	71	96	3
BRSSR	71	96	3	96	96	7
NMTAP	72	0	0
NMTAP	72	0	6
NMTAP	72	48	0
NMTAP	72	48	6
NMTAP	72	96	1
NMTAP	72	96	7
NMTAP	72	144	1
NMTAP	72	144	7
NMTAP	72	192	2
NMTAP	72	216	3
NMTAP	72	240	2
NMTAP	72	288	1
NMTAP	72	288	4
NMSTR	73	0	2
NMSI_	73	0	2	96	48	7
NMSTR	73	0	5
NMSCL	73	0	5	96	48	2
NMTAP	73	96	2
NMTAP	73	96	5
NMHLD	73	192	0	72
NMHLD	73	264	2	72
NMTAP	73	336	4
NMTAP	74	0	3
NMTAP	74	0	5
NMTAP	74	48	6
NMTAP	74	72	6
NMTAP	74	96	4
NMTAP	74	120	4
NMTAP	74	144	5
NMTAP	74	192	1
NMTAP	74	216	1
NMTAP	74	240	3
NMTAP	74	264	3
NMTAP	74	288	2
NMSTR	75	0	3
NMSI_	75	0	3	96	48	0
NMSTR	75	0	5
NMSI_	75	0	5	96	48	2
NMTAP	75	96	3
NMTAP	75	96	5
NMHLD	75	192	7	72
NMHLD	75	264	6	72
NMTAP	75	336	5
NMTAP	76	0	5
NMTAP	76	24	6
NMTAP	76	48	7
NMTAP	76	72	0
NMTAP	76	96	4
NMTAP	76	120	5
NMTAP	76	144	6
NMTAP	76	168	7
NMTAP	76	192	3
NMTAP	76	216	4
NMTAP	76	240	5
NMTAP	76	264	6
NMTAP	76	288	7
NMTAP	76	312	0
NMTAP	76	336	1
NMTAP	76	360	2
NMSTR	77	0	3
NMSI_	77	0	3	96	48	0
NMSTR	77	0	7
NMSI_	77	0	7	96	48	4
NMTAP	77	96	3
NMTAP	77	96	7
NMHLD	77	192	1	48
NMHLD	77	192	5	48
NMHLD	77	264	3	48
NMHLD	77	264	7	48
NMSTR	77	336	0
NMSCL	77	336	0	96	48	5
NMSTR	77	336	4
NMSCL	77	336	4	96	48	1
NMTAP	78	48	0
NMTAP	78	48	4
EXTAP	78	144	0
EXTAP	78	144	4
EXTAP	78	192	0
EXTAP	78	192	4
NMTAP	78	240	1
NMTAP	78	288	2
NMTAP	78	288	3
NMTAP	78	336	4
NMTAP	79	0	3
NMTAP	79	0	5
NMTAP	79	48	2
NMTAP	79	72	3
NMTAP	79	96	1
NMTAP	79	144	7
NMTAP	79	192	0
NMTAP	79	192	6
NMTAP	79	240	5
NMTAP	79	264	4
NMTAP	79	288	6
NMTAP	79	336	0
NMTAP	80	0	1
NMTAP	80	0	7
NMTAP	80	48	2
NMTAP	80	72	3
NMHLD	80	96	1	48
NMTAP	80	144	7
NMTAP	80	168	0
NMHLD	80	192	6	48
NMTAP	80	240	4
NMTAP	80	264	5
NMSTR	80	288	3
NMSF_	80	288	3	96	48	7
NMTAP	80	336	2
NMTAP	80	336	4
NMSTR	81	96	1
NMSI_	81	96	1	96	48	4
NMSTR	81	96	5
NMSI_	81	96	5	96	48	0
NMSTR	81	288	2
NMSCL	81	288	2	96	48	7
NMHLD	81	288	6	96
NMTAP	82	48	6
NMTAP	82	64	5
NMTAP	82	80	4
NMTAP	82	96	3
NMTAP	82	144	0
NMTAP	82	160	1
NMTAP	82	176	2
NMTAP	82	192	3
NMTAP	82	240	7
NMTAP	82	256	6
NMTAP	82	272	5
NMTAP	82	288	0
NMTAP	82	288	4
NMTTP	83	0	0	C	1	M1
NMTTP	83	0	1	B	0	M1
NMTTP	83	0	2	B	0	M1
NMTTP	83	0	2	E	0	M1
NMTTP	83	0	5	B	0	M1
NMTTP	83	0	6	B	0	M1
NMTTP	83	0	6	E	0	M1

T_REC_TAP	356
T_REC_BRK	19
T_REC_XTP	12
T_REC_BXX	2
T_REC_HLD	83
T_REC_XHO	3
T_REC_BHO	4
T_REC_BXH	2
T_REC_STR	81
T_REC_BST	6
T_REC_XST	12
T_REC_XBS	2
T_REC_TTP	78
T_REC_THO	6
T_REC_SLD	104
T_REC_BSL	4
T_REC_ALL	774
T_NUM_TAP	539
T_NUM_BRK	39
T_NUM_HLD	92
T_NUM_SLD	104
T_NUM_ALL	774
T_JUDGE_TAP	568
T_JUDGE_HLD	129
T_JUDGE_SLD	108
T_JUDGE_ALL	805
TTM_EACHPAIRS	84
TTM_SCR_TAP	269500
TTM_SCR_BRK	101400
TTM_SCR_HLD	92000
TTM_SCR_SLD	156000
TTM_SCR_ALL	618900
TTM_SCR_S	596550
TTM_SCR_SS	615000
TTM_RAT_ACV	10063

