VERSION	0.00.00	1.05.00
FES_MODE	0
BPM_DEF	170.000	170.000	170.000	170.000
MET_DEF	4	4
RESOLUTION	384
CLK_DEF	384
COMPATIBLE_CODE	MA2

BPM	0	0	170.000
MET	0	0	4	4

NMSTR	1	0	5
NMSCL	1	0	5	96	144	2
NMSTR	2	0	2
NMSCL	2	0	2	96	144	7
NMSTR	3	0	7
NMSCL	3	0	7	96	144	4
NMHLD	4	0	4	192
BRTAP	4	192	3
NMTAP	4	288	3
NMSTR	5	0	2
NMSCL	5	0	2	96	96	0
CNSI_	5	192	0	0	96	5
NMSTR	6	0	5
NMSCR	6	0	5	96	96	7
CNSI_	6	192	7	0	96	2
NMSTR	7	0	2
NMSI_	7	0	2	96	96	7
CNSCL	7	192	7	0	96	5
BRTAP	8	0	2
BRTAP	8	0	4
BRSTR	8	96	3
BRSI_	8	96	3	96	96	0
BRTAP	8	96	5
NMHLD	9	0	0	96
NMHLD	9	96	1	96
NMHLD	9	192	2	96
NMHLD	9	288	0	96
NMHLD	10	0	1	96
NMTAP	10	96	2
EXTAP	10	192	0
EXTAP	10	240	1
EXTAP	10	288	2
NMHLD	11	0	7	96
NMHLD	11	96	6	96
NMHLD	11	192	5	96
NMHLD	11	288	6	96
NMHLD	12	0	7	96
NMTAP	12	96	0
EXTAP	12	192	0
EXTAP	12	240	1
EXTAP	12	288	2
NMHLD	13	0	0	96
NMHLD	13	96	1	96
NMHLD	13	192	2	96
NMHLD	13	288	0	96
NMHLD	14	0	1	96
NMHLD	14	96	2	96
EXTAP	14	192	0
EXTAP	14	240	1
EXTAP	14	288	2
NMTAP	15	0	1
NMTAP	15	48	1
NMTAP	15	96	3
NMTAP	15	192	6
NMTAP	15	240	6
NMTAP	15	288	4
NMHLD	16	0	2	48
NMHLD	16	0	4	48
NMHLD	16	96	3	48
NMHLD	16	96	5	48
EXTAP	16	192	2
EXTAP	16	240	2
EXTAP	16	288	2
EXTAP	16	336	2
NMTAP	17	0	1
NMTAP	17	0	3
NMTAP	17	96	4
NMTAP	17	144	5
NMHLD	17	192	6	96
NMTAP	17	288	4
NMTAP	17	336	4
NMTAP	18	0	7
NMTAP	18	48	6
NMSTR	18	96	5
NMSI_	18	96	5	96	96	0
NMTAP	19	0	1
NMTAP	19	0	7
NMTAP	19	96	0
NMTAP	19	144	1
NMHLD	19	192	2	96
NMTAP	19	288	0
NMTAP	19	336	0
NMTAP	20	0	2
NMTAP	20	48	1
NMSTR	20	96	0
NMSI_	20	96	0	96	96	5
NMHLD	21	0	3	96
NMTAP	21	0	6
NMTAP	21	96	5
NMTAP	21	144	6
NMHLD	21	192	7	96
NMTAP	21	288	5
NMTAP	21	336	4
NMHLD	22	0	3	96
NMTAP	22	96	4
NMTAP	22	144	5
NMTAP	22	192	6
NMTAP	22	240	6
NMTAP	22	288	6
NMTAP	22	288	7
EXTAP	23	0	0
EXTAP	23	48	0
EXTAP	23	96	0
EXTAP	23	144	0
EXTAP	23	192	0
EXTAP	23	240	0
EXTAP	23	288	0
EXTAP	23	336	0
EXTAP	24	0	0
EXTAP	24	48	0
EXTAP	24	96	0
EXSTR	24	96	7
NMSI_	24	96	7	96	96	4
CNSI_	24	288	4	0	96	0
EXHLD	25	0	1	2688
NMTTP	27	0	4	E	0	M1
NMTTP	27	192	3	E	0	M1
NMTTP	28	0	2	E	0	M1
NMTTP	28	192	0	C	1	M1
NMTTP	29	0	0	E	0	M1
NMTTP	29	96	7	E	0	M1
NMTTP	29	192	6	E	0	M1
NMTTP	29	288	5	E	0	M1
NMTTP	30	0	4	E	0	M1
NMTTP	30	96	0	C	0	M1
NMTTP	30	192	0	E	0	M1
NMTTP	30	288	1	B	0	M1
NMTTP	31	0	3	B	0	M1
NMTTP	31	96	2	B	0	M1
NMTTP	31	192	4	E	0	M1
NMTTP	31	288	2	E	0	M1
NMTHO	32	0	0	192	C	1	M1
BRTAP	33	0	0
BRTAP	33	0	1
NMTAP	33	96	0
NMTAP	33	96	1
NMTAP	33	192	2
NMTAP	33	192	3
NMTAP	33	288	2
NMTAP	33	288	3
NMTAP	34	0	0
NMTAP	34	0	1
NMTAP	34	96	0
NMTAP	34	96	1
NMTAP	34	192	2
NMTAP	34	192	3
NMTAP	34	288	2
NMTAP	34	288	3
NMTAP	35	0	0
NMTAP	35	0	1
NMTAP	35	96	2
NMTAP	35	96	3
NMTAP	35	192	0
NMTAP	35	192	1
NMTAP	35	288	2
NMTAP	35	288	3
NMTAP	36	0	0
NMTAP	36	0	1
NMSTR	36	96	0
NMSI_	36	96	0	96	96	4
NMSTR	36	96	1
NMSI_	36	96	1	96	96	5
NMTAP	37	0	6
NMTAP	37	0	7
NMTAP	37	96	6
NMTAP	37	96	7
NMTAP	37	192	4
NMTAP	37	192	5
NMTAP	37	288	4
NMTAP	37	288	5
NMTAP	38	0	6
NMTAP	38	0	7
NMTAP	38	96	6
NMTAP	38	96	7
NMTAP	38	192	4
NMTAP	38	192	5
NMTAP	38	288	4
NMTAP	38	288	5
NMTAP	39	0	6
NMTAP	39	0	7
NMTAP	39	96	4
NMTAP	39	96	5
NMTAP	39	192	6
NMTAP	39	192	7
NMTAP	39	288	4
NMTAP	39	288	5
NMTAP	40	0	6
NMTAP	40	0	7
NMSTR	40	96	6
NMSI_	40	96	6	96	96	2
NMSTR	40	96	7
NMSI_	40	96	7	96	96	3
BRTAP	41	0	0
NMTAP	41	48	0
NMTAP	41	96	4
NMTAP	41	144	4
NMTAP	41	192	2
NMTAP	41	240	2
NMTAP	41	288	3
NMTAP	41	336	3
NMTAP	42	0	1
NMTAP	42	48	1
NMTAP	42	96	5
NMTAP	42	144	5
NMTAP	42	192	4
NMTAP	42	240	4
EXTAP	42	288	5
EXTAP	42	288	6
BRTAP	43	0	7
NMTAP	43	48	7
NMTAP	43	96	3
NMTAP	43	144	3
NMTAP	43	192	5
NMTAP	43	240	5
NMTAP	43	288	4
NMTAP	43	336	4
BRTAP	44	0	6
NMTAP	44	48	6
NMTAP	44	96	2
NMTAP	44	144	2
NMTAP	44	192	3
NMTAP	44	240	3
EXTAP	44	288	1
EXTAP	44	288	2
NMHLD	45	0	1	48
NMHLD	45	0	3	48
NMHLD	45	96	1	48
NMHLD	45	96	3	48
NMHLD	45	192	2	48
NMHLD	45	192	4	48
NMHLD	45	288	3	48
NMHLD	45	288	5	48
NMHLD	46	0	4	48
NMHLD	46	0	6	48
NMHLD	46	96	4	48
NMHLD	46	96	6	48
NMHLD	46	192	3	48
NMHLD	46	192	7	48
NMTAP	46	288	3
NMSTR	46	288	7
NMSI_	46	288	7	96	96	1
CNSI_	47	96	1	0	96	5
CNSI_	47	192	5	0	96	3
EXTAP	48	0	0
EXTAP	48	0	1
EXTAP	48	96	6
EXTAP	48	96	7
NMTTP	48	192	0	C	1	M1
NMTTP	48	192	2	B	0	M1
NMTTP	48	192	2	E	0	M1
NMTTP	48	192	3	B	0	M1
NMTTP	48	192	4	B	0	M1
NMTTP	48	192	5	E	0	M1
NMTAP	49	0	0
NMTAP	49	0	1
NMTAP	49	96	3
NMTAP	49	96	5
NMTAP	49	192	6
NMTAP	49	192	7
NMTAP	49	288	2
NMTAP	49	288	4
NMTAP	50	0	3
NMTAP	50	0	5
NMTAP	50	96	3
NMSTR	50	96	5
NMSI_	50	96	5	96	96	2
NMSI_	50	96	5	96	96	7
NMHLD	51	0	5	432
NMTAP	51	96	4
NMTAP	51	192	2
NMTAP	51	240	2
NMTAP	51	336	4
NMTAP	52	48	3
NMTAP	52	96	3
BRTAP	52	192	1
BRTAP	52	192	7
NMSTR	52	288	2
NMSCL	52	288	2	96	96	7
NMTAP	52	288	6
NMSTR	53	96	5
NMSCL	53	96	5	96	96	2
NMSTR	53	288	1
NMSCL	53	288	1	96	96	6
NMSTR	54	96	4
NMSI_	54	96	4	96	96	0
NMTAP	54	288	1
NMTAP	55	0	0
NMTAP	55	0	2
NMTAP	55	96	3
NMTAP	55	96	4
NMTAP	55	144	3
NMTAP	55	144	4
NMTAP	55	240	5
NMTAP	55	240	7
NMTAP	55	288	5
NMSTR	55	288	7
NMSLL	55	288	7	96	96	2
EXTAP	56	192	2
EXTAP	56	192	4
EXTAP	56	264	2
EXTAP	56	264	4
EXTAP	56	336	1
EXTAP	56	336	5
BXTAP	57	0	1
BXTAP	57	0	5
NMTAP	57	96	2
NMTAP	57	96	4
NMTAP	57	192	6
NMTAP	57	192	7
NMTAP	57	288	3
NMTAP	57	288	5
NMTAP	58	0	2
NMTAP	58	0	4
NMTAP	58	96	2
NMTAP	58	96	4
NMTAP	58	192	3
NMTAP	58	192	5
NMTAP	58	288	3
NMTAP	58	288	5
NMHLD	59	0	6	192
NMTAP	59	96	4
NMTAP	59	192	2
NMTAP	59	240	2
BRTAP	59	336	1
BRTAP	59	336	5
NMTAP	60	48	2
NMTAP	60	48	4
NMTAP	60	96	2
NMTAP	60	96	4
NMHLD	60	192	3	72
NMHLD	60	264	2	72
NMTAP	60	336	1
NMTAP	61	0	1
NMTAP	61	96	0
NMTAP	61	96	2
NMTAP	61	144	0
NMTAP	61	144	2
NMTAP	61	240	3
NMTAP	61	240	7
NMTAP	61	288	3
NMTAP	61	288	7
NMTAP	62	0	4
NMTAP	62	0	6
NMTAP	62	96	5
NMTAP	62	96	7
NMTAP	62	144	5
NMTAP	62	144	7
NMTAP	62	240	0
NMTAP	62	240	4
NMSTR	62	288	0
NMSXL	62	288	0	96	192	0
NMSTR	62	288	4
NMSXL	62	288	4	96	192	4
NMTAP	64	0	1
NMTAP	64	48	1
NMTAP	64	96	7
NMTAP	64	144	7
NMTAP	64	192	0
NMTAP	64	240	0
BXTAP	64	288	1
BXTAP	64	288	5
NMTAP	65	0	2
NMHLD	65	0	6	96
NMHLD	65	96	4	96
EXTAP	65	192	3
EXTAP	65	264	3
NMSTR	65	336	2
NMSI_	65	336	2	96	48	5
NMTAP	65	336	4
CNSI_	66	96	5	0	96	1
CNSI_	66	192	1	0	96	7
NMTAP	67	0	0
NMHLD	67	0	5	96
NMHLD	67	96	6	96
EXTAP	67	192	7
EXTAP	67	264	7
NMTAP	67	336	0
NMSTR	67	336	6
NMSI_	67	336	6	96	48	1
CNSI_	68	96	1	0	96	5
CNSI_	68	192	5	0	96	3
NMHLD	69	0	1	192
NMTAP	69	0	3
NMTAP	69	96	0
NMTAP	69	192	7
NMTAP	69	240	7
NMTAP	69	336	2
NMHLD	69	336	6	96
NMTAP	70	48	4
NMTAP	70	144	1
NMHLD	70	192	1	96
NMTAP	70	288	3
BRTAP	71	0	2
BRTAP	71	0	4
BRSTR	71	96	1
BRSXL	71	96	1	96	288	4
BRSTR	71	96	5
BRSXL	71	96	5	96	288	0
EXTAP	72	240	7
EXTAP	72	288	7
NMHLD	73	0	1	96
NMTAP	73	0	5
NMHLD	73	96	3	96
EXTAP	73	192	4
EXTAP	73	264	4
NMTAP	73	336	3
NMSTR	73	336	5
NMSI_	73	336	5	96	48	2
CNSI_	74	96	2	0	96	6
CNSI_	74	192	6	0	96	0
NMHLD	75	0	2	96
NMTAP	75	0	7
NMHLD	75	96	1	96
EXTAP	75	192	0
EXTAP	75	264	0
NMSTR	75	336	1
NMSI_	75	336	1	96	48	6
NMTAP	75	336	7
CNSI_	76	96	6	0	96	2
CNSI_	76	192	2	0	96	4
NMTAP	77	0	4
NMHLD	77	0	6	192
NMTAP	77	96	7
EXTAP	77	192	0
EXTAP	77	264	0
NMHLD	77	336	1	96
NMTAP	77	336	5
NMTAP	78	48	3
NMTAP	78	144	4
NMTAP	78	144	6
NMTAP	78	192	4
NMTAP	78	192	6
NMSTR	78	288	6
NMSI_	78	288	6	96	96	2
NMSTR	78	288	7
NMSI_	78	288	7	96	96	3
NMTAP	79	192	1
NMTAP	79	192	4
NMSTR	79	288	1
NMSCR	79	288	1	96	96	4
NMSTR	79	288	4
NMSCR	79	288	4	96	96	7
EXTAP	80	192	0
EXTAP	80	264	1
EXTAP	80	264	7
EXTAP	80	336	2
EXTAP	80	336	6
BXTAP	81	0	2
BXHLD	81	0	6	384
NMHLD	82	0	4	96
NMHLD	82	96	3	96
NMHLD	82	192	1	96
NMSTR	82	288	0
NMSI_	82	288	0	96	48	4
NMSI_	82	288	0	96	48	5

T_REC_TAP	211
T_REC_BRK	15
T_REC_XTP	55
T_REC_BXX	5
T_REC_HLD	60
T_REC_XHO	1
T_REC_BHO	0
T_REC_BXH	1
T_REC_STR	30
T_REC_BST	3
T_REC_XST	1
T_REC_XBS	0
T_REC_TTP	22
T_REC_THO	1
T_REC_SLD	33
T_REC_BSL	3
T_REC_ALL	441
T_NUM_TAP	319
T_NUM_BRK	27
T_NUM_HLD	62
T_NUM_SLD	33
T_NUM_ALL	441
T_JUDGE_TAP	342
T_JUDGE_HLD	185
T_JUDGE_SLD	36
T_JUDGE_ALL	563
TTM_EACHPAIRS	108
TTM_SCR_TAP	159500
TTM_SCR_BRK	70200
TTM_SCR_HLD	62000
TTM_SCR_SLD	49500
TTM_SCR_ALL	341200
TTM_SCR_S	328350
TTM_SCR_SS	338500
TTM_RAT_ACV	10079

