VERSION	0.00.00	1.05.00
FES_MODE	0
BPM_DEF	170.000	170.000	170.000	170.000
MET_DEF	4	4
RESOLUTION	384
CLK_DEF	384
COMPATIBLE_CODE	MA2

BPM	0	0	170.000
MET	0	0	4	4

NMSTR	1	0	1
NMSI_	1	0	1	96	288	4
NMTAP	2	192	5
NMSTR	3	0	6
NMSI_	3	0	6	96	288	3
NMTAP	4	192	2
NMSTR	5	0	1
NMSI_	5	0	1	96	288	5
NMTAP	6	192	6
NMSTR	7	0	6
NMSI_	7	0	6	96	288	2
NMTAP	9	0	0
NMTAP	9	96	0
NMTAP	9	192	1
NMTAP	10	0	2
NMTAP	10	96	2
NMTAP	10	192	3
NMTAP	11	0	4
NMTAP	11	96	4
NMTAP	11	192	5
NMTAP	12	0	6
NMTAP	12	96	6
NMTAP	12	192	0
NMTAP	12	192	7
NMTAP	13	0	7
NMTAP	13	96	7
NMTAP	13	192	6
NMTAP	14	0	5
NMTAP	14	96	5
NMTAP	14	192	4
NMTAP	15	0	3
NMTAP	15	96	3
NMTAP	15	192	2
NMTAP	16	0	1
NMTAP	16	96	1
NMTAP	16	192	0
NMTAP	16	192	7
NMTAP	17	0	1
NMTAP	17	96	1
NMTAP	17	192	0
NMTAP	17	192	1
NMTAP	18	0	2
NMTAP	18	96	2
NMTAP	18	192	2
NMTAP	18	192	3
NMTAP	19	0	4
NMTAP	19	96	4
NMTAP	19	192	4
NMTAP	19	192	5
NMTAP	20	0	6
NMTAP	20	0	7
NMTAP	20	96	6
NMTAP	20	96	7
NMTAP	20	192	6
NMTAP	20	192	7
NMTAP	21	0	6
NMTAP	21	96	6
NMTAP	21	192	6
NMTAP	21	192	7
NMTAP	22	0	5
NMTAP	22	96	5
NMTAP	22	192	4
NMTAP	22	192	5
NMTAP	23	0	3
NMTAP	23	96	3
NMTAP	23	192	2
NMTAP	23	192	3
NMTAP	24	0	0
NMTAP	24	0	1
NMTAP	24	96	0
NMTAP	24	96	1
NMTAP	24	192	0
NMTAP	24	192	1
NMHLD	25	0	2	192
NMHLD	25	192	3	192
NMHLD	26	0	4	192
NMTAP	26	192	5
NMHLD	27	0	5	192
NMHLD	27	192	4	192
NMHLD	28	0	3	192
NMTAP	28	192	2
NMHLD	29	0	1	192
NMHLD	29	192	2	192
NMHLD	30	0	3	192
NMTAP	30	192	4
NMHLD	31	0	6	192
NMHLD	31	192	5	192
NMHLD	32	0	4	192
NMTAP	32	192	3
NMTAP	33	0	5
NMTAP	33	96	5
NMTAP	33	192	5
NMTAP	33	288	5
NMTAP	34	0	6
NMTAP	34	96	6
NMTAP	34	192	6
NMTAP	34	288	6
NMTAP	35	0	7
NMTAP	35	96	7
NMTAP	35	192	7
NMTAP	35	288	7
NMTAP	36	0	0
NMTAP	36	0	1
NMTAP	36	192	0
NMTAP	36	192	1
NMTAP	37	0	2
NMTAP	37	96	2
NMTAP	37	192	2
NMTAP	37	288	2
NMTAP	38	0	1
NMTAP	38	96	1
NMTAP	38	192	1
NMTAP	38	288	1
NMTAP	39	0	0
NMTAP	39	96	0
NMTAP	39	192	0
NMTAP	39	288	0
NMTAP	40	0	6
NMTAP	40	0	7
NMTAP	40	192	6
NMTAP	40	192	7
NMSTR	41	0	6
NMSI_	41	0	6	96	192	3
NMSTR	42	0	1
NMSI_	42	0	1	96	192	4
NMSTR	43	0	5
NMSI_	43	0	5	96	192	0
NMTAP	44	0	1
NMTAP	44	192	0
NMTAP	44	192	1
NMTTP	45	0	1	B	0	L1
NMTTP	45	96	2	B	0	L1
NMTTP	45	192	3	B	0	L1
NMTTP	46	0	6	B	0	L1
NMTTP	46	96	5	B	0	L1
NMTTP	46	192	4	B	0	L1
NMTTP	47	0	1	B	0	L1
NMTTP	47	96	2	B	0	L1
NMTTP	47	192	3	B	0	L1
NMTTP	47	288	4	B	0	L1
NMTTP	48	0	0	C	1	L1
NMTAP	49	0	1
NMTAP	49	96	1
NMTAP	49	192	0
NMTAP	49	288	0
NMTAP	50	0	7
NMTAP	50	96	7
NMTAP	50	192	6
NMTAP	50	192	7
NMTAP	51	0	5
NMTAP	51	96	5
NMTAP	51	192	6
NMTAP	51	288	6
NMTAP	52	0	7
NMTAP	52	96	7
NMTAP	52	192	0
NMTAP	52	192	1
NMTAP	53	0	1
NMTAP	53	96	1
NMTAP	53	192	2
NMTAP	53	288	2
NMTAP	54	0	3
NMTAP	54	96	3
NMTAP	54	192	4
NMTAP	54	192	5
NMTAP	55	0	6
NMTAP	55	96	6
NMTAP	55	192	5
NMTAP	55	288	5
NMTAP	56	0	4
NMTAP	56	96	4
NMTAP	56	192	2
NMTAP	56	192	3
NMTAP	57	0	2
NMTAP	57	96	2
NMTAP	57	192	1
NMTAP	57	288	1
NMTAP	58	0	0
NMTAP	58	96	0
NMTAP	58	192	6
NMTAP	58	192	7
NMTAP	58	288	6
NMTAP	58	288	7
NMTAP	59	0	5
NMTAP	59	96	5
NMTAP	59	192	6
NMTAP	59	288	6
NMTAP	60	0	7
NMTAP	60	96	7
NMTAP	60	192	0
NMTAP	60	192	1
NMTAP	61	0	1
NMTAP	61	96	1
NMTAP	61	192	2
NMTAP	61	288	2
NMTAP	62	0	3
NMTAP	62	96	3
NMTAP	62	192	4
NMTAP	62	192	5
NMTAP	62	288	4
NMTAP	62	288	5
NMTAP	63	0	6
NMTAP	63	96	6
NMTAP	63	192	5
NMTAP	63	288	5
NMTAP	64	0	4
NMTAP	64	96	4
BXTAP	64	192	2
BXTAP	64	192	3
NMTAP	65	0	1
NMTAP	65	96	1
NMTAP	65	192	0
NMTAP	65	192	1
NMTAP	65	288	0
NMTAP	65	288	1
NMTAP	66	0	2
NMTAP	66	96	2
NMTAP	66	192	2
NMTAP	66	192	3
NMTAP	66	288	2
NMTAP	66	288	3
NMTAP	67	0	4
NMTAP	67	96	4
NMTAP	67	192	4
NMTAP	67	192	5
NMTAP	67	288	4
NMTAP	67	288	5
NMTAP	68	0	6
NMTAP	68	96	6
NMTAP	68	192	6
NMTAP	68	192	7
NMTAP	69	0	6
NMTAP	69	96	6
NMTAP	69	192	6
NMTAP	69	192	7
NMTAP	69	288	6
NMTAP	69	288	7
NMTAP	70	0	5
NMTAP	70	96	5
NMTAP	70	192	4
NMTAP	70	192	5
NMTAP	70	288	4
NMTAP	70	288	5
NMTAP	71	0	3
NMTAP	71	96	3
NMTAP	71	192	2
NMTAP	71	192	3
NMTAP	71	288	2
NMTAP	71	288	3
NMTAP	72	0	1
NMTAP	72	96	1
NMTAP	72	192	0
NMTAP	72	192	1
NMTAP	73	0	0
NMTAP	73	96	1
NMTAP	73	192	2
NMTAP	73	288	3
NMTAP	74	0	4
NMTAP	74	96	5
NMTAP	74	192	6
NMTAP	74	192	7
NMTAP	75	0	7
NMTAP	75	96	6
NMTAP	75	192	5
NMTAP	75	288	4
NMTAP	76	0	3
NMTAP	76	96	2
NMTAP	76	192	0
NMTAP	76	192	1
NMTAP	77	0	0
NMTAP	77	96	1
NMTAP	77	192	2
NMTAP	77	288	3
NMTAP	78	0	4
NMTAP	78	96	5
NMTAP	78	192	6
NMTAP	78	288	7
NMTAP	79	0	0
NMTAP	79	96	1
NMTAP	79	192	2
NMTAP	79	288	3
NMTAP	80	0	3
NMTAP	80	0	4
NMTAP	80	96	3
NMTAP	80	96	4
NMTAP	80	192	2
NMTAP	80	192	5
NMTAP	80	288	2
NMTAP	80	288	5
BRTAP	81	0	1
BRTAP	81	0	6

T_REC_TAP	250
T_REC_BRK	2
T_REC_XTP	0
T_REC_BXX	2
T_REC_HLD	12
T_REC_XHO	0
T_REC_BHO	0
T_REC_BXH	0
T_REC_STR	7
T_REC_BST	0
T_REC_XST	0
T_REC_XBS	0
T_REC_TTP	11
T_REC_THO	0
T_REC_SLD	7
T_REC_BSL	0
T_REC_ALL	291
T_NUM_TAP	268
T_NUM_BRK	4
T_NUM_HLD	12
T_NUM_SLD	7
T_NUM_ALL	291
T_JUDGE_TAP	272
T_JUDGE_HLD	48
T_JUDGE_SLD	7
T_JUDGE_ALL	327
TTM_EACHPAIRS	50
TTM_SCR_TAP	134000
TTM_SCR_BRK	10400
TTM_SCR_HLD	12000
TTM_SCR_SLD	10500
TTM_SCR_ALL	166900
TTM_SCR_S	161550
TTM_SCR_SS	166500
TTM_RAT_ACV	10024

