VERSION	0.00.00	1.05.00
FES_MODE	0
BPM_DEF	170.000	170.000	170.000	170.000
MET_DEF	4	4
RESOLUTION	384
CLK_DEF	384
COMPATIBLE_CODE	MA2

BPM	0	0	170.000
MET	0	0	4	4

NMTAP	5	0	0
NMTAP	5	192	0
NMTAP	6	0	0
NMTAP	7	0	7
NMTAP	7	192	7
EXTAP	8	0	0
EXTAP	8	0	7
NMTAP	9	0	0
NMTAP	9	192	0
NMTAP	10	0	1
NMTAP	10	192	1
NMTAP	11	0	2
NMTAP	11	192	2
NMTAP	12	0	3
NMTAP	12	0	4
NMTAP	13	0	4
NMTAP	13	192	4
NMTAP	14	0	5
NMTAP	14	192	5
NMTAP	15	0	6
NMTAP	15	192	6
NMTAP	16	0	0
NMTAP	16	0	7
NMTAP	17	0	7
NMTAP	17	96	7
NMTAP	17	192	7
NMTAP	18	0	6
NMTAP	18	192	6
NMTAP	19	0	5
NMTAP	19	192	5
NMTAP	20	0	3
NMTAP	20	0	4
NMTAP	21	0	3
NMTAP	21	96	3
NMTAP	21	192	3
NMTAP	22	0	2
NMTAP	22	192	2
NMTAP	23	0	1
NMTAP	23	192	1
NMTAP	24	0	0
NMTAP	24	0	7
NMHLD	25	0	0	384
NMHLD	25	0	1	384
NMHLD	27	0	2	384
NMHLD	27	0	3	384
NMHLD	29	0	4	384
NMHLD	29	0	5	384
NMHLD	31	0	6	384
NMHLD	31	0	7	384
BRTAP	33	0	6
BRTAP	33	0	7
NMTAP	33	192	6
NMTAP	33	192	7
NMTAP	34	0	6
NMTAP	34	0	7
NMTAP	35	0	4
NMTAP	35	0	5
NMTAP	35	192	4
NMTAP	35	192	5
NMTAP	36	0	4
NMTAP	36	0	5
NMTAP	37	0	2
NMTAP	37	0	3
NMTAP	37	192	2
NMTAP	37	192	3
NMTAP	38	0	2
NMTAP	38	0	3
NMTAP	39	0	0
NMTAP	39	0	1
NMTAP	39	192	0
NMTAP	39	192	1
NMTAP	40	0	0
NMTAP	40	0	1
NMTTP	41	0	1	E	0	L1
NMTTP	42	0	2	E	0	L1
NMTTP	43	0	3	E	0	L1
NMTTP	44	0	4	E	0	L1
NMTTP	45	0	5	E	0	L1
NMTTP	46	0	6	E	0	L1
NMTTP	47	0	7	E	0	L1
NMTTP	48	0	0	C	1	L1
NMTAP	49	0	7
NMTAP	49	96	7
NMTAP	49	192	7
NMTAP	50	0	6
NMTAP	50	192	6
NMTAP	51	0	5
NMTAP	51	96	5
NMTAP	51	192	5
NMTAP	52	0	3
NMTAP	52	0	4
NMTAP	52	192	3
NMTAP	52	192	4
NMTAP	53	0	3
NMTAP	53	96	3
NMTAP	53	192	3
NMTAP	54	0	2
NMTAP	54	192	2
NMTAP	55	0	1
NMTAP	55	96	1
NMTAP	55	192	1
NMTAP	56	0	0
NMTAP	56	0	7
NMTAP	57	0	0
NMTAP	57	96	0
NMTAP	57	192	0
NMTAP	58	0	1
NMTAP	58	192	1
NMTAP	59	0	2
NMTAP	59	96	2
NMTAP	59	192	2
NMTAP	60	0	3
NMTAP	60	0	4
NMTAP	60	192	3
NMTAP	60	192	4
NMTAP	61	0	4
NMTAP	61	96	4
NMTAP	61	192	4
NMTAP	62	0	5
NMTAP	62	192	5
NMTAP	63	0	6
NMTAP	63	96	6
NMTAP	63	192	6
BRTAP	64	0	0
BRTAP	64	0	7
NMSTR	65	0	7
NMSI_	65	0	7	96	288	3
NMSTR	67	0	0
NMSI_	67	0	0	96	288	4
NMSTR	69	0	6
NMSI_	69	0	6	96	288	2
NMSTR	71	0	1
NMSI_	71	0	1	96	288	5
NMTAP	73	0	6
NMTAP	73	96	6
NMTAP	73	192	6
NMTAP	74	0	6
NMTAP	74	0	7
NMTAP	74	192	6
NMTAP	74	192	7
NMTAP	75	0	5
NMTAP	75	96	5
NMTAP	75	192	5
NMTAP	76	0	4
NMTAP	76	0	5
NMTAP	76	192	4
NMTAP	76	192	5
NMTAP	77	0	3
NMTAP	77	96	3
NMTAP	77	192	3
NMTAP	78	0	2
NMTAP	78	0	3
NMTAP	78	192	2
NMTAP	78	192	3
NMTAP	79	0	1
NMTAP	79	96	1
NMTAP	79	192	1
NMTAP	80	0	0
NMTAP	80	0	1
NMTAP	80	192	0
NMTAP	80	192	1
NMTAP	81	0	7
NMTAP	81	96	7
NMTAP	81	192	7
NMTAP	82	0	0
NMTAP	82	96	0
NMTAP	82	192	0
BXTAP	83	0	0
BXTAP	83	0	7

T_REC_TAP	137
T_REC_BRK	4
T_REC_XTP	2
T_REC_BXX	2
T_REC_HLD	8
T_REC_XHO	0
T_REC_BHO	0
T_REC_BXH	0
T_REC_STR	4
T_REC_BST	0
T_REC_XST	0
T_REC_XBS	0
T_REC_TTP	8
T_REC_THO	0
T_REC_SLD	4
T_REC_BSL	0
T_REC_ALL	169
T_NUM_TAP	151
T_NUM_BRK	6
T_NUM_HLD	8
T_NUM_SLD	4
T_NUM_ALL	169
T_JUDGE_TAP	157
T_JUDGE_HLD	64
T_JUDGE_SLD	4
T_JUDGE_ALL	225
TTM_EACHPAIRS	36
TTM_SCR_TAP	75500
TTM_SCR_BRK	15600
TTM_SCR_HLD	8000
TTM_SCR_SLD	6000
TTM_SCR_ALL	105100
TTM_SCR_S	101400
TTM_SCR_SS	104500
TTM_RAT_ACV	10057

