VERSION	0.00.00	1.05.00
FES_MODE	0
BPM_DEF	175.000	175.000	175.000	175.000
MET_DEF	4	4
RESOLUTION	384
CLK_DEF	384
COMPATIBLE_CODE	MA2

BPM	0	0	175.000
MET	0	0	4	4

NMTAP	1	0	2
NMTAP	1	48	2
NMTAP	1	96	3
NMTAP	1	144	2
NMTAP	1	240	2
NMTAP	1	240	4
NMTAP	1	288	2
NMTAP	1	288	4
NMTAP	2	0	5
NMTAP	2	48	5
NMTAP	2	96	4
NMTAP	2	144	5
NMTAP	2	240	3
NMTAP	2	240	5
NMTAP	2	288	3
NMTAP	2	288	5
NMTAP	3	0	2
NMTAP	3	48	2
NMTAP	3	96	3
NMTAP	3	144	3
NMTAP	3	192	1
NMTAP	3	240	1
NMTAP	3	288	6
NMTAP	3	336	6
NMTAP	4	0	4
NMTAP	4	48	4
NMTAP	4	96	5
NMTAP	4	144	5
NMTAP	4	240	3
NMTAP	4	240	6
NMTAP	4	288	3
NMTAP	4	288	6
NMTAP	5	0	2
NMTAP	5	48	2
NMTAP	5	96	3
NMTAP	5	144	1
NMTAP	5	240	2
NMTAP	5	240	3
NMTAP	5	288	2
NMTAP	5	288	3
NMTAP	5	336	4
NMTAP	6	0	5
NMTAP	6	48	5
NMTAP	6	96	4
NMTAP	6	144	6
NMTAP	6	240	4
NMTAP	6	240	5
NMTAP	6	288	4
NMTAP	6	288	5
NMTAP	6	336	3
NMTAP	7	0	2
NMTAP	7	48	2
NMTAP	7	96	3
NMTAP	7	144	1
NMTAP	7	192	5
NMTAP	7	240	5
NMTAP	7	288	4
NMTAP	7	336	6
NMTAP	8	0	0
NMTAP	8	0	7
NMTAP	8	48	0
NMTAP	8	48	7
NMTAP	8	96	1
NMTAP	8	96	6
NMTAP	8	144	2
NMTAP	8	144	5
NMSTR	8	288	4
NMSI_	8	288	4	96	96	6
NMTHO	9	0	0	384	C	0	M1
CNSCR	9	96	6	0	120	7
CNSI_	9	216	7	0	120	1
CNSCR	9	336	1	0	144	2
CNSI_	10	96	2	0	96	4
NMSTR	10	288	1
NMSI_	10	288	1	96	192	6
NMSTR	10	288	6
NMSI_	10	288	6	96	192	1
CNSI_	11	192	1	0	192	4
CNSI_	11	192	6	0	192	3
CNSI_	12	0	3	0	192	0
CNSI_	12	0	4	0	192	0
NMTAP	12	288	2
NMHLD	13	0	1	96
NMHLD	13	0	3	96
NMHLD	13	192	4	96
NMHLD	13	192	5	96
NMTAP	14	0	6
NMSTR	14	96	7
NMSI_	14	96	7	96	72	5
NMSTR	14	192	7
NMSI_	14	192	7	96	72	3
NMHLD	15	0	4	48
NMHLD	15	0	5	48
NMTAP	15	96	2
NMTAP	15	96	7
NMHLD	15	192	2	48
NMHLD	15	192	3	48
NMTAP	15	288	0
NMTAP	15	288	5
NMTAP	16	0	1
NMTAP	16	48	2
NMTAP	16	72	3
NMTAP	16	96	2
NMTAP	16	144	1
NMTAP	16	144	5
NMTAP	16	192	1
NMTAP	16	192	5
BRTAP	16	240	7
BRTAP	16	288	7
NMSTR	17	0	1
NMSI_	17	0	1	96	48	4
NMTAP	17	48	0
NMTAP	17	96	1
NMSTR	17	144	5
NMSI_	17	144	5	96	48	2
NMTAP	17	240	5
NMTAP	17	288	0
NMTAP	17	336	0
NMSTR	18	0	6
NMSI_	18	0	6	96	48	3
NMTAP	18	48	7
NMTAP	18	96	6
NMSTR	18	144	2
NMSI_	18	144	2	96	48	5
NMTAP	18	240	2
NMTAP	18	288	7
NMTAP	18	336	7
NMSTR	19	0	1
NMSI_	19	0	1	96	48	4
NMTAP	19	48	0
NMTAP	19	96	1
NMSTR	19	144	5
NMSI_	19	144	5	96	48	2
NMTAP	19	240	5
NMTAP	19	288	0
NMTAP	19	336	0
NMTAP	20	0	5
NMTAP	20	48	6
NMTAP	20	72	7
NMTAP	20	96	6
NMHLD	20	144	1	96
NMTAP	20	240	0
NMTAP	20	288	0
NMTAP	20	336	7
NMSTR	21	0	6
NMSI_	21	0	6	96	48	3
NMTAP	21	48	7
NMTAP	21	96	6
NMSTR	21	144	2
NMSI_	21	144	2	96	48	5
NMTAP	21	240	2
NMTAP	21	288	7
NMTAP	21	336	7
NMSTR	22	0	1
NMSI_	22	0	1	96	48	4
NMTAP	22	48	0
NMTAP	22	96	1
NMSTR	22	144	5
NMSI_	22	144	5	96	48	2
NMTAP	22	240	5
NMTAP	22	288	0
NMTAP	22	336	0
NMSTR	23	0	6
NMSI_	23	0	6	96	48	3
NMTAP	23	48	7
NMTAP	23	96	6
NMSTR	23	144	1
NMSI_	23	144	1	96	48	4
NMTAP	23	240	1
NMTAP	23	288	7
NMTAP	23	336	7
NMTTP	24	0	7	E	0	M1
NMTTP	24	24	6	E	0	M1
NMTTP	24	48	5	E	0	M1
NMTTP	24	72	4	A	0	M1
NMTTP	24	96	1	E	0	M1
NMTTP	24	120	2	E	0	M1
NMTTP	24	144	3	E	0	M1
NMTTP	24	168	3	A	0	M1
NMTAP	24	192	7
NMTAP	24	240	7
NMTAP	24	288	1
NMTAP	24	336	1
NMSTR	25	0	6
NMSCL	25	0	6	96	48	3
NMTAP	25	48	7
NMTAP	25	96	6
NMSTR	25	144	0
NMSI_	25	144	0	96	48	4
NMTAP	25	240	0
NMTAP	25	288	6
NMTAP	25	336	6
NMSTR	26	0	1
NMSCR	26	0	1	96	48	4
NMTAP	26	48	0
NMTAP	26	96	1
NMSTR	26	144	7
NMSI_	26	144	7	96	48	3
NMTAP	26	240	7
NMTAP	26	288	1
NMTAP	26	336	1
NMSTR	27	0	6
NMSCL	27	0	6	96	48	3
NMTAP	27	48	7
NMTAP	27	96	6
NMSTR	27	144	0
NMSI_	27	144	0	96	48	4
NMTAP	27	240	0
NMTAP	27	288	6
NMTAP	27	336	6
NMTAP	28	0	2
NMTAP	28	48	1
NMTAP	28	72	0
NMTAP	28	96	1
NMHLD	28	144	6	96
NMTAP	28	240	7
NMTAP	28	288	7
NMTAP	28	336	0
NMSTR	29	0	1
NMSCR	29	0	1	96	48	4
NMTAP	29	48	0
NMTAP	29	96	1
NMSTR	29	144	7
NMSI_	29	144	7	96	48	3
NMTAP	29	240	7
NMTAP	29	288	1
NMTAP	29	336	1
NMSTR	30	0	6
NMSCL	30	0	6	96	48	3
NMTAP	30	48	7
NMTAP	30	96	6
NMSTR	30	144	0
NMSI_	30	144	0	96	48	4
NMTAP	30	240	0
NMTAP	30	288	6
NMTAP	30	336	6
EXTAP	31	0	5
EXTAP	31	24	5
EXTAP	31	72	4
EXTAP	31	96	4
EXTAP	31	144	3
EXTAP	31	168	3
EXTAP	31	216	2
EXTAP	31	240	2
EXTAP	31	288	0
EXTAP	31	288	1
EXTAP	31	336	0
EXTAP	31	336	1
NMTAP	32	0	0
NMTAP	32	0	7
NMTAP	32	48	1
NMTAP	32	48	6
NMTAP	32	96	2
NMTAP	32	96	5
NMTAP	32	144	3
NMTAP	32	144	4
NMTAP	32	168	3
NMTAP	32	168	4
BRTAP	32	288	1
BRTAP	32	288	6
NMHLD	33	0	5	96
NMHLD	33	96	4	96
NMHLD	33	192	3	96
NMSTR	33	288	2
NMSI_	33	288	2	96	144	5
NMTAP	34	0	2
NMTAP	34	96	4
NMTAP	34	192	4
NMTAP	34	288	6
NMTAP	35	0	5
NMTAP	35	48	5
NMTAP	35	96	4
NMTAP	35	192	3
NMTAP	35	240	3
NMHLD	35	288	5	96
NMTTP	36	0	6	E	0	M1
NMTTP	36	96	0	C	0	M1
NMTTP	36	192	2	E	0	M1
NMTAP	36	288	0
NMTAP	36	288	1
NMHLD	37	0	1	96
NMHLD	37	96	2	96
NMTAP	37	192	3
NMSTR	37	288	2
NMSI_	37	288	2	96	144	5
NMTAP	37	288	4
NMTAP	38	0	2
NMTAP	38	96	4
NMTAP	38	192	6
NMTTP	38	288	0	C	0	M1
NMTAP	39	0	6
NMTAP	39	48	7
NMHLD	39	96	6	96
NMTAP	39	192	1
NMTAP	39	240	0
NMHLD	39	288	1	96
NMSTR	40	0	0
NMSCL	40	0	0	96	144	4
NMTAP	40	96	0
NMTAP	40	192	1
NMTTP	40	288	0	C	0	M1
NMTAP	41	0	6
NMTAP	41	48	6
NMTAP	41	96	7
NMTAP	41	144	7
NMTAP	41	192	0
NMTAP	41	192	5
BRSTR	41	288	2
NMSI_	41	288	2	96	144	5
BRHLD	41	288	4	96
NMTAP	42	0	2
NMTAP	42	96	6
NMTAP	42	192	6
NMTTP	42	240	5	B	1	M1
NMTTP	42	288	2	B	1	M1
NMTAP	43	0	0
NMTAP	43	96	1
NMTAP	43	96	3
NMSTR	43	192	3
NMSV_	43	192	3	96	168	1
NMTAP	43	192	5
NMTAP	43	288	3
NMTAP	43	288	5
NMTAP	44	0	4
CNSCL	44	72	1	0	72	5
NMTAP	44	96	4
NMHLD	44	192	4	96
BRTAP	44	240	5
BRTAP	44	288	5
NMTAP	45	0	3
NMTAP	45	0	6
NMTAP	45	48	3
NMTAP	45	48	6
NMTAP	45	96	5
NMTAP	45	120	4
NMTAP	45	144	5
NMSTR	45	192	6
NMSI_	45	192	6	96	48	3
NMTAP	45	240	6
NMTAP	45	288	7
NMTAP	46	0	1
NMTAP	46	0	4
NMTAP	46	48	1
NMTAP	46	48	4
NMTAP	46	96	2
NMTAP	46	120	3
NMTAP	46	144	2
NMSTR	46	192	1
NMSI_	46	192	1	96	48	4
NMTAP	46	240	1
NMTAP	46	288	0
NMTAP	47	0	6
NMTAP	47	48	6
NMTAP	47	96	4
NMTAP	47	144	4
NMTAP	47	192	3
NMTAP	47	240	3
NMTAP	47	288	1
NMHLD	47	336	1	96
NMTTP	48	0	5	E	0	M1
NMTTP	48	24	6	E	0	M1
NMTTP	48	48	7	E	0	M1
NMTTP	48	72	0	E	0	M1
NMTTP	48	96	1	E	0	M1
NMTTP	48	120	2	E	0	M1
NMTTP	48	144	3	E	0	M1
NMTTP	48	168	4	E	0	M1
NMTTP	48	192	5	E	0	M1
NMTTP	48	216	6	E	0	M1
NMTTP	48	240	7	E	0	M1
NMTTP	48	264	0	E	0	M1
NMTTP	48	288	1	E	0	M1
NMTTP	48	312	2	E	0	M1
NMTTP	48	336	3	E	0	M1
NMTTP	48	360	4	E	0	M1
EXHLD	49	0	0	384
NMTTP	49	192	5	B	0	M1
NMHLD	50	0	6	384
NMTTP	50	192	3	B	0	M1
NMHLD	51	0	4	384
NMTTP	51	192	1	B	0	M1
NMHLD	52	0	2	192
NMTTP	52	192	0	E	0	M1
NMHLD	53	0	0	48
NMHLD	53	0	6	48
NMHLD	53	96	5	48
NMHLD	53	96	7	48
NMHLD	53	192	4	48
NMHLD	53	192	6	48
NMHLD	53	288	3	48
NMHLD	53	288	5	48
NMHLD	54	0	2	96
NMHLD	54	96	4	96
NMHLD	54	192	6	96
NMSTR	54	288	0
NMSI_	54	288	0	96	48	4
BRTAP	55	0	0
NMSTR	55	96	0
NMSCR	55	96	0	96	48	3
NMSTR	55	96	7
NMSCL	55	96	7	96	48	4
BRTAP	55	192	0
BRTAP	55	192	7
BRSTR	55	288	1
BRSXR	55	288	1	96	96	7
BRSTR	56	0	7
BRSCR	56	0	7	96	48	1
CNSI_	56	144	1	0	48	3
NMSTR	56	288	4
NMSCR	56	288	4	96	96	0
NMSTR	57	0	0
NMSCR	57	0	0	96	96	4
NMSTR	57	96	4
NMSCR	57	96	4	96	96	0
NMSTR	57	192	0
NMSCR	57	192	0	96	96	4
NMTAP	57	288	4
NMTAP	58	0	0
NMTAP	58	48	6
NMTAP	58	72	7
NMTAP	58	96	6
NMTAP	58	144	0
NMTAP	58	144	5
NMTAP	58	192	2
NMTAP	58	192	7
NMSTR	58	288	7
NMSCL	58	288	7	96	96	3
NMSTR	59	0	3
NMSCL	59	0	3	96	96	7
NMSTR	59	96	7
NMSCL	59	96	7	96	96	3
NMSTR	59	192	3
NMSCL	59	192	3	96	96	7
NMTAP	59	288	7
NMTAP	60	0	3
EXTAP	60	48	1
EXTAP	60	72	0
EXTAP	60	96	7
EXTAP	60	120	6
EXTAP	60	144	5
EXTAP	60	168	4
EXTAP	60	192	3
NMSTR	60	288	1
NMSI_	60	288	1	96	48	6
NMSTR	60	288	5
NMSI_	60	288	5	96	48	2
NMTAP	61	0	1
NMTAP	61	0	5
NMTAP	61	144	0
NMTAP	61	144	4
NMSTR	61	192	0
NMSUR	61	192	0	96	72	4
NMSTR	61	192	4
NMSUR	61	192	4	96	72	0
NMTAP	61	288	0
NMTAP	61	288	4
NMTTP	61	312	0	C	1	M1
NMTAP	62	48	7
NMTAP	62	96	7
NMTAP	62	144	1
NMTAP	62	192	1
NMTAP	62	240	3
NMTAP	62	288	3
NMTAP	62	336	2
NMTAP	63	0	1
NMTAP	63	0	3
NMTAP	63	48	2
NMTAP	63	72	2
NMTAP	63	96	3
NMTAP	63	144	4
NMTAP	63	192	3
NMTAP	63	192	5
NMTAP	63	240	6
NMTAP	63	264	6
NMSTR	63	288	7
NMSI_	63	288	7	96	48	4
NMTAP	63	336	0
BRSTR	64	0	7
NMSI_	64	0	7	96	48	2
BRSTR	64	96	7
NMSI_	64	96	7	96	48	3
BRTAP	64	192	7
NMTAP	64	288	1
NMTAP	64	288	5
NMSTR	65	0	6
NMSI_	65	0	6	96	48	3
NMSTR	65	96	1
NMSI_	65	96	1	96	48	4
NMSTR	65	192	5
NMSI_	65	192	5	96	48	0
NMTAP	65	288	1
NMTAP	66	0	2
NMTAP	66	0	7
NMTAP	66	48	1
NMTAP	66	72	0
NMTAP	66	96	1
NMTAP	66	144	2
NMTAP	66	144	7
NMTAP	66	192	0
NMTAP	66	192	5
NMSTR	66	288	6
NMSI_	66	288	6	96	48	1
NMSTR	67	0	2
NMSI_	67	0	2	96	48	7
NMSTR	67	96	5
NMSI_	67	96	5	96	48	1
NMSTR	67	192	3
NMSI_	67	192	3	96	48	0
NMSTR	67	288	6
NMSI_	67	288	6	96	48	3
NMTAP	68	0	0
EXTAP	68	48	0
EXTAP	68	72	7
EXTAP	68	96	6
EXTAP	68	120	5
EXTAP	68	144	4
EXTAP	68	168	3
EXTAP	68	192	2
NMSTR	68	288	6
NMSLL	68	288	6	96	96	2
NMSTR	69	0	2
NMSLL	69	0	2	96	96	6
NMSTR	69	96	6
NMSLL	69	96	6	96	96	2
NMTAP	69	192	2
NMTTP	69	288	0	C	1	M1
NMSTR	70	0	0
NMSI_	70	0	0	96	48	5
NMSTR	70	0	1
NMSI_	70	0	1	96	48	4
NMTAP	70	96	0
NMTAP	70	96	1
NMTTP	70	192	3	E	1	M1
NMTTP	70	288	7	E	1	M1
NMSTR	71	0	0
NMSV_	71	0	0	96	48	2
NMSV_	71	0	0	96	48	3
BRTAP	71	96	0
NMSTR	71	192	0
NMSV_	71	192	0	96	48	5
NMSV_	71	192	0	96	48	6
BRTAP	71	288	0
NMTAP	72	0	3
NMTAP	72	0	4
NMTAP	72	48	2
NMTAP	72	72	2
NMTAP	72	96	3
NMTAP	72	144	1
NMTAP	72	144	4
NMTAP	72	192	0
NMTAP	72	240	1
NMTAP	72	240	7
NMTTP	72	288	0	C	1	M1
NMSTR	73	0	7
NMSXR	73	0	7	96	96	7
NMTAP	73	96	0
NMTAP	73	96	7
NMSTR	73	192	1
NMSXL	73	192	1	96	96	1
NMTAP	73	288	0
NMTAP	73	288	1
NMSTR	74	0	6
NMSXR	74	0	6	96	96	6
NMTAP	74	96	6
NMTAP	74	96	7
NMSTR	74	192	0
NMSXL	74	192	0	96	96	0
NMTAP	74	288	0
NMTAP	74	288	7
NMSTR	75	0	7
NMSXR	75	0	7	96	96	7
NMTAP	75	96	0
NMTAP	75	96	7
NMSTR	75	192	1
NMSXL	75	192	1	96	96	1
NMTAP	75	288	0
NMTAP	75	288	1
NMHLD	76	0	6	96
NMHLD	76	144	0	96
NMHLD	76	144	7	96
NMTAP	76	288	0
NMTAP	76	288	1
NMSTR	77	0	0
NMSI_	77	0	0	96	48	3
NMSTR	77	0	1
NMSI_	77	0	1	96	48	4
NMTAP	77	96	0
NMTAP	77	96	1
NMSTR	77	192	0
NMSI_	77	192	0	96	48	5
NMSTR	77	192	1
NMSI_	77	192	1	96	48	6
NMTAP	77	288	0
NMTAP	77	288	1
NMSTR	78	0	0
NMSI_	78	0	0	96	48	3
NMSTR	78	0	1
NMSI_	78	0	1	96	48	4
NMTAP	78	96	0
NMTAP	78	96	1
NMSTR	78	192	0
NMSI_	78	192	0	96	48	5
NMSTR	78	192	1
NMSI_	78	192	1	96	48	6
NMTAP	78	288	0
NMTAP	78	288	1
NMSTR	79	0	0
NMSI_	79	0	0	96	48	3
NMSTR	79	0	1
NMSI_	79	0	1	96	48	4
NMTAP	79	96	0
NMTAP	79	96	1
NMSTR	79	192	0
NMSI_	79	192	0	96	48	5
NMSTR	79	192	1
NMSI_	79	192	1	96	48	6
NMTAP	79	288	0
NMTAP	79	288	1
NMTTP	80	0	1	E	0	M1
NMTTP	80	24	2	E	0	M1
NMTTP	80	48	3	E	0	M1
NMTTP	80	72	3	A	0	M1
NMTTP	80	96	7	E	0	M1
NMTTP	80	120	6	E	0	M1
NMTTP	80	144	5	E	0	M1
NMTTP	80	168	4	A	0	M1
NMTAP	80	192	2
NMTAP	80	240	2
NMTAP	80	288	3
NMTAP	80	336	3
NMSTR	81	0	2
NMSI_	81	0	2	96	48	5
NMSTR	81	96	6
NMSI_	81	96	6	96	48	1
NMSTR	81	192	2
NMSI_	81	192	2	96	48	5
NMSTR	81	288	6
NMSI_	81	288	6	96	48	1
NMSTR	82	0	2
NMSCR	82	0	2	96	48	5
NMSTR	82	96	6
NMSCR	82	96	6	96	48	1
NMSTR	82	192	2
NMSCR	82	192	2	96	48	5
NMSTR	82	288	6
NMSCR	82	288	6	96	48	1
NMSTR	83	0	2
NMSV_	83	0	2	96	48	5
NMSTR	83	96	6
NMSV_	83	96	6	96	48	1
NMSTR	83	192	2
NMSI_	83	192	2	96	48	5
NMTAP	83	288	6
NMHLD	84	0	4	96
NMHLD	84	0	5	96
NMHLD	84	144	3	96
NMHLD	84	144	6	96
NMTAP	84	288	1
NMTAP	84	288	6
BRSTR	85	0	0
NMSI_	85	0	0	96	48	2
NMSTR	85	0	7
NMSI_	85	0	7	96	48	5
BRTAP	85	96	0
NMSTR	85	192	0
NMSI_	85	192	0	96	48	4
NMSTR	85	192	6
NMSUR	85	192	6	96	48	3
NMTAP	85	288	0
BRSTR	86	0	0
NMSI_	86	0	0	96	48	2
NMSTR	86	0	7
NMSI_	86	0	7	96	48	5
BRTAP	86	96	0
NMSTR	86	192	0
NMSI_	86	192	0	96	48	4
NMSTR	86	192	6
NMSUR	86	192	6	96	48	3
NMTAP	86	288	0
BXTAP	87	0	6
BXTAP	87	24	6
BXTAP	87	72	7
BXTAP	87	96	7
BXTAP	87	144	0
BXTAP	87	168	0
BXTAP	87	216	1
BXTAP	87	240	1
BXTAP	87	288	0
BXTAP	87	288	2
BXTAP	87	336	0
BXTAP	87	336	2
NMTAP	88	0	3
NMTAP	88	0	4
NMTAP	88	48	2
NMTAP	88	48	5
NMTAP	88	96	1
NMTAP	88	96	6
NMTAP	88	144	0
NMTAP	88	144	7
BRSTR	88	168	0
NMSSL	88	168	0	96	72	4
NMTAP	88	168	7
NMTTP	88	288	0	C	1	M1

T_REC_TAP	332
T_REC_BRK	14
T_REC_XTP	26
T_REC_BXX	12
T_REC_HLD	41
T_REC_XHO	1
T_REC_BHO	1
T_REC_BXH	0
T_REC_STR	99
T_REC_BST	8
T_REC_XST	0
T_REC_XBS	0
T_REC_TTP	49
T_REC_THO	1
T_REC_SLD	107
T_REC_BSL	2
T_REC_ALL	693
T_NUM_TAP	506
T_NUM_BRK	37
T_NUM_HLD	43
T_NUM_SLD	107
T_NUM_ALL	693
T_JUDGE_TAP	540
T_JUDGE_HLD	102
T_JUDGE_SLD	109
T_JUDGE_ALL	751
TTM_EACHPAIRS	100
TTM_SCR_TAP	253000
TTM_SCR_BRK	96200
TTM_SCR_HLD	43000
TTM_SCR_SLD	160500
TTM_SCR_ALL	552700
TTM_SCR_S	532550
TTM_SCR_SS	549000
TTM_RAT_ACV	10067

