VERSION	0.00.00	1.05.00
FES_MODE	0
BPM_DEF	175.000	175.000	175.000	175.000
MET_DEF	4	4
RESOLUTION	384
CLK_DEF	384
COMPATIBLE_CODE	MA2

BPM	0	0	175.000
MET	0	0	4	4

NMHLD	1	0	0	1296
NMHLD	1	0	7	1296
EXTAP	4	240	1
EXTAP	4	240	6
EXSTR	4	288	1
NMSXR	4	288	1	96	576	4
EXTAP	4	288	6
NMTHO	7	0	0	384	C	0	M1
NMSTR	9	0	7
NMSI_	9	0	7	96	192	3
NMSTR	10	0	0
NMSI_	10	0	0	96	192	4
NMSTR	11	0	6
NMSI_	11	0	6	96	192	2
NMSTR	12	0	1
NMSI_	12	0	1	96	192	5
NMHLD	13	0	0	96
NMHLD	13	0	6	96
NMHLD	13	192	1	96
NMHLD	13	192	5	96
NMTAP	14	0	2
NMTAP	14	0	4
NMTAP	14	96	2
NMTAP	14	96	4
NMTAP	14	192	3
NMTAP	14	288	5
NMHLD	15	0	6	96
NMTAP	15	96	4
NMHLD	15	192	1	96
NMTAP	15	288	3
EXHLD	16	0	2	288
NMTAP	16	0	5
EXTAP	16	240	7
EXTAP	16	288	7
NMHLD	17	0	0	96
NMHLD	17	0	6	96
NMHLD	17	192	1	96
NMHLD	17	192	7	96
NMHLD	18	0	0	96
NMHLD	18	0	6	96
NMHLD	18	192	1	96
NMHLD	18	192	7	96
NMHLD	19	0	6	96
NMHLD	19	0	7	96
NMHLD	19	192	0	96
NMHLD	19	192	1	96
NMTAP	20	0	1
NMTAP	20	96	3
NMTAP	20	192	5
NMTAP	20	288	7
NMHLD	21	0	1	96
NMHLD	21	0	7	96
NMHLD	21	192	0	96
NMHLD	21	192	6	96
NMHLD	22	0	1	96
NMHLD	22	0	7	96
NMHLD	22	192	0	96
NMHLD	22	192	6	96
NMHLD	23	0	0	96
NMHLD	23	0	1	96
NMHLD	23	192	6	96
NMHLD	23	192	7	96
NMTAP	24	0	0
NMTAP	24	0	6
NMTAP	24	96	1
NMTAP	24	96	5
NMTAP	24	192	2
NMTAP	24	192	4
NMHLD	25	0	6	96
NMHLD	25	0	7	96
NMHLD	25	192	0	96
NMHLD	25	192	1	96
NMHLD	26	0	6	96
NMHLD	26	0	7	96
NMHLD	26	192	0	96
NMHLD	26	192	1	96
NMHLD	27	0	5	96
NMHLD	27	0	7	96
NMHLD	27	192	0	96
NMHLD	27	192	2	96
NMTAP	28	0	7
NMTAP	28	96	5
NMTAP	28	192	3
NMTAP	28	288	1
NMHLD	29	0	0	96
NMHLD	29	0	1	96
NMHLD	29	192	6	96
NMHLD	29	192	7	96
NMHLD	30	0	0	96
NMHLD	30	0	2	96
NMHLD	30	192	5	96
NMHLD	30	192	7	96
NMTAP	31	0	0
NMSTR	31	0	1
NMSCR	31	0	1	96	192	4
EXTAP	32	0	5
EXTAP	32	96	4
EXTAP	32	96	6
EXSTR	32	144	4
NMSI_	32	144	4	96	48	0
EXTAP	32	144	6
EXTAP	33	0	6
NMTAP	33	96	7
NMTAP	33	192	0
NMTAP	33	192	5
NMTAP	33	288	0
NMTAP	33	288	5
NMTAP	34	0	1
NMTAP	34	96	0
NMTAP	34	192	1
NMTAP	34	192	7
NMTAP	34	288	1
NMTAP	34	288	7
NMTAP	35	0	6
NMTAP	35	96	5
NMTAP	35	192	4
NMTAP	35	192	6
NMTAP	35	288	3
NMTAP	35	288	5
BXTAP	36	0	2
BXTAP	36	48	2
BXTAP	36	96	2
NMHLD	36	192	1	96
NMHLD	36	192	3	96
NMTAP	37	0	4
NMTAP	37	96	5
NMHLD	37	192	6	96
NMHLD	37	192	7	96
BXSTR	38	0	0
BRSI_	38	0	0	96	144	3
NMTAP	39	0	5
NMTAP	39	96	6
NMTAP	39	96	7
NMTAP	39	192	2
NMTAP	39	288	0
NMTAP	39	288	1
NMSTR	40	0	2
BRSV_	40	0	2	96	144	4
NMTAP	40	0	7
NMHLD	41	0	6	96
NMTAP	41	96	4
NMTAP	41	192	3
NMTAP	41	192	5
EXTAP	41	288	2
EXTAP	41	288	6
NMHLD	42	0	1	96
NMTAP	42	96	3
EXHLD	42	192	0	96
EXHLD	42	192	4	96
NMTAP	43	0	1
NMTAP	43	0	3
NMTAP	43	96	3
NMTAP	43	96	4
NMTAP	43	192	4
NMTAP	43	192	6
NMTAP	43	288	3
NMTAP	43	288	4
NMTAP	44	0	1
NMTAP	44	0	5
NMTAP	44	96	2
NMTAP	44	96	6
NMTAP	44	192	1
NMTAP	44	192	5
NMHLD	45	0	0	192
NMHLD	45	0	6	192
NMTAP	46	0	0
NMTAP	46	0	6
NMTAP	46	96	0
NMTAP	46	96	6
EXTAP	46	192	0
EXTAP	46	192	6
EXTAP	46	240	0
EXTAP	46	240	6
EXTAP	46	288	0
EXTAP	46	288	6
NMHLD	47	0	1	96
NMTAP	47	96	3
NMTAP	47	192	3
NMTAP	47	192	4
NMTAP	47	288	4
NMTAP	47	288	6
NMSTR	48	0	4
NMSI_	48	0	4	96	96	0
NMSTR	48	0	6
NMSI_	48	0	6	96	96	2
NMTTP	49	0	1	E	0	M1
NMTTP	49	192	0	C	0	M1
NMTTP	50	0	5	E	0	M1
NMTTP	50	192	6	E	0	M1
NMTTP	51	0	7	E	0	M1
NMTTP	51	192	0	C	0	M1
NMTTP	52	0	3	E	0	M1
NMTTP	52	192	2	B	0	M1
NMTTP	52	192	3	B	0	M1
NMTTP	53	0	1	E	0	M1
NMTTP	53	96	2	E	0	M1
NMTTP	53	192	3	E	0	M1
NMTTP	53	288	4	E	0	M1
NMTTP	54	0	5	E	0	M1
NMTTP	54	96	6	E	0	M1
NMTTP	54	192	6	B	0	M1
NMTTP	54	192	7	E	0	M1
BRTAP	55	0	0
BRTAP	55	192	1
NMTTP	56	0	0	B	0	M1
NMTTP	56	0	0	C	1	M1
NMTTP	56	0	1	B	0	M1
NMTTP	56	0	2	B	0	M1
NMTTP	56	0	3	B	0	M1
NMTTP	56	0	4	B	0	M1
NMTTP	56	0	5	B	0	M1
NMTTP	56	0	6	B	0	M1
NMTTP	56	0	7	B	0	M1
NMTAP	57	0	0
NMTAP	57	0	1
NMTAP	57	96	2
NMTAP	57	96	3
NMTAP	57	192	4
NMTAP	57	192	5
NMTAP	57	288	6
NMTAP	57	288	7
NMTAP	58	0	0
NMTAP	58	0	1
NMTAP	58	96	0
NMTAP	58	96	1
NMTAP	58	192	2
NMTAP	58	192	7
NMTAP	58	288	0
NMTAP	58	288	1
NMTAP	59	0	2
NMTAP	59	0	3
NMTAP	59	96	4
NMTAP	59	96	5
NMTAP	59	192	6
NMTAP	59	192	7
NMTAP	59	288	6
NMTAP	59	288	7
NMTAP	60	0	0
NMTAP	60	48	0
NMTAP	60	96	7
EXTAP	60	192	1
EXTAP	60	192	5
EXTAP	60	288	4
EXTAP	61	0	2
EXTAP	61	0	6
NMTAP	61	192	7
NMTAP	61	288	7
NMTAP	62	0	4
NMTAP	62	0	6
NMTAP	62	96	3
NMTAP	62	96	5
NMTAP	62	192	2
NMTAP	62	240	2
NMTAP	62	288	3
NMSTR	63	0	1
NMSI_	63	0	1	96	96	5
NMSTR	63	192	7
NMSI_	63	192	7	96	96	3
EXSTR	64	0	0
NMSI_	64	0	0	96	96	4
EXTAP	64	192	7
NMHLD	65	0	6	96
NMHLD	65	96	4	96
NMHLD	65	192	3	96
NMHLD	65	288	1	96
EXTAP	66	0	0
EXTAP	66	48	0
EXTAP	66	96	0
NMTAP	66	192	1
NMTAP	66	192	7
NMHLD	67	0	1	96
NMHLD	67	96	3	96
NMHLD	67	192	4	96
NMHLD	67	288	6	96
EXTAP	68	0	7
EXTAP	68	48	7
EXTAP	68	96	7
NMTAP	68	192	0
NMTAP	68	192	6
EXTAP	68	288	1
EXTAP	68	288	7
EXTAP	69	0	2
EXTAP	69	0	6
NMTAP	69	192	1
NMTAP	69	192	5
NMTAP	69	288	1
NMTAP	69	288	5
NMTAP	70	0	6
NMTAP	70	48	6
NMTAP	70	96	4
NMTAP	70	192	1
NMTAP	70	240	1
NMTAP	70	288	3
NMSTR	71	0	2
NMSI_	71	0	2	96	144	6
NMSTR	71	0	3
NMSI_	71	0	3	96	144	7
NMHLD	72	0	0	192
BRTAP	72	192	7
NMHLD	73	0	0	96
NMHLD	73	0	1	96
NMHLD	73	192	6	96
NMHLD	73	192	7	96
NMHLD	74	0	0	96
NMHLD	74	0	1	96
NMHLD	74	192	6	96
NMHLD	74	192	7	96
NMHLD	75	0	0	96
NMHLD	75	0	2	96
NMHLD	75	192	5	96
NMHLD	75	192	7	96
NMSTR	76	0	0
NMSUR	76	0	0	96	192	5
NMHLD	77	0	6	96
NMHLD	77	0	7	96
NMHLD	77	192	0	96
NMHLD	77	192	1	96
NMHLD	78	0	6	96
NMHLD	78	0	7	96
NMHLD	78	192	0	96
NMHLD	78	192	1	96
NMHLD	79	0	5	96
NMHLD	79	0	7	96
NMHLD	79	192	0	96
NMHLD	79	192	2	96
NMSTR	80	0	0
NMSUR	80	0	0	96	192	5
NMHLD	81	0	6	96
NMHLD	81	0	7	96
NMHLD	81	192	0	96
NMHLD	81	192	1	96
NMHLD	82	0	5	96
NMHLD	82	0	7	96
NMHLD	82	192	0	96
NMHLD	82	192	2	96
NMHLD	83	0	6	96
NMHLD	83	0	7	96
NMHLD	83	192	0	96
NMHLD	83	192	1	96
NMSTR	84	0	0
NMSI_	84	0	0	96	144	4
NMSTR	84	0	1
NMSI_	84	0	1	96	144	5
NMHLD	85	0	6	96
NMHLD	85	0	7	96
NMHLD	85	192	0	96
NMHLD	85	192	1	96
NMHLD	86	0	5	96
NMHLD	86	0	7	96
NMHLD	86	192	0	96
NMHLD	86	192	2	96
EXHLD	87	0	6	72
EXHLD	87	72	5	72
EXHLD	87	144	4	72
EXHLD	87	216	3	72
EXTAP	87	288	2
EXTAP	88	0	2
EXTAP	88	96	1
EXTAP	88	96	3
EXTAP	88	144	1
EXSTR	88	144	3
NMSI_	88	144	3	96	48	7

T_REC_TAP	127
T_REC_BRK	3
T_REC_XTP	39
T_REC_BXX	3
T_REC_HLD	114
T_REC_XHO	7
T_REC_BHO	0
T_REC_BXH	0
T_REC_STR	16
T_REC_BST	0
T_REC_XST	4
T_REC_XBS	1
T_REC_TTP	26
T_REC_THO	1
T_REC_SLD	19
T_REC_BSL	2
T_REC_ALL	362
T_NUM_TAP	212
T_NUM_BRK	9
T_NUM_HLD	122
T_NUM_SLD	19
T_NUM_ALL	362
T_JUDGE_TAP	219
T_JUDGE_HLD	310
T_JUDGE_SLD	21
T_JUDGE_ALL	550
TTM_EACHPAIRS	114
TTM_SCR_TAP	106000
TTM_SCR_BRK	23400
TTM_SCR_HLD	122000
TTM_SCR_SLD	28500
TTM_SCR_ALL	279900
TTM_SCR_S	270650
TTM_SCR_SS	279000
TTM_RAT_ACV	10032

