VERSION	0.00.00	1.05.00
FES_MODE	0
BPM_DEF	175.000	175.000	175.000	175.000
MET_DEF	4	4
RESOLUTION	384
CLK_DEF	384
COMPATIBLE_CODE	MA2

BPM	0	0	175.000
MET	0	0	4	4

NMTAP	9	0	2
NMTAP	9	96	2
NMTAP	9	192	2
NMTAP	10	0	3
NMTAP	10	96	3
NMTAP	10	192	3
NMTAP	11	0	4
NMTAP	11	96	4
NMTAP	11	192	4
NMTAP	12	0	4
NMTAP	12	0	5
NMTAP	12	192	4
NMTAP	12	192	5
NMTAP	13	0	5
NMTAP	13	96	5
NMTAP	13	192	5
NMTAP	14	0	4
NMTAP	14	96	4
NMTAP	14	192	4
NMTAP	15	0	3
NMTAP	15	96	3
NMTAP	15	192	3
NMTAP	16	0	2
NMTAP	16	0	3
NMTAP	16	192	2
NMTAP	16	192	3
NMTAP	17	0	4
NMTAP	17	96	4
NMTAP	17	192	5
NMTAP	18	0	6
NMTAP	18	96	6
NMTAP	18	192	7
NMTAP	19	0	0
NMTAP	19	96	0
NMTAP	19	192	1
NMTAP	20	0	2
NMTAP	20	96	2
NMTAP	20	192	2
NMTAP	20	192	3
NMTAP	21	0	3
NMTAP	21	96	3
NMTAP	21	192	2
NMTAP	22	0	1
NMTAP	22	96	1
NMTAP	22	192	0
NMTAP	23	0	7
NMTAP	23	96	7
NMTAP	23	192	6
NMTAP	24	0	5
NMTAP	24	96	5
NMTAP	24	192	4
NMTAP	24	192	5
NMTAP	25	0	5
NMTAP	25	96	5
NMTAP	25	192	4
NMTAP	25	192	5
NMTAP	26	0	6
NMTAP	26	96	6
NMTAP	26	192	6
NMTAP	26	192	7
NMTAP	27	0	0
NMTAP	27	96	0
NMTAP	27	192	0
NMTAP	27	192	1
NMTAP	28	0	2
NMTAP	28	0	3
NMTAP	28	96	2
NMTAP	28	96	3
NMTAP	28	192	2
NMTAP	28	192	3
NMTAP	29	0	2
NMTAP	29	96	2
NMTAP	29	192	2
NMTAP	29	192	3
NMTAP	30	0	1
NMTAP	30	96	1
NMTAP	30	192	0
NMTAP	30	192	1
NMTAP	31	0	7
NMTAP	31	96	7
NMTAP	31	192	6
NMTAP	31	192	7
NMTAP	32	0	4
NMTAP	32	0	5
NMTAP	32	96	4
NMTAP	32	96	5
NMTAP	32	192	4
NMTAP	32	192	5
NMHLD	33	0	5	192
NMHLD	33	192	4	192
NMHLD	34	0	3	192
NMTAP	34	192	2
NMHLD	35	0	2	192
NMHLD	35	192	3	192
NMHLD	36	0	4	192
NMTAP	36	192	5
NMHLD	37	0	6	192
NMHLD	37	192	5	192
NMHLD	38	0	4	192
NMTAP	38	192	3
NMHLD	39	0	1	192
NMHLD	39	192	2	192
NMHLD	40	0	3	192
NMTAP	40	192	4
NMTAP	41	0	2
NMTAP	41	96	2
NMTAP	41	192	2
NMTAP	42	0	1
NMTAP	42	96	1
NMTAP	42	192	1
NMTAP	43	0	0
NMTAP	43	96	0
NMTAP	43	192	0
NMTAP	44	0	6
NMTAP	44	0	7
NMTAP	44	192	6
NMTAP	44	192	7
NMTAP	45	0	5
NMTAP	45	96	5
NMTAP	45	192	5
NMTAP	46	0	6
NMTAP	46	96	6
NMTAP	46	192	6
NMTAP	47	0	7
NMTAP	47	96	7
NMTAP	47	192	7
NMTAP	48	0	0
NMTAP	48	0	1
NMTAP	48	192	0
NMTAP	48	192	1
NMSTR	49	0	1
NMSI_	49	0	1	96	192	4
NMSTR	50	0	6
NMSI_	50	0	6	96	192	3
NMSTR	51	0	1
NMSI_	51	0	1	96	192	5
NMSTR	52	0	7
NMSI_	52	0	7	96	192	3
NMTTP	53	0	1	B	0	L1
NMTTP	53	96	2	B	0	L1
NMTTP	53	192	3	B	0	L1
NMTTP	54	0	6	B	0	L1
NMTTP	54	96	5	B	0	L1
NMTTP	54	192	4	B	0	L1
NMTTP	55	0	2	B	0	L1
NMTTP	55	0	3	B	0	L1
NMTTP	55	192	4	B	0	L1
NMTTP	55	192	5	B	0	L1
NMTTP	56	0	0	C	1	L1
NMTAP	57	0	6
NMTAP	57	96	6
NMTAP	57	192	7
NMTAP	57	288	7
NMTAP	58	0	0
NMTAP	58	96	0
NMTAP	58	192	0
NMTAP	58	192	1
NMTAP	59	0	2
NMTAP	59	96	2
NMTAP	59	192	1
NMTAP	59	288	1
NMTAP	60	0	0
NMTAP	60	96	0
NMTAP	60	192	6
NMTAP	60	192	7
NMTAP	61	0	6
NMTAP	61	96	6
NMTAP	61	192	5
NMTAP	61	288	5
NMTAP	62	0	4
NMTAP	62	96	4
NMTAP	62	192	2
NMTAP	62	192	3
NMTAP	63	0	1
NMTAP	63	96	1
NMTAP	63	192	2
NMTAP	63	288	2
NMTAP	64	0	3
EXTAP	64	96	3
BXTAP	64	192	4
BXTAP	64	192	5
NMTAP	65	0	5
NMTAP	65	96	5
NMTAP	65	192	6
NMTAP	65	192	7
NMTAP	65	288	6
NMTAP	65	288	7
NMTAP	66	0	0
NMTAP	66	96	0
NMTAP	66	192	0
NMTAP	66	192	1
NMTAP	67	0	2
NMTAP	67	96	2
NMTAP	67	192	0
NMTAP	67	192	1
NMTAP	67	288	0
NMTAP	67	288	1
NMTAP	68	0	7
NMTAP	68	96	7
NMTAP	68	192	6
NMTAP	68	192	7
NMTAP	69	0	6
NMTAP	69	96	6
NMTAP	69	192	4
NMTAP	69	192	5
NMTAP	69	288	4
NMTAP	69	288	5
NMTAP	70	0	3
NMTAP	70	96	3
NMTAP	70	192	2
NMTAP	70	192	3
NMTAP	71	0	1
NMTAP	71	96	1
NMTAP	71	192	2
NMTAP	71	192	3
NMTAP	71	288	2
NMTAP	71	288	3
NMTAP	72	0	4
NMTAP	72	96	4
BRTAP	72	192	4
BRTAP	72	192	5
NMTAP	73	0	6
NMTAP	73	96	6
NMTAP	73	192	6
NMTAP	73	288	6
NMTAP	73	288	7
NMTAP	74	0	5
NMTAP	74	96	5
NMTAP	74	192	5
NMTAP	74	288	4
NMTAP	74	288	5
NMTAP	75	0	3
NMTAP	75	96	3
NMTAP	75	192	3
NMTAP	75	288	2
NMTAP	75	288	3
NMTAP	76	0	1
NMTAP	76	96	1
NMTAP	76	192	0
NMTAP	76	192	1
NMTAP	77	0	1
NMTAP	77	96	1
NMTAP	77	192	1
NMTAP	77	288	0
NMTAP	77	288	1
NMTAP	78	0	2
NMTAP	78	96	2
NMTAP	78	192	2
NMTAP	78	288	2
NMTAP	78	288	3
NMTAP	79	0	4
NMTAP	79	96	4
NMTAP	79	192	4
NMTAP	79	288	4
NMTAP	79	288	5
NMTAP	80	0	6
NMTAP	80	96	6
NMTAP	80	192	6
NMTAP	80	192	7
NMTAP	81	0	7
NMTAP	81	96	6
NMTAP	81	192	5
NMTAP	81	288	4
NMTAP	82	0	3
NMTAP	82	96	2
NMTAP	82	192	0
NMTAP	82	192	1
NMTAP	83	0	0
NMTAP	83	96	1
NMTAP	83	192	2
NMTAP	83	288	3
NMTAP	84	0	4
NMTAP	84	96	5
NMTAP	84	192	6
NMTAP	84	192	7
NMTAP	85	0	7
NMTAP	85	96	6
NMTAP	85	192	5
NMTAP	85	288	4
NMTAP	86	0	3
NMTAP	86	96	2
NMTAP	86	192	1
NMTAP	86	288	0
NMTAP	87	0	7
NMTAP	87	96	6
NMTAP	87	192	5
NMTAP	87	288	4
NMTAP	88	0	3
NMTAP	88	0	4
NMTAP	88	96	3
NMTAP	88	96	4
NMTAP	88	192	2
NMTAP	88	192	5
BXTAP	88	288	2
BXTAP	88	288	5

T_REC_TAP	257
T_REC_BRK	2
T_REC_XTP	1
T_REC_BXX	4
T_REC_HLD	12
T_REC_XHO	0
T_REC_BHO	0
T_REC_BXH	0
T_REC_STR	4
T_REC_BST	0
T_REC_XST	0
T_REC_XBS	0
T_REC_TTP	11
T_REC_THO	0
T_REC_SLD	4
T_REC_BSL	0
T_REC_ALL	295
T_NUM_TAP	273
T_NUM_BRK	6
T_NUM_HLD	12
T_NUM_SLD	4
T_NUM_ALL	295
T_JUDGE_TAP	279
T_JUDGE_HLD	48
T_JUDGE_SLD	4
T_JUDGE_ALL	331
TTM_EACHPAIRS	52
TTM_SCR_TAP	136500
TTM_SCR_BRK	15600
TTM_SCR_HLD	12000
TTM_SCR_SLD	6000
TTM_SCR_ALL	170100
TTM_SCR_S	164450
TTM_SCR_SS	169500
TTM_RAT_ACV	10035

