VERSION	0.00.00	1.05.00
FES_MODE	0
BPM_DEF	175.000	175.000	175.000	175.000
MET_DEF	4	4
RESOLUTION	384
CLK_DEF	384
COMPATIBLE_CODE	MA2

BPM	0	0	175.000
MET	0	0	4	4

EXTAP	1	0	0
NMTAP	2	0	0
NMTAP	3	0	0
NMTAP	4	0	0
NMTAP	5	0	7
NMTAP	6	0	7
NMTAP	7	0	7
NMTAP	8	0	0
NMTAP	8	0	7
NMSTR	9	0	7
NMSI_	9	0	7	96	288	3
NMSTR	11	0	0
NMSI_	11	0	0	96	288	4
NMSTR	13	0	6
NMSI_	13	0	6	96	288	2
NMSTR	15	0	1
NMSI_	15	0	1	96	288	5
NMTAP	17	0	7
NMTAP	17	192	7
NMTAP	18	0	6
NMTAP	19	0	5
NMTAP	19	192	5
NMTAP	20	0	3
NMTAP	20	0	4
NMTAP	21	0	3
NMTAP	21	192	3
NMTAP	22	0	2
NMTAP	23	0	1
NMTAP	23	192	1
NMTAP	24	0	0
NMTAP	24	0	7
NMTAP	25	0	0
NMTAP	25	192	0
NMTAP	26	0	1
NMTAP	27	0	2
NMTAP	27	192	2
NMTAP	28	0	3
NMTAP	28	0	4
NMTAP	29	0	4
NMTAP	29	192	4
NMTAP	30	0	5
NMTAP	31	0	6
NMTAP	31	192	6
EXTAP	32	0	0
EXTAP	32	0	7
NMTAP	33	0	7
NMTAP	33	192	7
NMTAP	34	0	7
NMHLD	35	0	6	384
NMHLD	35	0	7	384
NMTAP	37	0	5
NMTAP	37	192	5
NMTAP	38	0	5
NMHLD	39	0	4	384
NMHLD	39	0	5	384
NMTAP	41	0	2
NMTAP	41	192	2
NMTAP	42	0	2
NMHLD	43	0	2	384
NMHLD	43	0	3	384
NMTAP	45	0	1
NMTAP	45	192	1
NMTAP	46	0	1
NMTAP	47	0	0
NMTAP	47	0	7
NMTAP	47	192	0
NMTAP	47	192	7
EXTAP	48	0	0
EXTAP	48	0	7
NMTTP	49	0	7	B	0	L1
NMTTP	50	0	0	B	0	L1
NMTTP	51	0	6	B	0	L1
NMTTP	52	0	1	B	0	L1
NMTTP	53	0	5	B	0	L1
NMTTP	54	0	2	B	0	L1
NMTHO	55	0	0	384	C	1	L1
NMTAP	57	0	0
NMTAP	57	96	0
NMTAP	57	192	0
NMTAP	58	0	1
NMTAP	58	192	1
NMTAP	59	0	2
NMTAP	59	192	2
NMTAP	60	0	2
NMTAP	60	0	3
NMTAP	61	0	4
NMTAP	61	96	4
NMTAP	61	192	4
NMTAP	62	0	5
NMTAP	62	192	5
NMTAP	63	0	6
NMTAP	63	192	6
NMTAP	64	0	6
NMTAP	64	0	7
NMTAP	65	0	7
NMTAP	65	96	7
NMTAP	65	192	7
NMTAP	66	0	6
NMTAP	66	192	6
NMTAP	67	0	5
NMTAP	67	96	5
NMTAP	67	192	5
NMTAP	68	0	3
NMTAP	68	0	4
NMTAP	69	0	3
NMTAP	69	96	3
NMTAP	69	192	3
NMTAP	70	0	2
NMTAP	70	192	2
NMTAP	71	0	1
NMTAP	71	96	1
NMTAP	71	192	1
BRTAP	72	0	0
BRTAP	72	0	7
NMTAP	73	0	0
NMTAP	73	96	0
NMTAP	73	192	0
NMTAP	74	0	0
NMTAP	74	0	1
NMTAP	74	192	0
NMTAP	74	192	1
NMTAP	75	0	2
NMTAP	75	96	2
NMTAP	75	192	2
NMTAP	76	0	2
NMTAP	76	0	3
NMTAP	76	192	2
NMTAP	76	192	3
NMTAP	77	0	4
NMTAP	77	96	4
NMTAP	77	192	4
NMTAP	78	0	4
NMTAP	78	0	5
NMTAP	78	192	4
NMTAP	78	192	5
NMTAP	79	0	6
NMTAP	79	96	6
NMTAP	79	192	6
NMTAP	80	0	6
NMTAP	80	0	7
NMTAP	80	192	6
NMTAP	80	192	7
NMTAP	81	0	7
NMTAP	81	96	7
NMTAP	81	192	7
NMTAP	82	0	6
NMTAP	82	96	6
NMTAP	82	192	6
NMTAP	83	0	5
NMTAP	83	96	5
NMTAP	83	192	5
NMTAP	84	0	3
NMTAP	84	0	4
NMTAP	84	96	3
NMTAP	84	96	4
NMTAP	84	192	3
NMTAP	84	192	4
NMTAP	85	0	3
NMTAP	85	96	3
NMTAP	85	192	3
NMTAP	86	0	2
NMTAP	86	96	2
NMTAP	86	192	2
NMTAP	87	0	1
NMTAP	87	96	1
NMTAP	87	192	1
NMHLD	88	0	0	288
NMHLD	88	0	7	288

T_REC_TAP	138
T_REC_BRK	2
T_REC_XTP	5
T_REC_BXX	0
T_REC_HLD	8
T_REC_XHO	0
T_REC_BHO	0
T_REC_BXH	0
T_REC_STR	4
T_REC_BST	0
T_REC_XST	0
T_REC_XBS	0
T_REC_TTP	6
T_REC_THO	1
T_REC_SLD	4
T_REC_BSL	0
T_REC_ALL	168
T_NUM_TAP	153
T_NUM_BRK	2
T_NUM_HLD	9
T_NUM_SLD	4
T_NUM_ALL	168
T_JUDGE_TAP	155
T_JUDGE_HLD	68
T_JUDGE_SLD	4
T_JUDGE_ALL	227
TTM_EACHPAIRS	27
TTM_SCR_TAP	76500
TTM_SCR_BRK	5200
TTM_SCR_HLD	9000
TTM_SCR_SLD	6000
TTM_SCR_ALL	96700
TTM_SCR_S	93650
TTM_SCR_SS	96500
TTM_RAT_ACV	10020

