VERSION	0.00.00	1.03.00
FES_MODE	0
BPM_DEF	145.000	145.000	145.000	145.000
MET_DEF	4	4
RESOLUTION	384
CLK_DEF	384
COMPATIBLE_CODE	MA2

BPM	0	0	145.000
MET	0	0	4	4

TAP	1	288	3
TAP	1	288	4
TAP	2	0	2
TAP	2	0	5
TAP	2	48	1
TAP	2	72	0
TAP	2	96	2
TAP	2	120	7
TAP	2	144	3
TAP	2	168	6
TAP	2	192	4
TAP	2	240	3
TAP	2	240	5
TAP	2	288	2
TAP	2	288	4
TAP	2	336	0
TAP	2	336	1
TAP	3	0	2
TAP	3	0	7
TAP	3	48	3
TAP	3	72	4
TAP	3	96	3
TAP	3	120	5
TAP	3	144	4
HLD	3	168	6	72
TAP	3	240	7
TAP	3	288	0
TAP	3	288	5
TAP	3	336	1
TAP	3	336	4
TAP	4	0	2
TAP	4	0	3
TAP	4	48	6
TAP	4	72	7
TAP	4	96	5
TAP	4	120	0
TAP	4	144	4
TAP	4	168	1
TAP	4	192	3
TAP	4	240	2
TAP	4	240	4
TAP	4	288	3
TAP	4	288	5
TAP	4	336	6
TAP	4	336	7
TAP	5	0	0
TAP	5	0	5
TAP	5	48	4
TAP	5	72	3
TAP	5	96	4
TAP	5	120	2
TAP	5	144	3
STR	5	168	1
SI_	5	168	1	96	48	4
TAP	5	240	7
TAP	5	288	6
TAP	5	336	5
TAP	6	0	3
TAP	6	0	4
TAP	6	48	1
TAP	6	72	0
TAP	6	96	2
TAP	6	120	7
TAP	6	144	3
TAP	6	168	6
TAP	6	192	4
TAP	6	240	3
TAP	6	240	5
TAP	6	288	2
TAP	6	288	4
TAP	6	336	0
TAP	6	336	1
TAP	7	0	2
TAP	7	0	7
TAP	7	48	3
TAP	7	72	4
TAP	7	96	3
TAP	7	120	5
TAP	7	144	4
HLD	7	168	6	72
TAP	7	240	7
TAP	7	288	0
TAP	7	288	5
TAP	7	336	1
TAP	7	336	4
TAP	8	0	2
TAP	8	0	3
TAP	8	48	6
TAP	8	72	7
TAP	8	96	5
TAP	8	120	0
TAP	8	144	4
TAP	8	168	1
TAP	8	192	3
TAP	8	240	2
TAP	8	240	4
TAP	8	288	3
TAP	8	288	5
TAP	8	336	6
TAP	8	336	7
TAP	9	0	0
TAP	9	0	1
TAP	9	48	2
TAP	9	72	4
TAP	9	96	3
TAP	9	120	5
TAP	9	144	4
HLD	9	168	7	72
TAP	9	240	0
BRK	9	288	1
BRK	9	288	6
TAP	10	0	0
TAP	10	48	0
TAP	10	96	1
TAP	10	96	7
TAP	10	144	2
TAP	10	168	3
TAP	10	216	3
TAP	10	240	2
TAP	10	288	4
TAP	10	336	4
TAP	11	0	7
TAP	11	48	7
TAP	11	96	0
TAP	11	96	6
TAP	11	144	5
TAP	11	168	4
TAP	11	216	4
TAP	11	240	5
TAP	11	288	3
TAP	11	336	3
TAP	12	0	1
TAP	12	48	1
TAP	12	96	2
TAP	12	96	4
TAP	12	144	3
TAP	12	168	4
TAP	12	216	5
TAP	12	240	4
TAP	12	288	7
TAP	12	336	7
TAP	13	0	6
TAP	13	48	6
TAP	13	96	3
TAP	13	96	5
TAP	13	144	4
TAP	13	168	3
TAP	13	216	2
TAP	13	240	3
BRK	13	288	1
BRK	13	288	4
XTP	14	0	0
XTP	14	0	5
TAP	14	48	2
TAP	14	72	3
TAP	14	96	2
TAP	14	144	4
TAP	14	168	3
TAP	14	192	4
TAP	14	240	1
TAP	14	264	3
TAP	14	288	1
TAP	14	336	5
TAP	14	360	3
TAP	15	0	5
TAP	15	48	6
TAP	15	96	4
TAP	15	96	5
TAP	15	144	2
TAP	15	168	3
TAP	15	216	4
TAP	15	240	3
STR	15	288	5
SUR	15	288	5	96	96	6
TAP	15	336	5
TAP	16	0	4
TTP	16	144	1	E	0	M1
TTP	16	144	7	E	0	M1
TTP	16	192	1	B	0	M1
TTP	16	192	6	B	0	M1
TTP	16	240	2	B	0	M1
TTP	16	240	5	B	0	M1
TAP	16	336	3
TAP	16	336	4
TAP	17	0	3
TAP	17	0	4
STR	17	96	2
SI_	17	96	2	96	48	7
STR	17	96	3
SI_	17	96	3	96	48	6
TAP	17	288	0
TAP	17	336	1
TAP	18	0	2
TAP	18	0	5
TAP	18	48	6
TAP	18	72	7
TAP	18	96	5
TAP	18	120	0
TAP	18	144	4
TAP	18	168	1
STR	18	192	3
SI_	18	192	3	96	48	7
TAP	18	240	3
STR	18	288	2
SI_	18	288	2	96	48	4
TAP	18	336	2
TAP	19	0	6
TAP	19	48	5
TAP	19	72	3
TAP	19	96	4
TAP	19	120	2
TAP	19	144	3
HLD	19	168	1	72
TAP	19	240	0
TAP	19	288	2
TAP	19	288	7
TAP	19	336	3
TAP	19	336	6
TAP	20	0	4
TAP	20	0	5
TAP	20	48	1
TAP	20	72	0
TAP	20	96	2
TAP	20	120	7
TAP	20	144	3
TAP	20	168	6
STR	20	192	4
SI_	20	192	4	96	48	0
TAP	20	240	4
STR	20	288	5
SI_	20	288	5	96	48	3
TAP	20	336	5
TAP	21	0	1
TAP	21	48	2
TAP	21	72	4
TAP	21	96	3
TAP	21	120	5
TAP	21	144	4
STR	21	168	6
SI_	21	168	6	96	48	3
TAP	21	240	0
TAP	21	288	1
TAP	21	336	2
TAP	22	0	3
TAP	22	0	4
TAP	22	48	6
TAP	22	72	7
TAP	22	96	5
TAP	22	120	0
TAP	22	144	4
TAP	22	168	1
STR	22	192	3
SI_	22	192	3	96	48	6
TAP	22	240	3
STR	22	288	0
SI_	22	288	0	96	48	4
TAP	22	336	0
TAP	23	0	7
TAP	23	48	5
TAP	23	72	3
TAP	23	96	4
TAP	23	120	2
TAP	23	144	3
HLD	23	168	1	72
TAP	23	240	0
TAP	23	288	2
TAP	23	288	7
TAP	23	336	3
TAP	23	336	6
TAP	24	0	4
TAP	24	0	5
TAP	24	48	1
TAP	24	72	0
TAP	24	96	2
TAP	24	120	7
TAP	24	144	3
TAP	24	168	6
STR	24	192	4
SI_	24	192	4	96	48	1
TAP	24	240	4
TAP	24	288	5
TAP	24	336	5
XTP	25	0	6
XTP	25	0	7
XTP	25	48	3
XTP	25	48	5
XTP	25	96	0
XTP	25	96	1
XTP	25	144	2
XTP	25	144	4
STR	25	192	0
SI_	25	192	0	96	48	4
STR	25	192	7
SI_	25	192	7	96	48	3
BRK	25	288	0
BRK	25	288	7
TAP	26	0	7
TAP	26	48	7
TAP	26	96	0
TAP	26	96	6
TAP	26	144	5
TAP	26	168	4
TAP	26	216	4
TAP	26	240	5
TAP	26	288	3
TAP	26	336	3
TAP	27	0	0
TAP	27	48	0
TAP	27	96	1
TAP	27	96	7
TAP	27	144	2
TAP	27	168	3
TAP	27	216	3
TAP	27	240	2
TAP	27	288	4
TAP	27	336	4
TAP	28	0	6
TAP	28	48	6
TAP	28	96	3
TAP	28	96	5
TAP	28	144	4
TAP	28	168	3
TAP	28	216	2
TAP	28	240	3
TAP	28	288	0
TAP	28	336	0
TAP	29	0	1
TAP	29	48	1
TAP	29	96	2
TAP	29	96	4
TAP	29	144	3
TAP	29	168	4
TAP	29	216	5
TAP	29	240	4
BRK	29	288	3
BRK	29	288	6
XTP	30	0	2
XTP	30	0	7
TAP	30	48	5
TAP	30	72	4
TAP	30	96	5
TAP	30	144	3
TAP	30	168	4
TAP	30	192	3
TAP	30	240	6
TAP	30	264	4
TAP	30	288	6
TAP	30	336	2
TAP	30	360	4
TAP	31	0	2
TAP	31	48	1
TAP	31	96	2
TAP	31	96	3
TAP	31	144	5
TAP	31	168	4
TAP	31	216	3
TAP	31	240	4
STR	31	288	2
SUL	31	288	2	96	96	1
TAP	31	336	2
TAP	32	0	3
TTP	32	144	1	E	0	M1
TTP	32	144	7	E	0	M1
TTP	32	192	1	B	0	M1
TTP	32	192	6	B	0	M1
TTP	32	240	2	B	0	M1
TTP	32	240	5	B	0	M1
TAP	32	336	3
TAP	32	336	4
TAP	33	0	3
TAP	33	0	4
STR	33	96	0
SI_	33	96	0	96	48	4
STR	33	96	7
SI_	33	96	7	96	48	3
TAP	33	192	0
TAP	33	192	7
XTP	34	0	4
XHO	34	0	5	144
TAP	34	144	3
TAP	34	168	4
HLD	34	192	2	96
TTP	34	288	0	B	0	M1
TTP	34	288	7	B	0	M1
HLD	35	0	5	144
TAP	35	144	3
TAP	35	168	4
HLD	35	192	2	96
TTP	35	288	0	B	0	M1
TTP	35	288	7	B	0	M1
HLD	36	0	5	144
TAP	36	144	3
TAP	36	168	4
HLD	36	192	2	96
TTP	36	288	0	B	0	M1
TTP	36	288	7	B	0	M1
HLD	37	0	4	96
TAP	37	96	3
TTP	37	192	1	E	0	M1
TTP	37	240	0	B	0	M1
TTP	37	288	7	E	0	M1
TTP	37	336	7	B	0	M1
TAP	38	0	1
TAP	38	48	2
TAP	38	96	3
TAP	38	96	4
TAP	38	144	5
TAP	38	168	4
TAP	38	192	5
TAP	38	216	4
TAP	38	240	6
TAP	38	288	0
TAP	38	288	7
TAP	39	0	6
TAP	39	48	5
TAP	39	96	3
TAP	39	96	4
TAP	39	144	2
TAP	39	168	3
TAP	39	192	2
TAP	39	216	3
TAP	39	240	1
TAP	39	288	0
TAP	39	288	7
TAP	40	0	1
TAP	40	0	4
TAP	40	48	2
TAP	40	96	3
TAP	40	96	6
TAP	40	144	5
TAP	40	192	1
TAP	40	192	4
TAP	40	240	0
TAP	40	288	6
TAP	40	312	1
TAP	40	336	5
TAP	40	360	2
TAP	41	0	3
TAP	41	0	4
BRK	41	288	1
BRK	41	288	5
TAP	41	336	6
TAP	41	360	7
XTP	42	0	0
XHO	42	0	5	48
TAP	42	48	4
TAP	42	72	3
TAP	42	72	6
TAP	42	144	0
TAP	42	144	1
HLD	42	192	2	48
TAP	42	192	7
TAP	42	240	3
TAP	42	264	1
TAP	42	264	4
XTP	42	336	0
XST	42	336	7
SCL	42	336	7	96	96	2
XST	43	48	2
SI_	43	48	2	96	48	7
XST	43	96	7
SI_	43	96	7	96	48	3
XST	43	144	3
SI_	43	144	3	96	48	6
XST	43	192	6
SI_	43	192	6	96	48	2
XTP	43	240	1
BRK	43	288	0
TAP	43	336	1
TAP	44	0	2
TAP	44	0	3
TAP	44	48	6
TAP	44	96	4
TAP	44	96	5
TAP	44	144	0
TAP	44	168	7
TAP	44	192	1
TAP	44	192	6
TAP	44	240	0
TAP	44	240	7
STR	44	288	2
SXR	44	288	2	96	120	4
STR	44	288	5
SXL	44	288	5	96	120	3
TAP	44	336	3
TAP	44	336	4
TAP	45	0	2
TAP	45	0	5
TTP	45	168	0	C	1	M1
TTP	45	168	1	B	0	M1
TTP	45	168	2	B	0	M1
TTP	45	168	5	B	0	M1
TTP	45	168	6	B	0	M1
TAP	45	336	1
TAP	45	360	0
XHO	46	0	2	48
XTP	46	0	7
TAP	46	48	3
TAP	46	72	1
TAP	46	72	4
TAP	46	144	6
TAP	46	144	7
TAP	46	192	0
HLD	46	192	5	48
TAP	46	240	4
TAP	46	264	3
TAP	46	264	6
XST	46	336	0
SCR	46	336	0	96	96	5
XTP	46	336	7
XST	47	48	5
SI_	47	48	5	96	48	0
XST	47	96	0
SI_	47	96	0	96	48	4
XST	47	144	4
SI_	47	144	4	96	48	1
XST	47	192	1
SI_	47	192	1	96	48	5
XTP	47	240	6
BRK	47	288	7
TAP	47	336	6
TAP	48	0	4
TAP	48	0	5
TAP	48	48	1
TAP	48	96	2
TAP	48	96	3
TAP	48	144	7
TAP	48	168	0
TAP	48	192	1
TAP	48	192	6
TAP	48	240	2
TAP	48	240	3
STR	48	288	3
SCL	48	288	3	96	192	4
TAP	48	288	4
TAP	48	336	4
TAP	48	336	5
HLD	49	0	6	96
HLD	49	192	7	96
TAP	49	288	0
TAP	49	312	7
TAP	49	336	0
STR	50	0	3
SI_	50	0	3	96	24	0
STR	50	0	4
SI_	50	0	4	96	24	7
BRK	50	96	3
BRK	50	96	4
XHO	50	192	0	48
XHO	50	192	7	48
BRK	50	264	1
BRK	50	264	6
XTP	50	336	0
XST	50	336	4
SCR	50	336	4	96	96	1
XST	51	48	1
SI_	51	48	1	96	48	4
XST	51	96	4
SI_	51	96	4	96	48	0
XST	51	144	0
SI_	51	144	0	96	48	5
XST	51	192	5
SI_	51	192	5	96	48	1
XTP	51	240	2
BRK	51	288	3
TAP	51	336	2
TAP	52	0	0
TAP	52	0	1
TAP	52	48	5
TAP	52	96	6
TAP	52	96	7
TAP	52	144	3
TAP	52	168	4
TAP	52	192	2
TAP	52	192	5
TAP	52	240	6
TAP	52	240	7
TAP	52	288	0
TAP	52	288	7
TAP	52	336	0
TAP	52	336	1
STR	53	0	7
SI_	53	0	7	96	48	4
SSR	53	0	7	96	48	3
TAP	53	48	0
TAP	53	48	6
BRK	53	96	7
TTP	53	168	0	C	1	M1
TTP	53	168	1	B	0	M1
TTP	53	168	2	B	0	M1
TTP	53	168	5	B	0	M1
TTP	53	168	6	B	0	M1
TAP	53	336	2
TAP	53	360	3
XHO	54	0	1	48
XTP	54	0	4
TAP	54	48	0
TAP	54	72	2
TAP	54	72	7
TAP	54	144	4
TAP	54	144	5
TAP	54	192	3
HLD	54	192	6	48
TAP	54	240	7
TAP	54	264	0
TAP	54	264	5
XST	54	336	3
SCL	54	336	3	96	96	6
XTP	54	336	7
XST	55	48	6
SI_	55	48	6	96	48	3
XST	55	96	3
SI_	55	96	3	96	48	7
XST	55	144	7
SI_	55	144	7	96	48	2
XST	55	192	2
SI_	55	192	2	96	48	6
XTP	55	240	5
BRK	55	288	4
TAP	55	336	5
TAP	56	0	6
TAP	56	0	7
TAP	56	48	2
TAP	56	96	0
TAP	56	96	1
TAP	56	144	4
TAP	56	168	3
TAP	56	192	2
TAP	56	192	5
TAP	56	240	0
TAP	56	240	1
STR	56	288	0
SCR	56	288	0	96	192	7
TAP	56	288	7
TAP	56	336	6
TAP	56	336	7
HLD	57	0	5	96
TTP	57	192	0	C	1	M1
TAP	57	336	6
TAP	57	360	7
TAP	58	0	0
TAP	58	0	5
TAP	58	48	1
TAP	58	72	0
TAP	58	96	2
TAP	58	96	7
TAP	58	144	6
TAP	58	168	2
TAP	58	192	1
TAP	58	192	5
TAP	58	240	0
TAP	58	240	4
STR	58	288	3
SXL	58	288	3	96	264	6
STR	58	288	7
SXL	58	288	7	96	264	2
TAP	58	336	3
TAP	58	336	7
BRK	59	0	3
BRK	59	0	7
TTP	59	192	0	C	1	M1
XTP	60	0	0
XTP	60	0	7
TAP	60	48	2
TAP	60	72	3
TAP	60	120	5
STR	60	144	4
SI_	60	144	4	96	48	0
TAP	60	192	6
TAP	60	240	7
TAP	61	0	0
TAP	61	24	7
TAP	61	48	4
TAP	61	72	6
TAP	61	96	3
TAP	61	120	5
TAP	61	144	2
TAP	61	168	4
TAP	61	192	1
TAP	61	216	1
TAP	61	240	0
TAP	61	264	0
TAP	61	288	7
TAP	61	312	7
TAP	61	336	6
TAP	61	360	6
STR	62	0	5
SCL	62	0	5	96	48	2
TAP	62	144	7
TAP	62	168	6
STR	62	192	5
SI_	62	192	5	96	48	1
TAP	63	0	0
TAP	63	0	2
TAP	63	72	5
TAP	63	72	7
TAP	63	144	3
TAP	63	144	4
HLD	63	168	3	72
TAP	63	168	4
TAP	63	240	5
BRK	63	288	2
BRK	63	288	6
XTP	64	0	0
TAP	64	16	1
TAP	64	32	2
XTP	64	48	7
TAP	64	64	6
TAP	64	80	5
XTP	64	96	1
TAP	64	112	2
TAP	64	128	3
XTP	64	144	6
TAP	64	160	5
TAP	64	176	4
XTP	64	192	0
TAP	64	208	1
TAP	64	224	2
XTP	64	240	7
TAP	64	256	6
TAP	64	272	5
XTP	64	288	1
TAP	64	304	2
TAP	64	320	3
XTP	64	336	6
TAP	64	352	5
TAP	64	368	4
XTP	65	0	0
TAP	65	16	1
TAP	65	32	2
XTP	65	48	3
XTP	65	48	5
XTP	65	96	7
TAP	65	112	6
TAP	65	128	5
XTP	65	144	2
XTP	65	144	4
XTP	65	192	1
TAP	65	216	0
TAP	65	240	2
TAP	65	264	7
XTP	65	288	3
TAP	65	312	6
TAP	65	336	4
TAP	65	360	5
XTP	66	0	0
TAP	66	24	0
XTP	66	48	1
TAP	66	72	1
XTP	66	96	2
TAP	66	120	2
XTP	66	144	3
TAP	66	168	3
XTP	66	192	4
TAP	66	216	4
XTP	66	240	5
TAP	66	264	5
XTP	66	288	6
TAP	66	312	6
XTP	66	336	7
TAP	66	360	7
BRK	67	0	0
BRK	67	0	6
BRK	67	72	3
BRK	67	72	7
BRK	67	144	1
BRK	67	144	4
TAP	67	216	5
TAP	67	240	4
STR	67	288	6
SI_	67	288	6	96	48	2
STR	67	288	7
SI_	67	288	7	96	48	3
BRK	68	0	6
BRK	68	0	7
TTP	68	12	0	C	1	M1

T_REC_TAP	533
T_REC_BRK	31
T_REC_XTP	50
T_REC_HLD	18
T_REC_XHO	6
T_REC_STR	31
T_REC_BST	0
T_REC_XST	20
T_REC_TTP	35
T_REC_THO	0
T_REC_SLD	52
T_REC_ALL	776
T_NUM_TAP	669
T_NUM_BRK	31
T_NUM_HLD	24
T_NUM_SLD	52
T_NUM_ALL	776
T_JUDGE_TAP	700
T_JUDGE_HLD	43
T_JUDGE_SLD	52
T_JUDGE_ALL	795
TTM_EACHPAIRS	140
TTM_SCR_TAP	334500
TTM_SCR_BRK	80600
TTM_SCR_HLD	24000
TTM_SCR_SLD	78000
TTM_SCR_ALL	517100
TTM_SCR_S	498600
TTM_SCR_SS	514000
TTM_RAT_ACV	10060

