VERSION	0.00.00	1.03.00
FES_MODE	0
BPM_DEF	145.000	145.000	145.000	145.000
MET_DEF	4	4
RESOLUTION	384
CLK_DEF	384
COMPATIBLE_CODE	MA2

BPM	0	0	145.000
MET	0	0	4	4

XTP	1	288	3
XTP	1	288	4
TAP	2	0	5
TAP	2	48	5
TAP	2	96	4
TAP	2	96	6
TAP	2	192	3
TAP	2	240	3
TAP	2	288	2
TAP	2	288	4
TAP	3	0	5
TAP	3	48	6
TAP	3	96	3
TAP	3	144	2
TAP	3	192	4
TAP	3	240	5
TAP	3	288	3
TAP	3	288	6
TAP	4	0	2
TAP	4	48	2
TAP	4	96	1
TAP	4	96	3
TAP	4	192	4
TAP	4	240	4
TAP	4	288	3
TAP	4	288	5
TAP	5	0	2
TAP	5	48	1
TAP	5	96	4
TAP	5	144	5
TAP	5	192	3
TAP	5	240	2
TAP	5	288	1
TAP	5	288	4
TAP	6	0	5
TAP	6	48	5
TAP	6	96	4
TAP	6	96	6
TAP	6	192	2
TAP	6	240	2
TAP	6	288	1
TAP	6	288	3
TAP	7	0	6
TAP	7	48	5
TAP	7	96	2
TAP	7	144	3
TAP	7	192	5
TAP	7	240	4
TAP	7	288	3
TAP	7	288	6
TAP	8	0	2
TAP	8	48	2
TAP	8	96	1
TAP	8	96	3
TAP	8	192	5
TAP	8	240	5
TAP	8	288	4
TAP	8	288	6
TAP	9	0	3
TAP	9	0	4
TAP	9	48	3
TAP	9	48	4
TAP	9	96	2
TAP	9	96	5
TAP	9	144	2
TAP	9	144	5
BRK	9	192	1
BRK	9	192	6
TAP	10	0	1
TAP	10	48	1
HLD	10	96	3	72
HLD	10	168	2	72
TAP	10	240	3
TAP	10	288	1
TAP	10	288	4
TAP	11	0	6
TAP	11	48	6
HLD	11	96	4	72
HLD	11	168	5	72
TAP	11	240	4
TAP	11	288	3
TAP	11	288	6
STR	12	0	3
SCL	12	0	3	96	96	0
STR	12	0	4
SCR	12	0	4	96	96	7
TAP	12	288	1
TAP	12	288	6
TAP	13	0	2
TAP	13	48	2
HLD	13	96	4	72
HLD	13	168	3	72
TAP	13	240	4
TAP	13	288	2
TAP	13	288	5
TAP	14	0	3
TAP	14	48	3
TAP	14	96	5
TAP	14	144	5
TAP	14	192	2
TAP	14	240	2
TAP	14	288	4
TAP	14	336	4
HLD	15	0	1	96
HLD	15	96	3	96
HLD	15	192	4	96
HLD	15	288	6	96
STR	16	0	7
SCR	16	0	7	96	72	2
STR	16	192	6
SCL	16	192	6	96	72	3
HLD	17	0	2	96
HLD	17	96	1	96
HLD	17	192	0	96
STR	17	288	7
SCL	17	288	7	96	240	0
TTP	18	0	0	C	1	M1
TAP	19	0	2
TAP	19	48	1
TAP	19	96	4
TAP	19	144	5
TAP	19	192	3
TAP	19	240	2
TAP	19	288	1
TAP	19	288	4
TAP	20	0	5
TAP	20	48	5
TAP	20	96	4
TAP	20	96	6
TAP	20	192	3
TAP	20	240	3
TAP	20	288	2
TAP	20	288	4
TAP	21	0	5
TAP	21	48	6
TAP	21	96	3
TAP	21	144	2
TAP	21	192	4
TAP	21	240	5
TAP	21	288	3
TAP	21	288	6
TAP	22	0	2
TAP	22	48	2
TAP	22	96	1
TAP	22	96	3
TAP	22	192	5
TAP	22	240	5
TAP	22	288	4
TAP	22	288	6
TAP	23	0	1
TAP	23	48	2
TAP	23	96	5
TAP	23	144	4
TAP	23	192	2
TAP	23	240	3
TAP	23	288	1
TAP	23	288	4
TAP	24	0	5
TAP	24	48	5
TAP	24	96	4
TAP	24	96	6
TAP	24	192	2
TAP	24	240	2
TAP	24	288	1
TAP	24	288	3
TTP	25	0	4	B	0	M1
TTP	25	0	5	E	0	M1
TTP	25	48	3	B	0	M1
TTP	25	48	3	E	0	M1
TTP	25	96	6	B	0	M1
TTP	25	96	7	E	0	M1
TTP	25	144	1	B	0	M1
TTP	25	144	1	E	0	M1
TTP	25	192	0	C	1	M1
XTP	25	288	0
XTP	25	288	7
TAP	26	0	6
TAP	26	48	6
HLD	26	96	4	72
HLD	26	168	5	72
TAP	26	240	4
TAP	26	288	3
TAP	26	288	5
TAP	27	0	1
TAP	27	48	1
HLD	27	96	3	72
HLD	27	168	2	72
TAP	27	240	3
TAP	27	288	2
TAP	27	288	4
STR	28	0	1
SCR	28	0	1	96	96	4
STR	28	0	5
SCR	28	0	5	96	96	0
TAP	28	288	3
TAP	28	288	7
TAP	29	0	6
TAP	29	48	6
HLD	29	96	3	72
HLD	29	168	4	72
TAP	29	240	3
TAP	29	288	2
TAP	29	288	5
TAP	30	0	4
TAP	30	48	4
TAP	30	96	2
TAP	30	144	2
TAP	30	192	5
TAP	30	240	5
TAP	30	288	3
TAP	30	336	3
HLD	31	0	6	96
HLD	31	96	4	96
HLD	31	192	3	96
HLD	31	288	1	96
STR	32	0	0
SCL	32	0	0	96	72	5
STR	32	192	1
SCR	32	192	1	96	72	4
HLD	33	0	5	96
HLD	33	96	6	96
TAP	33	192	7
STR	33	288	0
SCR	33	288	0	96	144	5
XTP	34	0	5
TTP	34	192	0	C	0	M1
STR	34	288	7
SCL	34	288	7	96	144	2
XTP	35	0	2
TTP	35	192	0	C	0	M1
STR	35	288	0
SCR	35	288	0	96	144	5
XTP	36	0	5
TTP	36	192	0	C	0	M1
STR	36	288	7
SI_	36	288	7	96	96	2
SI_	36	288	7	96	96	4
TAP	37	192	3
TAP	37	240	3
TAP	37	288	2
TAP	37	288	4
HLD	38	0	1	384
TAP	38	96	3
TAP	38	144	3
TAP	38	240	5
TAP	38	288	5
HLD	39	0	6	384
TAP	39	96	4
TAP	39	144	4
TAP	39	240	2
TAP	39	288	2
HLD	40	0	1	96
HLD	40	96	3	96
HLD	40	192	4	96
HLD	40	288	6	96
STR	41	0	7
SF_	41	0	7	96	96	3
TAP	41	336	1
TAP	41	360	0
HLD	42	0	1	48
TAP	42	72	2
TAP	42	72	7
TAP	42	144	4
TAP	42	144	5
HLD	42	192	4	48
HLD	42	192	5	48
TAP	42	264	3
TAP	42	264	6
BRK	42	336	0
BRK	42	336	7
TAP	43	48	2
TAP	43	48	3
TAP	43	96	2
TAP	43	96	3
TAP	43	144	0
TAP	43	144	1
TAP	43	192	6
TAP	43	192	7
TAP	43	240	4
TAP	43	240	5
TAP	43	288	2
TAP	43	288	3
TAP	43	336	1
HLD	44	0	1	48
TAP	44	48	3
HLD	44	96	6	48
TAP	44	144	4
TAP	44	192	3
TAP	44	240	2
TAP	44	240	4
TAP	44	288	2
TAP	44	288	4
TAP	44	336	3
TAP	44	336	5
BST	45	0	3
SXR	45	0	3	96	144	4
BST	45	0	5
SXL	45	0	5	96	144	4
TAP	45	336	2
TAP	45	360	3
HLD	46	0	2	48
TAP	46	72	1
TAP	46	72	4
TAP	46	144	6
TAP	46	144	7
HLD	46	192	6	48
HLD	46	192	7	48
TAP	46	264	0
TAP	46	264	5
BRK	46	336	2
BRK	46	336	7
TAP	47	48	0
TAP	47	48	1
TAP	47	96	0
TAP	47	96	1
TAP	47	144	2
TAP	47	144	3
TAP	47	192	4
TAP	47	192	5
TAP	47	240	6
TAP	47	240	7
TAP	47	288	0
TAP	47	288	1
TAP	47	336	2
HLD	48	0	2	48
TAP	48	48	3
HLD	48	96	5	48
TAP	48	144	4
TAP	48	192	2
TAP	48	240	3
TAP	48	240	5
TAP	48	288	3
TAP	48	288	5
TAP	48	336	2
TAP	48	336	4
TAP	49	0	2
TAP	49	0	4
STR	49	96	1
SI_	49	96	1	96	48	4
STR	49	96	6
SI_	49	96	6	96	48	3
XHO	49	288	3	96
XHO	49	288	4	96
BRK	50	96	1
BRK	50	96	6
HLD	50	192	2	48
HLD	50	192	4	48
TAP	50	264	1
TAP	50	264	5
TTP	50	336	0	C	1	M1
TTP	50	336	1	B	0	M1
TTP	50	336	4	B	0	M1
TAP	51	48	0
TAP	51	48	7
TAP	51	96	0
TAP	51	96	7
TAP	51	144	5
TAP	51	144	6
TAP	51	192	3
TAP	51	192	4
TAP	51	240	1
TAP	51	240	2
TAP	51	288	0
TAP	51	288	7
TAP	51	336	6
HLD	52	0	6	48
TAP	52	48	4
HLD	52	96	1	48
TAP	52	144	3
XTP	52	192	4
XTP	52	240	3
XTP	52	240	5
XTP	52	288	3
XTP	52	288	5
XTP	52	336	2
XTP	52	336	4
XTP	53	0	2
XTP	53	0	4
TAP	53	48	1
TAP	53	48	5
STR	53	96	1
SLL	53	96	1	96	96	3
STR	53	96	5
SLR	53	96	5	96	96	3
TAP	53	336	1
TAP	53	360	0
HLD	54	0	1	48
TAP	54	72	2
TAP	54	72	7
TAP	54	144	4
TAP	54	144	5
HLD	54	192	4	48
HLD	54	192	5	48
TAP	54	264	3
TAP	54	264	6
TTP	54	336	0	C	1	M1
TTP	54	336	3	B	0	M1
TTP	54	336	5	B	0	M1
TAP	55	48	0
TAP	55	48	7
TAP	55	96	0
TAP	55	96	7
TAP	55	144	1
TAP	55	144	2
TAP	55	192	3
TAP	55	192	4
TAP	55	240	5
TAP	55	240	6
TAP	55	288	0
TAP	55	288	7
TAP	55	336	1
HLD	56	0	1	48
TAP	56	48	3
HLD	56	96	6	48
TAP	56	144	4
TAP	56	192	3
TAP	56	240	2
TAP	56	240	4
TAP	56	288	2
TAP	56	288	4
TAP	56	336	3
TAP	56	336	5
STR	57	0	3
SXR	57	0	3	96	144	0
STR	57	0	5
SXL	57	0	5	96	144	0
TAP	57	336	0
HLD	58	0	0	48
TAP	58	48	2
HLD	58	96	7	48
TAP	58	144	5
TAP	58	192	0
TAP	58	240	1
TAP	58	240	7
TAP	58	288	2
TAP	58	288	6
TAP	58	336	3
TAP	58	336	5
BST	59	0	4
SLL	59	0	4	96	96	0
SLR	59	0	4	96	96	0
TTP	59	288	0	C	1	M1
XTP	60	0	7
XTP	60	48	7
XTP	60	96	0
XTP	60	96	6
TAP	60	192	1
TAP	60	192	7
HLD	60	240	1	96
HLD	60	240	7	96
TAP	61	0	2
TAP	61	48	3
TAP	61	96	5
TAP	61	144	4
TAP	61	192	1
TAP	61	240	2
TAP	61	288	6
TAP	61	336	5
HLD	62	0	1	96
HLD	62	0	4	96
TAP	62	144	3
TAP	62	144	6
TAP	62	192	3
TAP	62	192	6
TAP	62	288	1
TAP	62	288	5
TAP	63	0	3
TAP	63	48	2
TAP	63	96	4
TAP	63	144	5
TAP	63	192	3
STR	63	192	6
SI_	63	192	6	96	48	2
TAP	63	288	2
TAP	64	0	4
TAP	64	48	5
TAP	64	96	6
TAP	64	144	7
TAP	64	192	0
TAP	64	240	1
TAP	64	288	2
TAP	64	336	3
TTP	65	0	5	E	0	M1
TTP	65	48	6	E	0	M1
TTP	65	96	7	E	0	M1
TTP	65	144	0	E	0	M1
TTP	65	192	1	E	0	M1
TTP	65	240	2	E	0	M1
TTP	65	288	3	E	0	M1
TTP	65	336	4	E	0	M1
TAP	66	0	6
TAP	66	48	0
TAP	66	96	4
TAP	66	144	2
TTP	66	192	6	E	0	M1
TTP	66	240	0	E	0	M1
TTP	66	288	4	E	0	M1
TTP	66	336	2	E	0	M1
XTP	67	0	1
XTP	67	0	3
XTP	67	72	4
XTP	67	72	6
XTP	67	144	2
XTP	67	144	4
XTP	67	216	3
XTP	67	216	5
XTP	67	288	0
XST	67	288	7
SCL	67	288	7	96	768	0
THO	68	0	0	768	C	1	M1

T_REC_TAP	330
T_REC_BRK	8
T_REC_XTP	29
T_REC_HLD	56
T_REC_XHO	2
T_REC_STR	21
T_REC_BST	3
T_REC_XST	1
T_REC_TTP	32
T_REC_THO	1
T_REC_SLD	27
T_REC_ALL	510
T_NUM_TAP	413
T_NUM_BRK	11
T_NUM_HLD	59
T_NUM_SLD	27
T_NUM_ALL	510
T_JUDGE_TAP	424
T_JUDGE_HLD	123
T_JUDGE_SLD	27
T_JUDGE_ALL	574
TTM_EACHPAIRS	115
TTM_SCR_TAP	206500
TTM_SCR_BRK	28600
TTM_SCR_HLD	59000
TTM_SCR_SLD	40500
TTM_SCR_ALL	334600
TTM_SCR_S	323500
TTM_SCR_SS	333500
TTM_RAT_ACV	10032

