VERSION	0.00.00	1.03.00
FES_MODE	0
BPM_DEF	145.000	145.000	145.000	145.000
MET_DEF	4	4
RESOLUTION	384
CLK_DEF	384
COMPATIBLE_CODE	MA2

BPM	0	0	145.000
MET	0	0	4	4

TAP	2	0	2
TAP	2	96	2
TAP	2	192	3
TAP	2	288	3
TAP	3	0	4
TAP	3	96	4
TAP	3	192	3
TAP	3	192	5
TAP	4	0	6
TAP	4	96	6
TAP	4	192	7
TAP	4	288	7
TAP	5	0	0
TAP	5	96	0
TAP	5	192	0
TAP	5	192	7
TAP	6	0	1
TAP	6	96	1
TAP	6	192	0
TAP	6	288	0
TAP	7	0	7
TAP	7	96	7
TAP	7	192	0
TAP	7	192	6
TAP	8	0	5
TAP	8	96	5
TAP	8	192	4
TAP	8	288	4
TAP	9	0	3
TAP	9	0	4
TAP	9	96	3
TAP	9	96	4
BRK	9	192	2
BRK	9	192	5
HLD	10	0	2	192
TAP	10	192	3
TAP	10	288	4
HLD	11	0	5	192
TAP	11	192	4
TAP	11	288	3
HLD	12	0	2	192
TAP	12	192	3
TAP	12	288	4
TAP	13	0	5
TAP	13	96	5
TAP	13	192	3
TAP	13	192	4
TAP	14	0	2
TAP	14	96	2
TAP	14	192	3
TAP	14	288	3
TAP	15	0	4
TAP	15	96	4
TAP	15	192	3
TAP	15	192	5
TAP	16	0	6
TAP	16	96	6
TAP	16	192	6
TAP	16	192	7
TAP	17	0	0
TAP	17	96	0
TAP	17	192	1
TAP	17	192	7
TAP	18	0	2
TAP	18	96	2
TAP	18	192	3
TAP	18	288	3
TAP	19	0	4
TAP	19	96	4
TAP	19	192	3
TAP	19	192	5
TAP	20	0	6
TAP	20	96	6
TAP	20	192	7
TAP	20	288	7
TAP	21	0	0
TAP	21	96	0
TAP	21	192	0
TAP	21	192	7
TAP	22	0	6
TAP	22	96	6
TAP	22	192	7
TAP	22	288	7
TAP	23	0	0
TAP	23	96	0
TAP	23	192	1
TAP	23	192	7
TAP	24	0	2
TAP	24	96	2
TAP	24	192	3
TAP	24	288	3
TAP	25	0	4
TAP	25	96	3
TAP	25	96	4
BRK	25	192	2
BRK	25	192	5
TTP	26	0	6	E	0	L1
TTP	26	96	5	B	0	L1
TTP	26	192	4	B	0	L1
TTP	27	0	2	E	0	L1
TTP	27	96	2	B	0	L1
TTP	27	192	3	B	0	L1
TTP	28	0	6	E	0	L1
TTP	28	96	5	B	0	L1
TTP	28	192	4	B	0	L1
TTP	28	288	3	B	0	L1
TTP	29	0	2	B	0	L1
TTP	29	96	1	B	0	L1
TTP	29	192	0	B	0	L1
XTP	30	0	6
XTP	30	96	6
TAP	30	192	7
TAP	30	288	7
TAP	31	0	0
TAP	31	96	0
TAP	31	192	1
TAP	31	192	7
TAP	32	0	2
TAP	32	0	3
TAP	32	192	4
TAP	32	192	5
TAP	33	0	3
TAP	33	0	4
TAP	33	96	3
TAP	33	96	4
TAP	33	192	2
TAP	33	192	5
STR	34	0	6
SI_	34	0	6	96	144	3
TAP	35	0	2
TAP	35	96	2
TAP	35	192	2
TAP	35	192	3
STR	36	0	1
SI_	36	0	1	96	144	4
TAP	37	0	5
TAP	37	96	5
TAP	37	192	6
TAP	37	288	6
STR	38	0	6
SI_	38	0	6	96	144	2
STR	38	0	7
SI_	38	0	7	96	144	3
STR	39	0	0
SI_	39	0	0	96	144	4
STR	39	0	1
SI_	39	0	1	96	144	5
TAP	40	0	6
TAP	40	96	6
TAP	40	192	7
TAP	40	288	7
STR	41	0	0
SI_	41	0	0	96	144	3
STR	41	0	7
SI_	41	0	7	96	144	4
HLD	42	0	4	96
HLD	42	0	5	96
HLD	42	192	2	96
HLD	42	192	3	96
TAP	43	0	4
TAP	43	0	5
TAP	43	96	4
TAP	43	96	5
TAP	43	192	3
TAP	43	192	6
TAP	44	0	2
TAP	44	96	2
TAP	44	96	3
TAP	44	192	5
TAP	44	288	4
TAP	44	288	5
TAP	45	0	2
TAP	45	96	2
TAP	45	96	3
XTP	45	192	1
XTP	45	192	4
HLD	46	0	0	96
HLD	46	0	1	96
HLD	46	192	6	96
HLD	46	192	7	96
TAP	47	0	0
TAP	47	0	1
TAP	47	96	0
TAP	47	96	1
TAP	47	192	2
TAP	47	192	7
TAP	48	0	6
TAP	48	96	6
TAP	48	96	7
TAP	48	192	1
TAP	48	288	0
TAP	48	288	1
TAP	49	0	2
TAP	49	96	3
TAP	49	96	4
TAP	49	192	2
TAP	49	192	5
TAP	50	0	6
BRK	50	96	6
BRK	50	96	7
TAP	50	192	1
TAP	50	288	0
TAP	50	288	1
TAP	51	0	2
TAP	51	0	3
TAP	51	96	4
TAP	51	96	5
HLD	51	192	3	96
HLD	51	192	6	96
TAP	52	0	2
TAP	52	96	2
TAP	52	96	3
TAP	52	192	5
TAP	52	288	4
TAP	52	288	5
TAP	53	0	6
TAP	53	96	0
TAP	53	96	7
TAP	53	192	1
TAP	53	192	6
TAP	54	0	1
TAP	54	96	0
TAP	54	96	1
TAP	54	192	6
TAP	54	288	6
TAP	54	288	7
TAP	55	0	4
TAP	55	0	5
TAP	55	96	2
TAP	55	96	3
HLD	55	192	1	96
HLD	55	192	4	96
TAP	56	0	5
TAP	56	96	4
TAP	56	96	5
TAP	56	192	6
TAP	56	192	7
TAP	56	288	0
TAP	56	288	1
STR	57	0	2
SI_	57	0	2	96	144	7
STR	57	0	3
SI_	57	0	3	96	144	7
TAP	58	0	6
TAP	58	96	4
TAP	58	96	5
TAP	58	192	2
TAP	58	192	3
TAP	58	288	0
TAP	58	288	1
BST	59	0	7
SI_	59	0	7	96	144	2
SI_	59	0	7	96	144	4
TTP	60	0	1	E	0	L1
TTP	60	96	1	B	0	L1
TTP	60	192	2	B	0	L1
TTP	61	0	7	E	0	L1
TTP	61	96	6	B	0	L1
TTP	61	192	5	B	0	L1
TTP	62	0	1	E	0	L1
TTP	62	96	2	E	0	L1
TTP	62	192	3	E	0	L1
TTP	63	0	7	E	0	L1
TTP	63	96	6	E	0	L1
TTP	63	192	3	E	0	L1
TTP	63	192	5	E	0	L1
TTP	64	0	0	B	0	L1
TTP	64	96	1	B	0	L1
TTP	64	192	2	B	0	L1
TTP	64	288	3	B	0	L1
TTP	65	0	4	B	0	L1
TTP	65	96	5	B	0	L1
TTP	65	192	6	B	0	L1
TTP	65	288	7	B	0	L1
TTP	66	0	0	B	0	L1
TTP	66	0	1	B	0	L1
TTP	66	96	2	B	0	L1
TTP	66	96	3	B	0	L1
TTP	66	192	4	B	0	L1
TTP	66	192	5	B	0	L1
TTP	66	288	6	B	0	L1
TTP	66	288	7	B	0	L1
TTP	67	0	0	C	1	L1
XTP	67	192	0
XTP	67	192	7
THO	68	0	0	768	C	1	L1

T_REC_TAP	192
T_REC_BRK	6
T_REC_XTP	6
T_REC_HLD	15
T_REC_XHO	0
T_REC_STR	10
T_REC_BST	1
T_REC_XST	0
T_REC_TTP	43
T_REC_THO	1
T_REC_SLD	12
T_REC_ALL	286
T_NUM_TAP	251
T_NUM_BRK	7
T_NUM_HLD	16
T_NUM_SLD	12
T_NUM_ALL	286
T_JUDGE_TAP	258
T_JUDGE_HLD	52
T_JUDGE_SLD	12
T_JUDGE_ALL	322
TTM_EACHPAIRS	65
TTM_SCR_TAP	125500
TTM_SCR_BRK	18200
TTM_SCR_HLD	16000
TTM_SCR_SLD	18000
TTM_SCR_ALL	177700
TTM_SCR_S	171700
TTM_SCR_SS	177000
TTM_RAT_ACV	10039

