VERSION	0.00.00	1.03.00
FES_MODE	0
BPM_DEF	155.000	155.000	155.000	155.000
MET_DEF	4	4
RESOLUTION	384
CLK_DEF	0
COMPATIBLE_CODE	MA2

BPM	0	0	155.000
MET	0	0	4	4
MET	41	0	4	2
MET	41	192	4	4
CLK	0	0
CLK	0	96
CLK	0	192
CLK	0	288

TAP	1	0	5
HLD	1	48	5	72
HLD	1	120	4	72
HLD	1	192	3	72
HLD	1	264	2	72
TAP	1	336	3
TAP	2	0	3
TAP	2	48	2
TAP	2	96	4
TAP	2	144	5
STR	2	192	3
SCR	2	192	3	96	48	6
TAP	2	240	2
TAP	2	288	1
TAP	2	336	1
TAP	3	0	2
HLD	3	48	2	72
HLD	3	120	3	72
HLD	3	192	4	72
HLD	3	264	5	72
TAP	3	336	4
TAP	4	0	4
TAP	4	48	5
TAP	4	96	3
TAP	4	144	2
STR	4	192	4
SCL	4	192	4	96	48	1
TAP	4	240	5
TAP	4	288	6
TAP	4	336	7
TAP	5	0	6
HLD	5	48	6	72
HLD	5	120	4	72
HLD	5	192	3	72
HLD	5	264	1	72
TAP	5	336	3
TAP	6	0	3
TAP	6	48	1
TAP	6	96	4
TAP	6	144	6
STR	6	192	3
SCR	6	192	3	96	48	6
TAP	6	240	1
TAP	6	288	0
TAP	6	336	2
TAP	7	0	1
HLD	7	48	1	72
HLD	7	120	3	72
HLD	7	192	4	72
HLD	7	264	6	72
TAP	7	336	4
TAP	8	0	4
TAP	8	48	6
TAP	8	96	3
TAP	8	144	1
STR	8	192	4
SCL	8	192	4	96	48	1
TAP	8	240	6
TAP	8	288	5
TAP	8	336	7
TAP	9	0	6
HLD	9	48	6	72
HLD	9	120	4	72
HLD	9	192	3	72
HLD	9	264	1	72
TAP	9	336	3
TAP	10	0	3
TAP	10	48	1
TAP	10	96	4
TAP	10	144	6
STR	10	192	3
SCR	10	192	3	96	48	6
TAP	10	240	1
TAP	10	288	0
TAP	10	336	2
TAP	11	0	1
HLD	11	48	1	72
HLD	11	120	3	72
HLD	11	192	4	72
HLD	11	264	6	72
TAP	11	336	4
TAP	12	0	4
TAP	12	48	6
TAP	12	96	3
TAP	12	144	1
TAP	12	192	4
TAP	12	240	6
TAP	12	288	2
TAP	12	288	5
TAP	13	0	5
TAP	13	24	4
TAP	13	72	2
TAP	13	96	3
TAP	13	144	6
TAP	13	168	7
TAP	13	216	1
TAP	13	240	0
TAP	13	288	5
TAP	13	312	4
TAP	13	360	2
TAP	14	0	3
TAP	14	48	2
TAP	14	48	3
STR	14	96	0
SUR	14	96	0	96	48	4
STR	14	96	1
SCR	14	96	1	96	48	4
TAP	14	288	5
TAP	14	336	6
TAP	15	0	0
TAP	15	0	7
TAP	15	48	1
TAP	15	48	6
TTP	15	96	3	B	0	M1
TTP	15	96	3	E	0	M1
TTP	15	96	4	B	0	M1
TTP	15	96	5	E	0	M1
TAP	15	144	1
TAP	15	144	6
TAP	15	192	0
TAP	15	192	7
TAP	15	240	1
TAP	15	240	6
TTP	15	288	3	B	0	M1
TTP	15	288	3	E	0	M1
TTP	15	288	4	B	0	M1
TTP	15	288	5	E	0	M1
TAP	15	336	1
TAP	15	336	6
TAP	16	0	0
TAP	16	0	7
TAP	16	48	1
TAP	16	48	6
TTP	16	96	3	B	0	M1
TTP	16	96	3	E	0	M1
TTP	16	96	4	B	0	M1
TTP	16	96	5	E	0	M1
TAP	16	144	1
TAP	16	144	6
TAP	16	192	0
TAP	16	192	7
TAP	16	240	1
TAP	16	240	6
TAP	16	288	2
TAP	16	288	5
TAP	16	336	2
TAP	16	336	5
TAP	17	0	4
HLD	17	0	6	48
TAP	17	48	4
HLD	17	96	1	48
TAP	17	96	3
TAP	17	144	3
TAP	17	192	0
HLD	17	192	6	48
TAP	17	240	0
STR	17	288	0
SI_	17	288	0	96	48	3
STR	17	288	7
SI_	17	288	7	96	48	4
TAP	17	336	0
TAP	17	336	7
TAP	18	96	1
TAP	18	96	6
TAP	18	144	7
TAP	18	192	4
TAP	18	192	6
TAP	18	240	3
TAP	18	240	5
TAP	18	288	2
TAP	18	288	4
TAP	18	336	1
TAP	18	336	3
STR	19	0	2
SI_	19	0	2	96	48	5
STR	19	0	6
SI_	19	0	6	96	48	1
TAP	19	48	2
TAP	19	48	6
TAP	19	192	0
TAP	19	192	7
TAP	19	240	1
TAP	19	240	6
TAP	19	288	2
TAP	19	288	5
TAP	19	336	3
TAP	19	336	4
TAP	20	0	5
TAP	20	48	5
TAP	20	96	2
TAP	20	144	2
TTP	20	192	1	E	0	M1
TTP	20	240	7	E	0	M1
TTP	20	288	0	E	0	M1
THO	21	0	0	1152	C	1	M1
STR	21	288	7
SCL	21	288	7	96	144	4
STR	22	288	0
SCR	22	288	0	96	144	3
STR	23	288	7
SUL	23	288	7	96	288	4
TAP	25	0	2
TAP	25	24	3
TAP	25	72	5
TAP	25	96	4
TAP	25	144	1
TAP	25	168	0
TAP	25	216	6
TAP	25	240	7
TAP	25	288	3
TAP	25	288	4
TTP	26	0	6	B	0	M1
TTP	26	0	7	B	0	M1
TTP	26	0	7	E	0	M1
TTP	26	48	0	B	0	M1
TTP	26	48	1	E	0	M1
TTP	26	48	1	B	0	M1
TTP	26	96	3	B	0	M1
TTP	26	96	4	E	0	M1
TTP	26	96	4	B	0	M1
STR	26	192	2
SI_	26	192	2	96	48	0
STR	26	192	5
SI_	26	192	5	96	48	7
TAP	27	0	0
TAP	27	0	7
TAP	27	48	1
TAP	27	48	6
TTP	27	96	3	B	0	M1
TTP	27	96	3	E	0	M1
TTP	27	96	4	B	0	M1
TTP	27	96	5	E	0	M1
TAP	27	144	1
TAP	27	144	6
TAP	27	192	0
TAP	27	192	7
TAP	27	240	1
TAP	27	240	6
TTP	27	288	3	E	0	M1
TTP	27	288	3	B	0	M1
TTP	27	288	4	B	0	M1
TTP	27	288	5	E	0	M1
TAP	27	336	1
TAP	27	336	6
TAP	28	0	0
TAP	28	0	7
TAP	28	48	1
TAP	28	48	6
TTP	28	96	3	B	0	M1
TTP	28	96	3	E	0	M1
TTP	28	96	4	B	0	M1
TTP	28	96	5	E	0	M1
TAP	28	144	1
TAP	28	144	6
TAP	28	192	0
TAP	28	192	7
TAP	28	240	1
TAP	28	240	6
TAP	28	288	2
TAP	28	288	5
TAP	28	336	2
TAP	28	336	5
HLD	29	0	1	48
TAP	29	0	3
TAP	29	48	3
TAP	29	96	4
HLD	29	96	6	48
TAP	29	144	4
TAP	29	192	2
TAP	29	192	5
TTP	29	288	2	B	0	M1
TTP	29	288	3	B	0	M1
TTP	29	288	3	E	0	M1
TTP	29	288	4	B	0	M1
TTP	29	288	5	B	0	M1
TTP	29	288	5	E	0	M1
TAP	30	0	0
TAP	30	0	7
TAP	30	48	1
TAP	30	48	6
TAP	30	96	2
TAP	30	96	5
TAP	30	144	3
TAP	30	144	4
TAP	30	192	1
TAP	30	192	3
TAP	30	240	2
TAP	30	240	4
TAP	30	288	3
TAP	30	288	5
TAP	30	336	4
TAP	30	336	6
STR	31	0	1
SCL	31	0	1	96	48	6
STR	31	0	5
SCL	31	0	5	96	48	2
TAP	31	48	1
TAP	31	48	5
TAP	31	192	0
STR	31	192	7
SCL	31	192	7	96	384	0
THO	31	288	0	288	C	1	M1
BRK	33	0	7
TAP	33	240	2
TAP	33	288	3
TAP	33	336	4
TAP	34	0	5
TAP	34	48	5
TAP	34	96	4
TAP	34	144	3
TAP	34	192	2
TAP	34	240	2
TAP	34	288	3
TAP	34	288	4
TAP	34	336	2
TAP	34	336	5
TAP	35	0	0
TAP	35	0	1
TAP	35	48	2
TAP	35	48	7
TTP	35	96	4	B	0	M1
TTP	35	96	4	E	0	M1
TTP	35	96	5	B	0	M1
TTP	35	96	6	E	0	M1
TAP	35	144	2
TAP	35	144	7
TAP	35	192	0
TAP	35	192	1
TAP	35	240	2
TAP	35	240	7
TTP	35	288	4	B	0	M1
TTP	35	288	4	E	0	M1
TTP	35	288	5	B	0	M1
TTP	35	288	6	E	0	M1
TAP	35	336	2
TAP	35	336	7
TAP	36	0	0
TAP	36	0	1
TAP	36	48	2
TAP	36	48	3
STR	36	96	4
SCL	36	96	4	96	96	7
TAP	36	96	5
TTP	37	0	0	C	1	M1
TAP	37	192	1
TAP	37	240	2
TAP	37	288	3
TAP	37	336	4
TAP	38	0	5
TAP	38	48	6
STR	38	96	0
SI_	38	96	0	96	48	4
STR	38	96	7
SI_	38	96	7	96	48	3
BRK	38	192	0
BRK	38	192	7
TAP	39	0	0
TAP	39	0	7
TAP	39	32	0
TAP	39	64	0
TAP	39	96	0
TTP	39	96	0	C	1	M1
TAP	39	192	0
TAP	39	192	7
TAP	39	224	7
TAP	39	256	7
TTP	39	288	0	C	1	M1
TAP	39	288	7
TAP	40	0	0
TAP	40	24	7
TAP	40	48	0
TAP	40	72	7
TAP	40	96	1
TAP	40	120	6
TAP	40	144	2
TAP	40	168	5
STR	40	192	3
SI_	40	192	3	96	48	0
TAP	40	216	4
TAP	40	240	3
TAP	40	264	4
STR	41	96	7
SCL	41	96	7	96	48	4
STR	41	192	7
SCR	41	192	7	96	48	2
STR	41	288	7
SCL	41	288	7	96	48	4
STR	42	0	7
SCR	42	0	7	96	48	2
TTP	42	16	6	B	0	M1
TTP	42	32	5	B	0	M1
TTP	42	48	4	B	0	M1
STR	42	96	7
SCL	42	96	7	96	48	4
TTP	42	112	0	B	0	M1
TTP	42	128	1	B	0	M1
TTP	42	144	2	B	0	M1
STR	42	192	7
SCR	42	192	7	96	48	2
TTP	42	208	6	B	0	M1
TTP	42	224	5	B	0	M1
TTP	42	240	4	B	0	M1
STR	42	288	7
SF_	42	288	7	96	48	3
TTP	42	304	0	B	0	M1
TTP	42	320	1	B	0	M1
TTP	42	336	2	B	0	M1
HLD	43	120	0	48
TAP	43	168	7
TAP	43	192	7
TAP	43	240	5
TAP	43	240	6
TAP	43	288	3
TAP	43	288	4
TAP	43	336	1
TAP	43	336	2
TAP	44	0	0
TAP	44	0	7
TAP	44	48	1
TAP	44	48	6
TAP	44	96	2
TAP	44	96	5
TAP	44	144	4
TAP	44	168	3
TAP	44	216	3
TAP	44	216	4
TAP	44	264	2
TAP	44	264	5
TAP	44	312	0
TAP	44	336	7
TAP	45	0	1
TAP	45	0	5
TAP	45	48	2
TAP	45	48	6
STR	45	96	0
SCR	45	96	0	96	48	3
STR	45	192	0
SCL	45	192	0	96	48	5
STR	45	288	0
SCR	45	288	0	96	48	3
STR	46	0	0
SCL	46	0	0	96	48	5
TTP	46	16	1	B	0	M1
TTP	46	32	2	B	0	M1
TTP	46	48	3	B	0	M1
TTP	46	112	7	B	0	M1
TTP	46	128	6	B	0	M1
TTP	46	144	5	B	0	M1
TAP	46	192	0
TAP	46	192	7
TAP	46	240	1
TAP	46	240	6
TAP	46	288	2
TAP	46	288	5
TAP	46	312	2
TAP	46	312	5
TTP	46	360	0	C	0	M1
TTP	46	360	1	B	0	M1
TTP	46	360	2	B	0	M1
TTP	46	360	5	B	0	M1
TTP	46	360	6	B	0	M1
HLD	47	120	0	48
TAP	47	168	7
TAP	47	192	7
TAP	47	240	0
TAP	47	240	1
TAP	47	288	6
TAP	47	288	7
TAP	47	336	4
TAP	47	336	5
TAP	48	0	3
TAP	48	0	4
TAP	48	48	5
TAP	48	48	6
TAP	48	96	0
TAP	48	96	7
TAP	48	144	1
TAP	48	144	2
TAP	48	192	3
TAP	48	192	4
TAP	48	240	2
TAP	48	240	5
STR	48	288	3
SI_	48	288	3	96	48	0
STR	48	288	4
SI_	48	288	4	96	48	7
TAP	48	336	1
TAP	48	336	6
TAP	49	0	3
TAP	49	0	4
STR	49	96	0
SCR	49	96	0	96	48	3
STR	49	192	0
SCL	49	192	0	96	48	5
STR	49	288	0
SCR	49	288	0	96	48	3
STR	50	0	0
SCL	50	0	0	96	48	5
TTP	50	16	1	B	0	M1
TTP	50	32	2	B	0	M1
TTP	50	48	3	B	0	M1
STR	50	96	0
SCR	50	96	0	96	48	3
TTP	50	112	7	B	0	M1
TTP	50	128	6	B	0	M1
TTP	50	144	5	B	0	M1
STR	50	192	0
SCL	50	192	0	96	48	5
TTP	50	208	1	B	0	M1
TTP	50	224	2	B	0	M1
TTP	50	240	3	B	0	M1
STR	50	288	0
SF_	50	288	0	96	48	4
TTP	50	304	7	B	0	M1
TTP	50	320	6	B	0	M1
TTP	50	336	5	B	0	M1
HLD	51	120	7	48
TAP	51	168	0
TAP	51	192	0
TAP	51	240	1
TAP	51	240	2
TAP	51	288	3
TAP	51	288	4
TAP	51	336	5
TAP	51	336	6
TAP	52	0	0
TAP	52	0	7
TAP	52	48	1
TAP	52	48	6
TAP	52	96	2
TAP	52	96	5
TAP	52	144	3
TAP	52	168	4
TAP	52	192	3
TAP	52	216	4
TAP	52	264	2
TAP	52	264	5
TAP	52	312	7
TAP	52	336	0
TAP	53	0	2
TAP	53	0	6
TAP	53	48	1
TAP	53	48	5
STR	53	96	7
SCL	53	96	7	96	48	4
STR	53	192	7
SCR	53	192	7	96	48	2
STR	53	288	7
SCL	53	288	7	96	48	4
STR	54	0	7
SCR	54	0	7	96	48	2
TTP	54	16	6	B	0	M1
TTP	54	32	5	B	0	M1
TTP	54	48	4	B	0	M1
TTP	54	112	0	B	0	M1
TTP	54	128	1	B	0	M1
TTP	54	144	2	B	0	M1
TAP	54	192	0
TAP	54	192	7
TAP	54	240	1
TAP	54	240	6
TAP	54	288	2
TAP	54	288	5
TAP	54	312	2
TAP	54	312	5
TTP	54	360	0	B	0	M1
TTP	54	360	1	B	0	M1
TTP	54	360	1	E	0	M1
TTP	54	360	6	B	0	M1
TTP	54	360	7	E	0	M1
TTP	54	360	7	B	0	M1
HLD	55	120	3	48
TAP	55	168	4
TAP	55	192	4
TAP	55	240	6
TAP	55	240	7
TAP	55	288	0
TAP	55	288	1
TAP	55	336	2
TAP	55	336	3
TAP	56	0	3
TAP	56	0	4
TAP	56	48	1
TAP	56	48	2
TAP	56	96	0
TAP	56	96	7
TAP	56	144	5
TAP	56	144	6
TAP	56	192	3
TAP	56	192	4
TAP	56	240	2
TAP	56	240	5
STR	56	288	0
SCR	56	288	0	96	864	7
TAP	56	288	7
TTP	57	0	0	C	1	M1
TTP	57	192	0	C	1	M1
TTP	58	0	0	C	1	M1
TTP	58	192	0	C	1	M1
TTP	59	0	0	C	1	M1
TAP	59	192	2
HLD	59	240	2	72
HLD	59	312	0	72
HLD	60	0	7	72
HLD	60	72	5	72
TAP	60	144	7
TAP	60	192	7
TAP	60	240	5
TAP	60	288	0
TAP	60	336	2
STR	61	0	7
SCR	61	0	7	96	48	2
TAP	61	48	5
TAP	61	96	4
TAP	61	144	6
TAP	61	192	5
HLD	61	240	5	72
HLD	61	312	7	72
HLD	62	0	0	72
HLD	62	72	2	72
TAP	62	144	0
TAP	62	192	0
TAP	62	240	2
TAP	62	288	7
TAP	62	336	5
STR	63	0	0
SCL	63	0	0	96	48	5
TAP	63	48	2
TAP	63	96	1
TAP	63	144	3
TAP	63	192	2
HLD	63	240	2	72
HLD	63	312	0	72
HLD	64	0	7	72
HLD	64	72	5	72
TAP	64	144	7
TAP	64	192	0
TAP	64	192	7
TAP	64	240	0
TAP	64	240	7
TAP	64	288	5
TAP	64	312	4
TAP	64	360	2
TAP	65	0	3
TAP	65	24	1
TAP	65	48	4
TAP	65	72	0
TAP	65	96	5
TAP	65	120	7
TAP	65	144	6
TAP	65	192	0
TAP	65	192	5
TAP	65	240	2
TAP	65	240	7
TAP	65	288	2
TAP	65	312	3
TAP	65	360	5
TAP	66	0	4
TAP	66	48	3
TAP	66	72	4
TTP	66	144	0	C	1	M1
TTP	66	144	1	B	0	M1
TTP	66	144	2	B	0	M1
TTP	66	144	5	B	0	M1
TTP	66	144	6	B	0	M1

T_REC_TAP	405
T_REC_BRK	3
T_REC_XTP	0
T_REC_HLD	45
T_REC_XHO	0
T_REC_STR	50
T_REC_BST	0
T_REC_XST	0
T_REC_TTP	110
T_REC_THO	2
T_REC_SLD	50
T_REC_ALL	665
T_NUM_TAP	565
T_NUM_BRK	3
T_NUM_HLD	47
T_NUM_SLD	50
T_NUM_ALL	665
T_JUDGE_TAP	568
T_JUDGE_HLD	111
T_JUDGE_SLD	50
T_JUDGE_ALL	729
TTM_EACHPAIRS	129
TTM_SCR_TAP	282500
TTM_SCR_BRK	7800
TTM_SCR_HLD	47000
TTM_SCR_SLD	75000
TTM_SCR_ALL	412300
TTM_SCR_S	399650
TTM_SCR_SS	412000
TTM_RAT_ACV	10007

