VERSION	0.00.00	1.02.00
FES_MODE	0
BPM_DEF	155.000	155.000	155.000	155.000
MET_DEF	4	4
RESOLUTION	384
CLK_DEF	384
COMPATIBLE_CODE	MA2

BPM	0	0	155.000
MET	0	0	4	4
MET	41	0	4	2
MET	41	192	4	4

HLD	1	0	2	384
HLD	2	0	5	384
TAP	2	96	4
TAP	2	288	4
HLD	3	0	2	384
HLD	4	0	5	384
TAP	4	96	4
TAP	4	192	3
TAP	4	288	2
TAP	5	0	1
TAP	5	96	0
TAP	5	96	2
HLD	5	192	1	72
HLD	5	264	2	72
TAP	5	336	3
STR	6	0	3
SI_	6	0	3	96	48	7
STR	6	192	0
SI_	6	192	0	96	48	4
TAP	7	0	6
TAP	7	96	5
TAP	7	96	7
HLD	7	192	6	72
HLD	7	264	5	72
TAP	7	336	4
STR	8	0	4
SI_	8	0	4	96	48	0
STR	8	192	7
SI_	8	192	7	96	48	3
TAP	9	0	1
TAP	9	96	0
TAP	9	96	2
HLD	9	192	1	72
HLD	9	264	2	72
TAP	9	336	3
STR	10	0	3
SI_	10	0	3	96	48	7
STR	10	192	0
SI_	10	192	0	96	48	4
TAP	11	0	6
TAP	11	96	5
TAP	11	96	7
HLD	11	192	6	72
HLD	11	264	5	72
TAP	11	336	4
STR	12	0	4
SCR	12	0	4	96	120	3
TTP	12	288	0	C	0
TAP	13	0	5
TAP	13	48	4
TAP	13	96	3
TAP	13	96	6
TAP	13	192	0
TAP	13	240	7
TAP	13	288	1
TAP	13	288	6
TAP	14	0	2
TAP	14	48	3
TAP	14	96	1
TAP	14	96	4
TAP	14	192	3
TAP	14	192	6
TTP	14	288	4	B	0
TTP	14	288	5	B	0
TAP	15	0	6
TAP	15	48	7
TAP	15	96	0
TAP	15	96	5
TAP	15	192	3
TAP	15	240	4
TAP	15	288	2
TAP	15	288	5
TAP	16	0	1
TAP	16	48	0
TAP	16	96	2
TAP	16	96	7
TAP	16	192	5
TAP	16	240	5
TAP	16	288	4
TAP	16	336	4
TAP	17	0	2
TAP	17	48	3
TAP	17	96	1
TAP	17	96	4
TAP	17	192	7
TAP	17	240	0
TAP	17	288	1
TAP	17	288	6
TAP	18	0	5
TAP	18	48	4
TAP	18	96	3
TAP	18	96	6
TAP	18	192	1
TAP	18	192	4
TTP	18	288	2	B	0
TTP	18	288	3	B	0
TAP	19	0	1
TAP	19	48	1
TAP	19	96	6
TAP	19	144	6
TAP	19	192	2
TAP	19	240	2
TAP	19	288	5
TAP	19	336	5
TAP	20	0	3
TAP	20	48	3
TAP	20	96	4
TAP	20	144	4
STR	20	192	3
SCL	20	192	3	96	192	0
STR	20	240	4
SUL	20	240	4	96	192	7
STR	21	288	7
SCL	21	288	7	96	192	4
STR	21	336	0
SUL	21	336	0	96	192	3
STR	22	288	1
SCL	22	288	1	96	192	6
STR	22	336	5
SUR	22	336	5	96	192	2
TTP	24	0	3	B	0
TTP	24	0	4	B	0
TTP	24	96	2	E	0
TTP	24	96	6	E	0
TTP	24	192	0	B	0
TTP	24	192	7	B	0
TAP	24	288	1
TAP	24	288	6
TAP	25	0	2
TAP	25	0	5
TAP	25	48	3
TAP	25	96	4
TAP	25	144	5
TAP	25	192	6
TAP	25	240	7
TAP	25	288	0
TAP	25	288	5
TAP	26	0	2
TAP	26	0	3
TAP	26	48	3
TAP	26	48	4
TAP	26	96	4
TAP	26	96	5
STR	26	192	3
SI_	26	192	3	96	48	7
STR	26	192	4
SI_	26	192	4	96	48	0
TAP	27	0	1
TAP	27	0	6
TAP	27	48	7
TAP	27	96	0
TAP	27	144	1
TAP	27	192	2
TAP	27	240	3
TAP	27	288	1
TAP	27	288	4
STR	28	0	6
SI_	28	0	6	96	48	4
STR	28	0	7
SI_	28	0	7	96	48	3
STR	28	192	0
SI_	28	192	0	96	48	4
STR	28	192	1
SI_	28	192	1	96	48	3
TAP	29	0	6
TAP	29	48	4
TAP	29	96	5
TAP	29	144	5
TAP	29	192	1
TAP	29	240	3
TAP	29	288	2
TAP	29	336	2
TAP	30	0	4
TAP	30	48	3
TAP	30	96	2
TAP	30	96	5
STR	30	192	6
SI_	30	192	6	96	48	2
STR	30	240	1
SI_	30	240	1	96	48	5
TAP	31	0	6
TAP	31	48	6
TAP	31	96	5
TAP	31	96	7
TAP	31	192	1
TAP	31	240	1
TAP	31	288	0
TAP	31	288	2
XTP	32	0	3
XTP	32	24	4
XTP	32	48	3
XTP	32	72	4
XTP	32	96	3
XTP	32	120	4
XTP	32	144	3
XTP	32	168	4
XTP	32	192	3
HLD	33	0	0	192
HLD	33	0	4	192
TAP	33	240	0
TAP	33	240	4
TAP	33	288	5
TAP	33	336	5
TAP	34	0	2
TAP	34	48	2
TAP	34	96	6
TAP	34	144	6
TAP	34	192	1
TAP	34	240	1
TAP	34	288	7
TAP	34	336	7
STR	35	0	0
SI_	35	0	0	96	48	5
STR	35	48	5
SI_	35	48	5	96	48	0
STR	35	192	7
SI_	35	192	7	96	48	2
STR	35	240	2
SI_	35	240	2	96	48	7
TAP	36	0	0
TAP	36	48	0
TAP	36	96	7
TAP	36	144	7
STR	36	192	0
SCR	36	192	0	96	48	3
STR	36	192	6
SCL	36	192	6	96	48	3
HLD	37	0	3	192
HLD	37	0	7	192
TAP	37	240	3
TAP	37	240	7
TAP	37	288	2
TAP	37	336	2
TAP	38	0	4
TAP	38	48	4
TAP	38	96	3
TAP	38	144	3
TAP	38	192	5
TAP	38	240	5
TAP	38	288	3
TAP	38	288	4
HLD	39	0	5	96
HLD	39	0	6	96
HLD	39	192	1	96
HLD	39	192	2	96
XTP	40	0	0
XTP	40	24	7
XTP	40	48	0
XTP	40	72	7
XTP	40	96	0
XTP	40	120	7
XTP	40	144	0
XTP	40	168	7
XTP	40	192	0
XTP	40	216	7
XTP	40	240	0
XTP	40	264	7
XTP	40	288	0
BRK	41	192	6
BRK	41	192	7
BRK	41	288	0
BRK	41	288	5
TAP	42	0	1
TAP	42	24	3
TAP	42	72	3
TAP	42	96	1
TAP	42	144	1
TAP	42	192	7
TAP	42	240	7
TAP	42	288	3
STR	42	312	6
SCL	42	312	6	96	48	3
TAP	42	360	6
STR	43	192	1
SI_	43	192	1	96	48	4
TAP	43	288	5
STR	44	0	2
SI_	44	0	2	96	48	7
TAP	44	96	6
STR	44	192	1
SI_	44	192	1	96	48	4
TAP	44	288	5
TTP	45	0	6	B	0
TTP	45	0	7	B	0
TTP	45	96	2	B	0
TTP	45	96	3	B	0
BRK	45	192	0
BRK	45	192	1
BRK	45	288	2
BRK	45	288	7
TAP	46	0	6
TAP	46	24	4
TAP	46	72	4
TAP	46	96	6
TAP	46	144	6
TAP	46	192	0
TAP	46	240	0
TAP	46	288	4
STR	46	312	1
SCR	46	312	1	96	48	4
TAP	46	360	1
STR	47	192	6
SI_	47	192	6	96	48	3
TAP	47	288	2
STR	48	0	5
SI_	48	0	5	96	48	0
TAP	48	96	1
STR	48	192	6
SI_	48	192	6	96	48	3
TAP	48	288	2
TTP	49	0	0	B	0
TTP	49	0	1	B	0
TTP	49	96	4	B	0
TTP	49	96	5	B	0
BRK	49	192	2
BRK	49	192	3
BRK	49	288	0
BRK	49	288	6
TAP	50	0	1
TAP	50	24	3
TAP	50	72	3
TAP	50	96	1
TAP	50	144	1
TAP	50	192	7
TAP	50	240	7
TAP	50	288	3
STR	50	312	6
SUL	50	312	6	96	48	2
TAP	50	360	6
STR	51	192	1
SI_	51	192	1	96	48	4
STR	51	288	6
SI_	51	288	6	96	48	3
STR	52	0	2
SI_	52	0	2	96	48	7
STR	52	96	5
SI_	52	96	5	96	48	0
STR	52	192	1
SI_	52	192	1	96	48	4
TAP	52	288	5
TTP	53	0	6	B	0
TTP	53	0	7	B	0
TTP	53	96	2	B	0
TTP	53	96	3	B	0
BRK	53	192	4
BRK	53	192	5
BRK	53	288	1
BRK	53	288	7
XTP	54	0	0
XTP	54	24	7
XTP	54	48	0
XTP	54	72	7
XTP	54	96	1
XTP	54	120	6
XTP	54	144	1
XTP	54	168	6
TAP	54	192	2
TAP	54	240	3
TAP	54	288	4
STR	54	312	1
SUR	54	312	1	96	48	5
TAP	54	360	1
STR	55	192	6
SI_	55	192	6	96	48	2
STR	55	288	1
SI_	55	288	1	96	48	5
STR	56	0	7
SI_	56	0	7	96	48	3
TAP	56	96	0
TAP	56	192	0
TAP	56	192	7
TAP	56	240	1
TAP	56	288	2
TAP	56	336	3
TAP	57	0	4
TAP	57	48	5
BRK	57	96	1
BRK	57	96	6
THO	57	192	0	384	C	1
TAP	59	192	7
HLD	59	240	7	72
HLD	59	312	0	72
HLD	60	0	1	72
HLD	60	72	2	72
TAP	60	144	3
STR	60	192	3
SI_	60	192	3	96	48	7
TAP	60	288	1
STR	61	0	2
SI_	61	0	2	96	48	0
TAP	61	96	7
TAP	61	192	0
HLD	61	240	0	72
HLD	61	312	7	72
HLD	62	0	6	72
HLD	62	72	5	72
TAP	62	144	4
STR	62	192	4
SI_	62	192	4	96	48	0
TAP	62	288	6
STR	63	0	5
SI_	63	0	5	96	48	7
TAP	63	96	0
TAP	63	192	7
HLD	63	240	7	72
HLD	63	312	0	72
HLD	64	0	1	72
HLD	64	72	2	72
TAP	64	144	3
STR	64	192	3
SI_	64	192	3	96	48	7
TAP	64	288	1
STR	65	0	0
SI_	65	0	0	96	48	4
TAP	65	96	6
TAP	65	192	5
TAP	65	240	4
TAP	65	240	5
TAP	65	288	2
TAP	65	312	3
TAP	65	360	3
TAP	66	0	4
TAP	66	48	4
TAP	66	72	5
TAP	66	144	0
TAP	66	144	7
XTP	66	168	0
XTP	66	168	7

T_REC_TAP	220
T_REC_BRK	18
T_REC_XTP	32
T_REC_HLD	32
T_REC_XHO	0
T_REC_STR	51
T_REC_BST	0
T_REC_XST	0
T_REC_TTP	23
T_REC_THO	1
T_REC_SLD	51
T_REC_ALL	428
T_NUM_TAP	326
T_NUM_BRK	18
T_NUM_HLD	33
T_NUM_SLD	51
T_NUM_ALL	428
T_JUDGE_TAP	344
T_JUDGE_HLD	104
T_JUDGE_SLD	51
T_JUDGE_ALL	499
TTM_EACHPAIRS	50
TTM_SCR_TAP	163000
TTM_SCR_BRK	46800
TTM_SCR_HLD	33000
TTM_SCR_SLD	76500
TTM_SCR_ALL	319300
TTM_SCR_S	308000
TTM_SCR_SS	317500
TTM_RAT_ACV	10056

