VERSION	0.00.00	1.03.00
FES_MODE	0
BPM_DEF	155.000	155.000	155.000	155.000
MET_DEF	4	4
RESOLUTION	384
CLK_DEF	384
COMPATIBLE_CODE	MA2

BPM	0	0	155.000
MET	0	0	4	4
MET	41	0	4	2
MET	41	192	4	4

TAP	1	0	2
TAP	1	96	3
TAP	1	192	3
TAP	1	192	4
TAP	2	0	5
TAP	2	96	4
TAP	2	192	3
TAP	2	192	4
TAP	3	0	2
TAP	3	96	3
TAP	3	192	3
TAP	3	192	4
TAP	4	0	4
TAP	4	96	3
XTP	4	192	2
XTP	4	192	5
TAP	5	0	5
TAP	5	96	5
TAP	5	192	4
TAP	5	288	4
TAP	6	0	5
TAP	6	96	5
TAP	6	192	4
TAP	6	192	6
TAP	7	0	2
TAP	7	96	2
TAP	7	192	3
TAP	7	288	3
TAP	8	0	2
TAP	8	96	2
TAP	8	192	1
TAP	8	192	3
TAP	9	0	1
TAP	9	96	1
TAP	9	192	0
TAP	9	288	0
TAP	10	0	1
TAP	10	96	1
TAP	10	192	0
TAP	10	192	2
TAP	11	0	5
TAP	11	96	6
TAP	11	192	7
TAP	11	288	0
TAP	12	0	1
TAP	12	96	2
TAP	12	192	3
TAP	12	192	4
STR	13	0	2
SI_	13	0	2	96	144	5
TAP	14	0	5
TAP	14	96	4
TAP	14	192	3
TAP	14	192	6
STR	15	0	6
SI_	15	0	6	96	144	1
TAP	16	0	1
TAP	16	96	0
TAP	16	192	2
TAP	16	192	7
STR	17	0	0
SI_	17	0	0	96	144	3
TAP	18	0	4
TAP	18	96	5
TAP	18	192	3
TAP	18	192	6
STR	19	0	4
SI_	19	0	4	96	144	7
TAP	20	0	0
TAP	20	0	1
TAP	20	96	2
TAP	20	96	7
TAP	20	192	3
TAP	20	192	6
TAP	20	288	4
TAP	20	288	5
HLD	21	0	3	384
HLD	21	0	6	384
HLD	23	0	1	384
HLD	23	0	4	384
HLD	25	0	5	192
TAP	25	96	4
TAP	25	192	4
HLD	26	0	2	192
TAP	26	96	3
TAP	26	192	3
HLD	27	0	1	192
TAP	27	96	0
TAP	27	192	0
HLD	28	0	6	192
TAP	28	96	7
TAP	28	192	7
TAP	29	0	5
TAP	29	96	5
TAP	29	192	4
TAP	29	192	5
TAP	29	288	3
TAP	29	288	4
TAP	30	0	2
TAP	30	96	2
TAP	30	192	2
TAP	30	192	3
TAP	30	288	3
TAP	30	288	4
TAP	31	0	5
TAP	31	96	4
TAP	31	192	3
TAP	31	288	2
HLD	32	0	3	192
HLD	32	0	4	192
TTP	33	0	3	B	0	L1
TTP	33	192	2	B	0	L1
TTP	34	0	1	B	0	L1
TTP	34	192	0	B	0	L1
HLD	35	0	7	192
HLD	35	192	6	192
HLD	36	0	5	192
TAP	36	192	4
TTP	37	0	4	B	0	L1
TTP	37	192	5	B	0	L1
TTP	38	0	6	B	0	L1
TTP	38	192	7	B	0	L1
HLD	39	0	0	96
HLD	39	0	1	96
HLD	39	192	6	96
HLD	39	192	7	96
TAP	40	0	0
TAP	40	0	7
TAP	40	96	1
TAP	40	96	6
BRK	40	192	2
BRK	40	192	5
TAP	41	192	3
TAP	41	192	5
TAP	41	288	3
TAP	41	288	5
TAP	42	0	2
TAP	42	0	4
TAP	42	96	2
TAP	42	96	4
TAP	42	192	3
TAP	42	192	5
TAP	42	288	2
TAP	42	288	4
TAP	43	0	3
TAP	43	0	5
TAP	43	192	6
TAP	43	288	7
TAP	44	0	0
TAP	44	96	1
TAP	44	192	2
TAP	44	288	3
XTP	45	0	1
XTP	45	0	4
TAP	45	192	2
TAP	45	192	4
TAP	45	288	2
TAP	45	288	4
TAP	46	0	3
TAP	46	0	5
TAP	46	96	3
TAP	46	96	5
TAP	46	192	2
TAP	46	192	4
TAP	46	288	3
TAP	46	288	5
TAP	47	0	2
TAP	47	0	4
TAP	47	192	2
TAP	47	288	3
TAP	48	0	4
TAP	48	96	5
TAP	48	192	6
TAP	48	288	7
XTP	49	0	0
XTP	49	0	5
TAP	49	192	1
TAP	49	192	7
TAP	49	288	1
TAP	49	288	7
TAP	50	0	0
TAP	50	0	6
TAP	50	96	0
TAP	50	96	6
TAP	50	192	1
TAP	50	192	7
TAP	50	288	0
TAP	50	288	6
XTP	51	0	1
XTP	51	0	7
TAP	51	192	2
TAP	51	240	2
TAP	51	288	2
TAP	52	0	3
TAP	52	48	3
TAP	52	96	3
TAP	52	192	4
TAP	52	240	4
TAP	52	288	4
TAP	53	0	3
TAP	53	0	5
TAP	53	192	0
TAP	53	192	6
TAP	53	288	0
TAP	53	288	6
TAP	54	0	1
TAP	54	0	7
TAP	54	96	1
TAP	54	96	7
TAP	54	192	0
TAP	54	192	6
TAP	54	288	1
TAP	54	288	7
XTP	55	0	0
XTP	55	0	6
TAP	55	192	6
TAP	55	240	6
TAP	55	288	6
TAP	56	0	7
TAP	56	48	7
TAP	56	96	7
TAP	56	192	0
TAP	56	240	0
TAP	56	288	0
TAP	57	0	0
TAP	57	0	7
BRK	57	96	1
BRK	57	96	6
HLD	57	192	1	384
HLD	57	192	6	384
TAP	59	192	2
TAP	59	288	2
TAP	60	0	3
TAP	60	96	3
TAP	60	192	4
TAP	60	288	4
TAP	61	0	3
TAP	61	0	5
TAP	61	192	5
TAP	61	288	5
TAP	62	0	4
TAP	62	96	4
TAP	62	192	3
TAP	62	288	3
TAP	63	0	2
TAP	63	0	4
TAP	63	192	1
TAP	63	288	1
TAP	64	0	0
TAP	64	96	0
TAP	64	192	7
TAP	64	288	7
TAP	65	0	0
TAP	65	0	6
STR	65	192	1
SI_	65	192	1	96	192	5

T_REC_TAP	205
T_REC_BRK	4
T_REC_XTP	10
T_REC_HLD	19
T_REC_XHO	0
T_REC_STR	5
T_REC_BST	0
T_REC_XST	0
T_REC_TTP	8
T_REC_THO	0
T_REC_SLD	5
T_REC_ALL	256
T_NUM_TAP	228
T_NUM_BRK	4
T_NUM_HLD	19
T_NUM_SLD	5
T_NUM_ALL	256
T_JUDGE_TAP	232
T_JUDGE_HLD	92
T_JUDGE_SLD	5
T_JUDGE_ALL	329
TTM_EACHPAIRS	64
TTM_SCR_TAP	114000
TTM_SCR_BRK	10400
TTM_SCR_HLD	19000
TTM_SCR_SLD	7500
TTM_SCR_ALL	150900
TTM_SCR_S	146000
TTM_SCR_SS	150500
TTM_RAT_ACV	10026

