VERSION	0.00.00	1.03.00
FES_MODE	0
BPM_DEF	155.000	155.000	155.000	155.000
MET_DEF	4	4
RESOLUTION	384
CLK_DEF	0
COMPATIBLE_CODE	MA2

BPM	0	0	155.000
MET	0	0	4	4
MET	41	0	4	2
MET	41	192	4	4
CLK	0	0
CLK	0	96
CLK	0	192
CLK	0	288

TAP	5	0	7
TAP	6	0	6
TAP	7	0	5
TAP	8	0	4
TAP	9	0	3
TAP	10	0	2
TAP	11	0	1
TAP	12	0	0
TAP	13	0	0
TAP	13	96	0
TAP	14	0	1
TAP	14	96	1
TAP	15	0	2
TAP	15	96	2
TAP	16	0	3
TAP	16	0	4
TAP	17	0	4
TAP	17	96	4
TAP	18	0	5
TAP	18	96	5
TAP	19	0	6
TAP	19	96	6
TAP	20	0	0
TAP	20	0	7
STR	21	0	6
SI_	21	0	6	96	288	2
STR	23	0	1
SI_	23	0	1	96	288	5
TAP	25	0	7
TAP	25	96	7
TAP	26	0	6
TAP	26	96	6
TAP	27	0	5
TAP	27	96	5
TAP	28	0	3
TAP	28	0	4
TAP	28	192	3
TAP	28	192	4
TAP	29	0	2
TAP	29	96	2
TAP	30	0	1
TAP	30	96	1
STR	31	0	0
SI_	31	0	0	96	288	4
TAP	33	0	3
TAP	33	0	4
TAP	33	192	3
TAP	33	192	4
TTP	34	0	3	E	0	L1
TTP	34	192	4	E	0	L1
TTP	35	0	5	E	0	L1
TTP	35	192	6	E	0	L1
TTP	36	0	7	E	0	L1
TTP	36	192	0	E	0	L1
TTP	37	0	1	E	0	L1
TAP	38	0	2
TAP	38	192	3
TAP	38	192	4
TTP	39	0	4	E	0	L1
TTP	39	192	2	B	0	L1
TTP	39	192	5	B	0	L1
TTP	40	0	0	C	1	L1
TAP	41	192	0
TAP	41	288	0
TAP	42	0	0
TAP	42	192	1
TAP	42	288	1
TAP	43	0	1
TAP	43	192	2
TAP	43	288	2
TAP	44	0	2
TAP	44	192	3
TAP	44	288	3
TAP	45	0	3
TAP	45	0	4
TAP	45	192	4
TAP	45	288	4
TAP	46	0	4
TAP	46	192	5
TAP	46	288	5
TAP	47	0	5
TAP	47	192	6
TAP	47	288	6
TAP	48	0	6
XTP	48	192	0
XTP	48	192	7
XTP	49	0	0
XTP	49	0	7
TAP	49	192	7
TAP	49	288	7
TAP	50	0	7
TAP	50	192	6
TAP	50	288	6
TAP	51	0	6
TAP	51	192	5
TAP	51	288	5
TAP	52	0	5
TAP	52	192	4
TAP	52	288	4
TAP	53	0	3
TAP	53	0	4
TAP	53	192	2
TAP	53	288	2
TAP	54	0	2
TAP	54	192	3
TAP	54	288	3
TAP	55	0	3
TAP	55	192	4
TAP	55	288	4
TAP	56	0	4
TTP	56	192	4	E	0	L1
TTP	57	0	3	E	0	L1
TTP	57	0	5	E	0	L1
TTP	57	192	0	C	1	L1
TAP	59	192	7
TAP	59	288	7
TAP	60	0	7
TAP	60	192	6
TAP	60	288	6
TAP	61	0	6
TAP	61	0	7
TAP	61	192	5
TAP	61	288	5
TAP	62	0	5
TAP	62	192	4
TAP	62	288	4
TAP	63	0	3
TAP	63	0	4
TAP	63	192	3
TAP	63	288	3
TAP	64	0	3
TAP	64	192	2
TAP	64	288	2
BRK	65	0	2
BRK	65	0	3
STR	65	192	1
SI_	65	192	1	96	288	5

T_REC_TAP	108
T_REC_BRK	2
T_REC_XTP	4
T_REC_HLD	0
T_REC_XHO	0
T_REC_STR	4
T_REC_BST	0
T_REC_XST	0
T_REC_TTP	15
T_REC_THO	0
T_REC_SLD	4
T_REC_ALL	137
T_NUM_TAP	131
T_NUM_BRK	2
T_NUM_HLD	0
T_NUM_SLD	4
T_NUM_ALL	137
T_JUDGE_TAP	133
T_JUDGE_HLD	0
T_JUDGE_SLD	4
T_JUDGE_ALL	137
TTM_EACHPAIRS	14
TTM_SCR_TAP	65500
TTM_SCR_BRK	5200
TTM_SCR_HLD	0
TTM_SCR_SLD	6000
TTM_SCR_ALL	76700
TTM_SCR_S	74250
TTM_SCR_SS	76500
TTM_RAT_ACV	10026

