VERSION	0.00.00	1.04.00
FES_MODE	0
BPM_DEF	145.000	145.000	145.000	145.000
MET_DEF	4	4
RESOLUTION	384
CLK_DEF	384
COMPATIBLE_CODE	MA2

BPM	0	0	145.000
MET	0	0	4	4

NMHLD	1	0	4	288
NMTAP	1	96	3
NMTAP	1	192	3
NMTAP	1	288	3
NMHLD	2	0	3	288
NMTAP	2	96	4
NMTAP	2	192	4
NMTAP	2	288	4
NMTAP	3	0	3
NMHLD	3	0	4	288
NMTAP	3	96	3
NMTAP	3	192	3
NMTAP	3	288	3
NMHLD	4	0	3	192
NMTAP	4	0	4
NMTAP	4	96	4
NMTAP	4	192	4
NMTAP	4	288	3
NMTAP	4	312	4
NMTAP	4	336	3
NMTAP	4	360	4
NMHLD	5	0	2	384
NMTAP	5	96	3
NMTAP	5	192	3
NMTAP	5	288	3
NMHLD	6	0	5	384
NMTAP	6	96	4
NMTAP	6	192	4
NMTAP	6	288	4
NMHLD	7	0	2	288
NMTAP	7	96	3
NMTAP	7	192	3
NMTAP	7	288	3
NMHLD	8	0	3	192
NMTAP	8	0	4
NMSTR	8	96	5
NMSXL	8	96	5	96	192	3
BRTAP	9	0	0
NMTAP	9	96	1
NMTAP	9	96	7
NMTAP	9	144	2
NMTAP	9	192	2
NMTAP	9	192	5
NMTAP	9	240	4
NMTAP	9	288	1
NMTAP	9	288	4
NMTAP	9	336	0
NMSTR	10	0	5
NMSI_	10	0	5	96	48	3
NMTAP	10	48	5
NMTAP	10	96	1
NMTAP	10	144	2
NMTAP	10	192	4
NMTAP	10	240	5
NMTAP	10	288	3
NMTAP	10	288	6
NMTAP	10	336	2
EXTAP	11	0	1
EXTAP	11	0	7
NMTAP	11	96	0
NMTAP	11	96	6
NMTAP	11	144	5
NMTAP	11	192	2
NMTAP	11	192	5
NMTAP	11	240	3
NMTAP	11	288	3
NMTAP	11	288	6
NMTAP	11	336	7
NMSTR	12	0	2
NMSI_	12	0	2	96	48	7
NMTAP	12	48	2
NMSTR	12	96	6
NMSCL	12	96	6	96	120	1
NMTAP	12	144	6
EXTAP	12	192	7
BRTAP	13	0	0
BRTAP	13	0	6
NMTAP	13	96	2
NMTAP	13	96	4
NMTAP	13	144	5
NMSTR	13	192	3
NMSI_	13	192	3	96	48	7
NMTAP	13	192	6
NMTAP	13	240	3
NMTAP	13	288	7
NMTAP	13	336	6
NMTAP	14	0	0
NMTAP	14	0	5
NMTAP	14	48	0
NMTAP	14	96	4
NMTAP	14	144	5
NMTAP	14	192	3
NMTAP	14	192	6
NMTAP	14	240	3
NMTAP	14	288	2
NMTAP	14	288	4
NMTAP	14	336	4
NMSTR	15	0	0
NMSI_	15	0	0	96	48	6
NMSTR	15	96	5
NMSI_	15	96	5	96	48	3
NMTAP	15	144	5
NMSTR	15	192	2
NMSI_	15	192	2	96	48	0
NMTAP	15	240	2
NMTAP	15	288	4
NMTAP	15	336	5
EXTAP	16	0	0
EXTAP	16	0	6
NMTAP	16	48	5
NMSTR	16	96	4
NMSUL	16	96	4	96	144	3
NMTAP	16	144	3
NMTAP	16	192	2
NMHLD	17	0	1	72
NMHLD	17	72	2	72
NMHLD	17	144	3	96
NMTAP	17	240	4
NMTAP	17	288	3
NMTAP	17	336	5
NMTAP	18	0	4
NMHLD	18	0	6	72
NMHLD	18	72	5	72
NMHLD	18	144	4	96
NMTAP	18	288	3
NMTAP	18	336	3
NMHLD	19	0	2	72
NMHLD	19	72	3	72
NMHLD	19	144	4	96
NMTAP	19	240	7
NMSTR	19	288	7
NMSI_	19	288	7	96	48	4
BRTAP	20	0	4
NMTAP	20	72	2
NMHLD	20	144	1	96
NMTAP	20	144	5
NMTAP	20	240	2
NMTAP	20	288	3
NMTAP	20	336	4
NMHLD	21	0	5	72
NMHLD	21	72	6	72
NMSTR	21	144	7
NMSI_	21	144	7	96	48	1
NMTAP	21	240	4
NMTAP	21	288	4
NMTAP	21	336	3
NMHLD	22	0	2	72
NMHLD	22	72	1	72
NMSTR	22	144	0
NMSI_	22	144	0	96	48	6
NMTAP	22	240	3
NMTAP	22	288	3
NMTAP	22	336	4
NMHLD	23	0	5	72
NMHLD	23	72	6	72
NMSTR	23	144	7
NMSCR	23	144	7	96	48	2
NMTAP	23	240	4
NMSTR	23	288	4
NMSXL	23	288	4	96	144	4
BRSXR	23	288	4	96	144	4
NMTAP	24	240	3
NMTAP	24	240	5
NMTAP	24	288	3
NMHLD	24	288	5	96
BRTAP	25	0	0
NMTAP	25	96	3
NMTAP	25	96	6
NMTAP	25	144	5
NMTAP	25	168	4
NMTAP	25	192	5
NMTAP	25	216	4
NMTAP	25	240	5
NMSTR	25	288	6
NMSI_	25	288	6	96	48	0
NMTAP	25	336	6
NMTAP	26	0	4
NMTAP	26	48	3
NMTAP	26	96	7
NMTAP	26	144	6
NMTAP	26	192	2
NMSTR	26	192	5
NMSI_	26	192	5	96	48	0
NMTAP	26	240	1
NMTAP	26	288	0
NMTAP	26	336	1
NMTAP	27	0	2
NMTAP	27	0	7
NMTAP	27	96	1
NMTAP	27	96	4
NMTAP	27	144	2
NMTAP	27	168	3
NMTAP	27	192	2
NMTAP	27	216	3
NMTAP	27	240	2
NMSTR	27	288	1
NMSI_	27	288	1	96	48	7
NMTAP	27	336	1
NMTAP	28	0	3
NMTAP	28	48	4
NMTAP	28	96	0
NMTAP	28	144	1
NMSTR	28	192	2
NMSI_	28	192	2	96	48	7
NMTAP	28	192	6
NMTAP	28	240	6
NMTAP	28	288	5
NMTAP	28	336	4
BRSTR	29	0	0
NMSCL	29	0	0	96	48	5
NMTAP	29	0	3
NMTAP	29	96	4
NMTAP	29	144	4
NMSTR	29	192	3
NMSI_	29	192	3	96	48	0
NMTAP	29	240	3
NMTAP	29	288	7
NMTAP	29	336	6
NMSTR	30	0	5
NMSI_	30	0	5	96	48	3
NMTAP	30	48	5
NMTAP	30	96	0
NMTAP	30	144	0
NMSTR	30	192	4
NMSI_	30	192	4	96	48	6
NMTAP	30	240	4
NMTAP	30	288	2
NMTAP	30	336	1
EXTAP	31	0	0
EXTAP	31	0	6
NMSTR	31	96	1
NMSI_	31	96	1	96	48	4
NMTAP	31	144	1
NMTAP	31	192	4
CNSI_	31	240	4	0	48	2
NMTAP	31	240	5
NMSTR	31	288	6
NMSI_	31	288	6	96	48	3
NMTAP	31	336	6
NMTAP	32	0	0
NMTAP	32	48	1
CNSI_	32	48	3	0	48	7
NMSTR	32	96	2
NMSI_	32	96	2	96	48	4
NMTAP	32	144	2
NMTAP	32	192	7
NMTAP	32	240	6
EXTAP	32	288	0
EXTAP	32	288	5
NMHLD	33	0	2	240
NMTAP	33	0	4
NMTTP	33	72	2	B	0	M1
NMHLD	33	144	3	96
NMTAP	33	288	1
NMTAP	33	288	4
NMTAP	33	336	2
NMTAP	34	0	3
NMHLD	34	0	5	144
NMTTP	34	72	4	B	0	M1
NMHLD	34	144	3	96
NMTAP	34	240	4
NMTAP	34	288	3
NMTAP	34	288	5
NMTAP	34	336	2
NMTAP	34	336	4
NMHLD	35	0	1	240
NMTAP	35	0	3
NMTTP	35	72	2	B	0	M1
NMHLD	35	144	3	96
NMTAP	35	288	1
NMSTR	35	288	3
NMSXR	35	288	3	96	144	4
NMTAP	35	336	4
NMHLD	36	0	5	144
NMTAP	36	240	6
NMTAP	36	288	5
NMTAP	36	336	4
NMHLD	37	0	1	240
NMTAP	37	0	3
NMTTP	37	72	2	B	0	M1
NMHLD	37	144	3	96
NMTAP	37	288	1
NMTAP	37	288	3
NMTAP	37	336	2
NMTAP	38	0	3
NMHLD	38	0	4	144
NMTTP	38	72	4	B	0	M1
NMHLD	38	144	3	96
NMTAP	38	240	4
NMTAP	38	288	3
NMTAP	38	336	5
NMTAP	39	0	4
NMHLD	39	0	6	240
NMTTP	39	72	5	B	0	M1
NMHLD	39	144	4	96
NMSTR	39	288	4
NMSCR	39	288	4	96	192	2
NMTAP	39	288	6
NMTAP	39	336	3
BRTAP	40	0	2
NMTAP	40	240	0
NMSTR	40	288	0
NMSI_	40	288	0	96	96	6
NMHLD	41	0	5	96
CNSI_	41	96	6	0	96	1
CNSI_	41	192	1	0	96	5
NMHLD	41	192	6	96
CNSI_	41	288	5	0	96	2
CNSI_	42	0	2	0	96	4
NMHLD	42	0	7	96
BRTAP	42	192	0
NMTAP	42	288	1
NMSTR	42	288	6
BRSCL	42	288	6	96	48	3
NMSTR	43	0	2
NMSI_	43	0	2	96	48	7
BRTAP	43	0	6
NMTAP	43	48	1
NMSTR	43	96	6
BRSI_	43	96	6	96	48	3
NMTAP	43	144	5
NMSTR	43	192	2
NMSI_	43	192	2	96	48	7
NMTAP	43	240	1
NMSTR	43	288	5
BRSCL	43	288	5	96	48	2
EXTAP	43	336	6
BXSTR	44	0	0
BRSF_	44	0	0	96	48	4
NMTAP	44	48	1
BXTAP	44	96	0
BRTAP	44	192	2
BRTAP	44	192	6
NMTAP	44	288	4
NMTAP	44	288	5
NMTAP	44	336	3
NMTAP	44	336	4
NMHLD	45	0	2	96
NMTAP	45	0	3
NMTAP	45	96	3
NMTAP	45	144	3
NMTAP	45	144	4
NMTAP	45	192	4
NMSTR	45	192	6
NMSI_	45	192	6	96	48	4
NMTAP	45	288	6
NMSTR	45	288	7
NMSI_	45	288	7	96	48	3
NMSTR	46	0	0
NMSI_	46	0	0	96	48	2
NMTAP	46	0	7
NMTAP	46	96	0
NMSTR	46	96	4
NMSI_	46	96	4	96	48	0
NMTAP	46	192	4
EXTAP	46	192	6
EXTAP	46	288	0
NMSTR	46	288	5
BRSCR	46	288	5	96	48	0
NMSTR	47	0	1
NMSI_	47	0	1	96	48	4
BXTAP	47	0	5
NMTAP	47	48	2
NMSTR	47	96	5
BRSI_	47	96	5	96	48	0
NMTAP	47	144	6
NMSTR	47	192	1
NMSI_	47	192	1	96	48	4
NMTAP	47	240	2
NMSTR	47	288	6
BRSCR	47	288	6	96	48	1
EXTAP	47	336	7
BXSTR	48	0	3
BRSF_	48	0	3	96	48	7
NMTAP	48	48	2
BXTAP	48	96	3
BRTAP	48	192	1
BRTAP	48	192	5
EXSTR	48	288	0
NMSI_	48	288	0	96	48	3
EXSTR	48	288	6
NMSV_	48	288	6	96	48	3
NMTAP	48	336	1
NMTAP	48	336	5
NMTAP	49	0	0
NMTAP	49	0	6
EXSTR	49	96	1
NMSV_	49	96	1	96	48	4
EXSTR	49	96	7
NMSI_	49	96	7	96	48	4
NMTAP	49	144	2
NMTAP	49	144	6
NMTAP	49	192	1
NMTAP	49	192	7
EXTAP	49	288	3
EXTAP	49	288	5
NMSTR	50	0	2
NMSCL	50	0	2	96	48	0
NMSTR	50	0	6
NMSCL	50	0	6	96	48	4
NMSTR	50	96	2
NMSXR	50	96	2	96	144	4
NMTAP	50	96	6
EXTAP	51	0	4
NMTAP	51	0	6
NMTAP	51	48	7
NMTAP	51	96	3
NMTAP	51	96	5
NMTAP	51	144	0
NMTAP	51	192	4
NMTAP	51	192	6
NMTAP	51	240	7
NMTAP	51	288	3
NMTAP	51	288	5
NMTAP	51	336	2
NMTAP	51	336	4
NMTAP	52	0	1
NMTAP	52	0	3
NMTAP	52	48	0
NMTAP	52	96	2
NMTAP	52	96	4
NMTAP	52	144	7
NMTAP	52	192	1
NMTAP	52	192	3
NMTAP	52	240	0
NMTAP	52	288	2
NMSTR	52	288	4
NMSI_	52	288	4	96	48	0
NMTAP	52	336	3
NMTAP	52	336	5
NMSTR	53	0	6
NMSI_	53	0	6	96	48	4
NMSTR	53	96	1
NMSI_	53	96	1	96	48	3
NMTAP	53	96	6
NMTAP	53	192	1
NMSTR	53	192	7
NMSI_	53	192	7	96	48	5
NMSTR	53	288	4
NMSI_	53	288	4	96	48	0
NMTAP	53	288	7
NMSTR	54	0	4
NMSCR	54	0	4	96	48	7
EXTAP	54	0	6
EXTAP	54	96	3
NMSTR	54	96	4
NMSCL	54	96	4	96	48	1
NMTAP	54	192	4
EXTAP	54	192	5
NMTAP	54	288	6
NMTAP	54	336	0
NMTAP	54	336	6
NMTAP	55	0	1
NMTAP	55	24	0
NMTAP	55	48	2
NMTAP	55	72	7
NMTAP	55	96	3
NMTAP	55	120	6
NMTAP	55	144	4
NMTAP	55	168	5
NMTAP	55	192	2
NMTAP	55	216	3
NMTAP	55	240	1
NMTAP	55	264	4
NMTAP	55	288	0
NMTAP	55	312	5
NMTAP	55	336	7
NMTAP	55	360	6
NMTAP	56	0	4
NMTAP	56	24	5
NMTAP	56	48	4
NMTAP	56	72	5
NMTAP	56	96	3
NMTAP	56	120	4
NMTAP	56	144	3
NMTAP	56	168	4
NMTAP	56	192	2
NMTAP	56	216	3
NMTAP	56	240	1
NMTAP	56	264	4
NMTAP	56	288	2
NMTAP	56	312	3
NMTAP	56	336	1
NMTAP	56	360	4
NMTAP	57	0	2
NMTAP	57	24	2
NMTAP	57	48	3
NMTAP	57	72	3
NMTAP	57	96	4
NMTAP	57	120	4
NMTAP	57	144	5
NMTAP	57	168	5
NMTAP	57	192	1
NMTAP	57	216	1
NMTAP	57	240	0
NMTAP	57	264	0
NMTAP	57	288	7
NMTAP	57	312	7
NMTAP	57	336	6
NMTAP	57	360	6
NMTAP	58	0	4
NMTAP	58	24	5
NMTAP	58	48	3
NMTAP	58	72	4
NMTAP	58	96	1
NMTAP	58	120	3
NMTAP	58	144	1
NMTAP	58	168	3
NMTAP	58	192	2
NMTAP	58	216	4
NMTAP	58	240	3
NMTAP	58	264	5
NMSTR	58	288	4
NMSI_	58	288	4	96	48	0
NMTAP	58	312	5
NMTAP	58	336	4
NMTAP	58	360	5
BRSTR	59	0	4
NMSXL	59	0	4	96	288	4
CNSXR	60	0	4	0	384	4
NMHLD	61	0	5	768
NMTTP	62	0	4	A	0	M1
NMTTP	62	192	3	A	0	M1
NMHLD	63	0	2	384
NMTTP	63	192	4	D	0	M1
NMHLD	64	0	4	384
NMTTP	64	192	4	E	0	M1
NMHLD	65	0	2	384
NMTHO	65	192	0	384	C	0	M1
NMSTR	66	288	0
BRSI_	66	288	0	96	48	4
NMTAP	66	288	7
BRTAP	67	0	0
NMSTR	67	0	6
NMSI_	67	0	6	96	48	3
NMTAP	67	48	7
NMSTR	67	96	2
BRSI_	67	96	2	96	48	5
NMTAP	67	96	6
NMTAP	67	144	1
NMTAP	67	192	2
NMSTR	67	192	7
NMSI_	67	192	7	96	48	3
NMTAP	67	240	6
NMSTR	67	288	0
BRSI_	67	288	0	96	48	4
NMTAP	67	288	7
NMTAP	67	336	1
NMTAP	68	0	0
NMTAP	68	0	6
NMTAP	68	48	5
EXSTR	68	96	3
BRSI_	68	96	3	96	48	0
EXSTR	68	96	4
NMSI_	68	96	4	96	48	7
EXTAP	68	144	2
EXTAP	68	144	5
EXTAP	68	192	3
EXTAP	68	192	4
EXSTR	68	288	0
NMSI_	68	288	0	96	48	4
EXTAP	68	288	7
NMTAP	68	336	1
NMTAP	69	0	0
NMTAP	69	0	2
EXTAP	69	96	3
EXSTR	69	96	4
BRSI_	69	96	4	96	48	0
NMTAP	69	144	5
NMTAP	69	192	4
EXSTR	69	192	6
NMSI_	69	192	6	96	48	2
BXSTR	69	288	0
NMSCR	69	288	0	96	48	3
NMTAP	69	288	6
BXSTR	70	0	0
BRSCL	70	0	0	96	48	5
BXTAP	70	96	0
BXSTR	70	96	4
NMSI_	70	96	4	96	48	0
BXTAP	70	192	4
BXTAP	70	192	5
BXTAP	70	288	0
BXSTR	70	288	7
BRSI_	70	288	7	96	48	3
NMSTR	71	0	1
NMSI_	71	0	1	96	48	4
BRTAP	71	0	7
NMTAP	71	48	0
NMTAP	71	96	1
NMSTR	71	96	5
BRSI_	71	96	5	96	48	2
NMTAP	71	144	6
NMSTR	71	192	0
NMSI_	71	192	0	96	48	4
NMTAP	71	192	5
NMTAP	71	240	1
NMTAP	71	288	0
NMSTR	71	288	7
BRSI_	71	288	7	96	48	3
NMTAP	71	336	6
NMTAP	72	0	1
NMTAP	72	0	7
NMTAP	72	48	2
EXSTR	72	96	3
NMSCL	72	96	3	96	48	0
EXSTR	72	96	4
BRSCR	72	96	4	96	48	7
EXTAP	72	144	2
EXTAP	72	144	5
EXTAP	72	192	3
EXTAP	72	192	4
BXSTR	72	288	1
BRSI_	72	288	1	96	48	4
EXSTR	72	288	6
NMSI_	72	288	6	96	48	3
BXTAP	72	336	2
EXTAP	72	336	5
BXTAP	73	0	1
EXTAP	73	0	6
BXSTR	73	96	0
BRSI_	73	96	0	96	48	4
EXSTR	73	96	7
NMSI_	73	96	7	96	48	3
BXTAP	73	144	2
EXTAP	73	144	5
BXTAP	73	192	0
EXTAP	73	192	7
BRSTR	73	288	2
BRSI_	73	288	2	96	48	0
NMSTR	73	288	5
NMSI_	73	288	5	96	48	7
BRSTR	74	0	2
BRSI_	74	0	2	96	48	4
NMSTR	74	0	5
NMSI_	74	0	5	96	48	3
BRTAP	74	96	2
NMSTR	74	96	5
NMSXL	74	96	5	96	144	3
NMTTP	74	192	0	C	1	M1
BRTAP	75	0	0
NMTAP	75	96	3
NMTAP	75	96	6
NMTAP	75	144	5
NMTAP	75	168	4
NMTAP	75	192	6
NMTAP	75	216	4
NMTAP	75	240	5
NMTAP	75	288	3
NMSTR	75	288	6
NMSI_	75	288	6	96	48	2
NMTAP	75	336	5
NMSTR	76	0	1
NMSI_	76	0	1	96	48	7
NMTAP	76	48	1
NMSTR	76	96	5
NMSI_	76	96	5	96	48	3
NMTAP	76	144	5
NMTAP	76	192	0
NMTAP	76	240	1
NMTAP	76	288	2
NMTAP	76	336	3
NMTAP	77	0	6
NMTAP	77	48	5
NMTAP	77	96	1
NMTAP	77	96	4
NMTAP	77	144	2
NMTAP	77	168	3
NMTAP	77	192	1
NMTAP	77	216	3
NMTAP	77	240	2
NMSTR	77	288	1
NMSI_	77	288	1	96	48	5
NMTAP	77	288	4
NMTAP	77	336	2
NMSTR	78	0	6
NMSI_	78	0	6	96	48	0
NMTAP	78	48	6
NMSTR	78	96	2
NMSLR	78	96	2	96	96	0
NMTAP	78	144	2
NMTAP	78	192	4
NMTAP	78	240	5
NMTAP	78	288	6
NMTAP	78	336	6
BRTAP	79	0	1
BRTAP	79	0	7
NMTAP	79	96	3
NMTAP	79	96	5
NMTAP	79	144	6
NMTAP	79	168	4
NMTAP	79	192	5
NMTAP	79	216	4
NMTAP	79	240	6
NMTAP	79	288	3
NMSTR	79	288	5
NMSCR	79	288	5	96	48	0
NMTAP	79	336	6
NMSTR	80	0	1
NMSI_	80	0	1	96	48	5
NMTAP	80	48	1
NMSTR	80	96	7
NMSI_	80	96	7	96	48	3
NMTAP	80	144	7
NMTAP	80	192	2
NMTAP	80	240	1
NMTAP	80	288	0
NMTAP	80	288	4
NMTAP	80	336	1
NMTAP	81	0	2
NMTAP	81	0	6
NMTAP	81	48	5
NMTAP	81	96	1
NMTAP	81	96	4
NMTAP	81	144	2
NMTAP	81	168	3
NMTAP	81	192	1
NMTAP	81	216	3
NMTAP	81	240	2
NMTAP	81	288	1
NMTAP	81	288	4
NMTAP	81	336	1
NMTAP	82	0	3
NMTAP	82	0	7
NMTAP	82	48	5
NMTAP	82	96	0
NMTAP	82	96	4
NMSTR	82	144	2
NMSI_	82	144	2	96	48	4
NMTAP	82	192	6
BRTAP	82	240	2
CNSI_	82	288	4	0	48	1
BRTAP	82	288	7
CNSI_	82	336	1	0	48	7
BRTAP	82	336	5

T_REC_TAP	404
T_REC_BRK	21
T_REC_XTP	33
T_REC_BXX	11
T_REC_HLD	46
T_REC_XHO	0
T_REC_BHO	0
T_REC_BXH	0
T_REC_STR	74
T_REC_BST	4
T_REC_XST	13
T_REC_XBS	8
T_REC_TTP	11
T_REC_THO	1
T_REC_SLD	77
T_REC_BSL	23
T_REC_ALL	726
T_NUM_TAP	535
T_NUM_BRK	67
T_NUM_HLD	47
T_NUM_SLD	77
T_NUM_ALL	726
T_JUDGE_TAP	579
T_JUDGE_HLD	179
T_JUDGE_SLD	100
T_JUDGE_ALL	858
TTM_EACHPAIRS	130
TTM_SCR_TAP	267500
TTM_SCR_BRK	174200
TTM_SCR_HLD	47000
TTM_SCR_SLD	115500
TTM_SCR_ALL	604200
TTM_SCR_S	579600
TTM_SCR_SS	597500
TTM_RAT_ACV	10112

