VERSION	0.00.00	1.04.00
FES_MODE	0
BPM_DEF	145.000	145.000	145.000	145.000
MET_DEF	4	4
RESOLUTION	384
CLK_DEF	384
COMPATIBLE_CODE	MA2

BPM	0	0	145.000
MET	0	0	4	4

EXTAP	1	0	3
NMTAP	1	96	3
NMTAP	1	192	3
NMTAP	1	288	3
NMTAP	2	0	4
NMTAP	2	96	4
NMTAP	2	192	4
NMTAP	2	288	4
NMTAP	3	0	2
NMTAP	3	96	2
NMTAP	3	192	2
NMTAP	3	288	2
NMTAP	4	0	4
NMTAP	4	96	4
NMTAP	4	192	3
NMTAP	4	192	4
EXTAP	5	0	4
NMTAP	5	96	4
NMTAP	5	192	4
NMTAP	5	288	4
NMTAP	6	0	3
NMTAP	6	96	3
NMTAP	6	192	3
NMTAP	6	288	3
NMTAP	7	0	5
NMTAP	7	96	5
NMTAP	7	192	5
NMTAP	7	288	5
NMTAP	8	0	3
NMTAP	8	96	3
NMTAP	8	192	2
NMTAP	8	192	5
EXTAP	9	0	0
EXTAP	9	0	1
NMTAP	9	96	1
NMTAP	9	192	2
NMTAP	9	240	2
NMTAP	9	288	3
NMTAP	10	0	4
NMTAP	10	96	3
NMTAP	10	96	5
NMTAP	10	192	4
NMTAP	10	288	3
NMTAP	10	288	5
NMTAP	11	0	6
NMTAP	11	96	6
NMTAP	11	192	5
NMTAP	11	240	5
NMTAP	11	288	4
NMTAP	12	0	3
NMTAP	12	96	2
NMTAP	12	96	4
NMTAP	12	192	3
NMTAP	12	288	2
NMTAP	12	288	4
EXTAP	13	0	1
NMTAP	13	96	1
NMTAP	13	192	2
NMTAP	13	240	2
NMTAP	13	288	3
NMTAP	14	0	4
NMTAP	14	96	3
NMTAP	14	96	5
NMTAP	14	192	3
NMTAP	14	288	2
NMTAP	14	288	4
NMTAP	15	0	5
NMTAP	15	96	6
NMTAP	15	192	5
NMTAP	15	240	5
NMTAP	15	288	4
NMTAP	16	0	3
NMTAP	16	96	2
NMTAP	16	96	4
NMTAP	16	192	3
NMTAP	16	192	4
BRTAP	16	288	2
BRTAP	16	288	5
NMHLD	17	0	1	72
NMHLD	17	72	2	72
NMTAP	17	144	3
NMTAP	17	240	4
NMTAP	17	288	4
NMHLD	18	0	6	72
NMHLD	18	72	5	72
NMTAP	18	144	4
NMTAP	18	240	3
NMTAP	18	288	3
NMHLD	19	0	1	72
NMHLD	19	72	2	72
NMTAP	19	144	3
NMTAP	19	240	4
NMTAP	19	288	4
NMSTR	20	0	1
NMSI_	20	0	1	96	96	5
NMTAP	20	0	5
NMTAP	20	288	3
NMTAP	20	288	4
NMHLD	21	0	1	72
NMHLD	21	72	2	72
NMTAP	21	144	3
NMTAP	21	240	5
NMTAP	21	288	5
NMHLD	22	0	6	72
NMHLD	22	72	5	72
NMTAP	22	144	4
NMTAP	22	240	2
NMTAP	22	288	2
NMHLD	23	0	1	72
NMHLD	23	72	2	72
NMTAP	23	144	3
NMTAP	23	240	5
NMTAP	23	288	5
NMHLD	24	0	6	72
NMHLD	24	72	5	72
NMTAP	24	144	4
NMTAP	24	240	3
NMTAP	24	240	4
NMTAP	24	288	3
NMTAP	24	288	4
EXTAP	25	0	2
NMTAP	25	96	2
NMTAP	25	192	1
NMTAP	25	240	1
NMTAP	25	288	0
NMTAP	26	0	7
NMTAP	26	96	0
NMTAP	26	96	6
NMTAP	26	192	7
NMTAP	26	288	0
NMTAP	26	288	6
NMTAP	27	0	5
NMTAP	27	96	5
NMTAP	27	192	6
NMTAP	27	240	6
NMTAP	27	288	7
NMTAP	28	0	0
NMTAP	28	96	1
NMTAP	28	96	7
NMTAP	28	192	0
NMTAP	28	288	1
NMTAP	28	288	7
EXTAP	29	0	2
NMTAP	29	96	2
NMTAP	29	192	1
NMTAP	29	240	1
NMTAP	29	288	0
NMTAP	30	0	7
NMTAP	30	96	0
NMTAP	30	96	6
NMTAP	30	192	0
NMTAP	30	288	1
NMTAP	30	288	7
NMTAP	31	0	6
NMTAP	31	96	5
NMTAP	31	192	6
NMTAP	31	240	6
NMTAP	31	288	7
NMTAP	32	0	0
NMTAP	32	96	1
NMTAP	32	96	7
NMTAP	32	192	0
NMTAP	32	192	7
BRTAP	32	288	1
BRTAP	32	288	6
EXHLD	33	0	2	72
NMHLD	33	72	1	72
NMTAP	33	144	0
NMTAP	33	240	7
NMTAP	33	288	7
NMHLD	34	0	5	72
NMHLD	34	72	6	72
NMTAP	34	144	7
NMTAP	34	240	0
NMTAP	34	288	0
NMHLD	35	0	2	72
NMHLD	35	72	1	72
NMTAP	35	144	0
NMTAP	35	240	7
NMTAP	35	288	7
NMSTR	36	0	1
NMSCL	36	0	1	96	96	5
NMTAP	36	0	5
NMTAP	36	288	3
NMTAP	36	288	4
NMHLD	37	0	2	72
NMHLD	37	72	1	72
NMTAP	37	144	0
NMTAP	37	240	6
NMTAP	37	288	6
NMHLD	38	0	5	72
NMHLD	38	72	6	72
NMTAP	38	144	7
NMTAP	38	240	1
NMTAP	38	288	1
NMHLD	39	0	2	72
NMHLD	39	72	1	72
NMTAP	39	144	0
NMTAP	39	240	6
NMTAP	39	288	6
NMSTR	40	0	2
NMSV_	40	0	2	96	96	0
NMSTR	40	0	5
NMSV_	40	0	5	96	96	7
NMTAP	40	288	1
NMTAP	40	288	6
EXSTR	41	0	6
NMSI_	41	0	6	96	96	4
CNSV_	41	192	4	0	192	3
CNSI_	42	0	3	0	96	1
BXTAP	42	192	0
BXTAP	42	192	6
EXTAP	43	0	4
EXTAP	43	0	5
NMTAP	43	96	6
NMTAP	43	96	7
NMTAP	43	192	2
NMTAP	43	192	3
NMTAP	43	288	0
NMTAP	43	288	1
NMTAP	44	0	3
NMTAP	44	0	5
NMTAP	44	96	2
NMTAP	44	96	4
BRTAP	44	192	0
BRTAP	44	192	6
EXSTR	44	288	0
NMSI_	44	288	0	96	48	5
EXSTR	44	288	1
NMSI_	44	288	1	96	48	4
EXSTR	45	96	6
NMSI_	45	96	6	96	48	3
EXSTR	45	96	7
NMSI_	45	96	7	96	48	2
EXTAP	45	288	0
EXTAP	45	288	1
NMTAP	46	0	2
NMTAP	46	0	3
NMTAP	46	96	4
NMTAP	46	96	5
NMSTR	46	192	6
NMSI_	46	192	6	96	48	3
NMSTR	46	192	7
NMSI_	46	192	7	96	48	4
EXTAP	47	0	2
EXTAP	47	0	3
NMTAP	47	96	0
NMTAP	47	96	1
NMTAP	47	192	4
NMTAP	47	192	5
NMTAP	47	288	6
NMTAP	47	288	7
NMTAP	48	0	2
NMTAP	48	0	4
NMTAP	48	96	3
NMTAP	48	96	5
BRTAP	48	192	1
BRTAP	48	192	7
EXSTR	48	288	6
NMSI_	48	288	6	96	48	3
EXSTR	48	288	7
NMSI_	48	288	7	96	48	2
EXSTR	49	96	0
NMSI_	49	96	0	96	48	5
EXSTR	49	96	1
NMSI_	49	96	1	96	48	4
EXTAP	49	288	6
EXTAP	49	288	7
NMTAP	50	0	3
NMTAP	50	0	4
NMTAP	50	96	0
NMTAP	50	96	1
BRTAP	50	192	2
BRTAP	50	192	6
EXTAP	51	0	0
EXTAP	51	0	7
NMTAP	51	96	0
NMTAP	51	96	7
NMTAP	51	192	6
NMTAP	51	240	6
NMTAP	51	288	7
NMTAP	52	0	5
NMTAP	52	48	5
NMTAP	52	96	4
NMTAP	52	192	2
NMTAP	52	240	2
NMTAP	52	288	3
NMTAP	53	0	0
NMTAP	53	0	1
NMTAP	53	96	7
NMTAP	53	192	6
NMTAP	53	192	7
NMTAP	53	288	1
NMTAP	54	0	0
NMTAP	54	0	2
NMTAP	54	96	6
NMTAP	54	192	5
NMTAP	54	192	7
BRTAP	54	288	1
BRTAP	54	288	6
EXSTR	55	0	2
NMSI_	55	0	2	96	48	7
EXTAP	55	0	3
NMSTR	55	192	3
NMSI_	55	192	3	96	48	6
NMSTR	56	0	2
NMSI_	56	0	2	96	48	6
NMTAP	56	192	5
NMTAP	56	288	6
NMTAP	56	288	7
EXTAP	57	0	4
EXSTR	57	0	5
NMSI_	57	0	5	96	48	0
NMSTR	57	192	4
NMSI_	57	192	4	96	48	1
NMSTR	58	0	5
NMSI_	58	0	5	96	48	1
NMTAP	58	192	2
NMTAP	58	288	0
NMTAP	58	288	1
BXSTR	59	0	3
NMSXL	59	0	3	96	288	3
CNSXR	60	0	3	0	288	3
NMHLD	61	0	4	288
NMHLD	61	0	5	288
NMHLD	62	0	3	288
NMTAP	62	0	4
NMTAP	62	96	2
NMTAP	62	192	2
NMTAP	62	288	4
NMHLD	63	0	1	384
NMTTP	63	192	0	C	0	M1
NMHLD	64	0	6	384
NMTTP	64	192	0	C	0	M1
NMHLD	65	0	1	192
NMTTP	65	192	0	C	0	M1
NMSTR	66	0	0
NMSV_	66	0	0	96	96	3
NMSTR	66	0	6
NMSV_	66	0	6	96	96	3
NMTAP	66	288	1
NMTAP	66	288	5
EXTAP	67	0	2
EXTAP	67	0	3
NMTAP	67	96	0
NMTAP	67	96	1
NMTAP	67	192	4
NMTAP	67	192	5
NMTAP	67	288	6
NMTAP	67	288	7
NMTAP	68	0	1
NMTAP	68	0	4
NMTAP	68	96	3
NMTAP	68	96	6
BRTAP	68	192	0
BRTAP	68	192	1
EXSTR	68	288	2
NMSI_	68	288	2	96	48	7
EXSTR	68	288	3
NMSI_	68	288	3	96	48	6
EXSTR	69	96	4
NMSI_	69	96	4	96	48	1
EXSTR	69	96	5
NMSI_	69	96	5	96	48	0
EXTAP	69	288	2
EXTAP	69	288	3
NMTAP	70	0	0
NMTAP	70	0	7
NMTAP	70	96	4
NMTAP	70	96	5
NMSTR	70	192	2
NMSI_	70	192	2	96	48	6
NMSTR	70	192	3
NMSI_	70	192	3	96	48	7
EXTAP	71	0	4
EXTAP	71	0	5
NMTAP	71	96	6
NMTAP	71	96	7
NMTAP	71	192	2
NMTAP	71	192	3
NMTAP	71	288	0
NMTAP	71	288	1
NMTAP	72	0	3
NMTAP	72	0	6
NMTAP	72	96	1
NMTAP	72	96	4
BRTAP	72	192	6
BRTAP	72	192	7
EXSTR	72	288	4
NMSI_	72	288	4	96	48	1
EXSTR	72	288	5
NMSI_	72	288	5	96	48	0
EXSTR	73	96	2
NMSI_	73	96	2	96	48	7
EXSTR	73	96	3
NMSI_	73	96	3	96	48	6
EXTAP	73	288	4
EXTAP	73	288	5
NMTAP	74	0	0
NMTAP	74	0	7
NMTAP	74	96	2
NMTAP	74	96	3
BXSTR	74	192	1
BRSCR	74	192	1	96	48	3
BXSTR	74	192	5
BRSCL	74	192	5	96	48	3
EXTAP	75	0	1
NMTAP	75	96	0
NMTAP	75	96	1
NMTAP	75	192	2
NMTAP	75	240	2
NMTAP	75	288	3
NMTAP	76	0	5
NMTAP	76	96	4
NMTAP	76	96	6
NMTAP	76	192	2
NMTAP	76	288	1
NMTAP	76	288	3
NMTAP	77	0	0
NMTAP	77	0	7
NMTAP	77	96	6
NMTAP	77	96	7
NMTAP	77	192	5
NMTAP	77	240	5
NMTAP	77	288	4
NMTAP	78	0	2
NMTAP	78	96	1
NMTAP	78	96	3
NMTAP	78	192	5
NMTAP	78	288	4
NMTAP	78	288	6
EXTAP	79	0	6
EXTAP	79	0	7
NMTAP	79	96	0
NMTAP	79	96	1
NMTAP	79	192	2
NMTAP	79	240	2
NMTAP	79	288	3
NMTAP	80	0	4
NMTAP	80	0	5
NMTAP	80	96	3
NMTAP	80	96	6
NMTAP	80	192	2
NMTAP	80	192	3
NMTAP	80	288	1
NMTAP	80	288	4
NMTAP	81	0	0
NMTAP	81	0	1
NMTAP	81	96	6
NMTAP	81	96	7
NMTAP	81	192	5
NMTAP	81	240	5
NMTAP	81	288	4
NMTAP	82	0	2
NMTAP	82	0	3
NMTAP	82	96	1
NMTAP	82	96	5
BXTAP	82	192	0
BXTAP	82	192	7
BXTAP	82	240	0
BXTAP	82	240	7
BXTAP	82	288	0
BXTAP	82	288	7
BXTAP	82	336	1
BXTAP	82	336	6

T_REC_TAP	299
T_REC_BRK	16
T_REC_XTP	30
T_REC_BXX	10
T_REC_HLD	31
T_REC_XHO	1
T_REC_BHO	0
T_REC_BXH	0
T_REC_STR	14
T_REC_BST	0
T_REC_XST	19
T_REC_XBS	3
T_REC_TTP	3
T_REC_THO	0
T_REC_SLD	34
T_REC_BSL	2
T_REC_ALL	462
T_NUM_TAP	365
T_NUM_BRK	31
T_NUM_HLD	32
T_NUM_SLD	34
T_NUM_ALL	462
T_JUDGE_TAP	394
T_JUDGE_HLD	90
T_JUDGE_SLD	36
T_JUDGE_ALL	520
TTM_EACHPAIRS	118
TTM_SCR_TAP	182500
TTM_SCR_BRK	80600
TTM_SCR_HLD	32000
TTM_SCR_SLD	51000
TTM_SCR_ALL	346100
TTM_SCR_S	332750
TTM_SCR_SS	343000
TTM_RAT_ACV	10090

