VERSION	0.00.00	1.03.00
FES_MODE	0
BPM_DEF	200.000	200.000	205.001	200.000
MET_DEF	4	4
RESOLUTION	384
CLK_DEF	384
COMPATIBLE_CODE	MA2

BPM	0	0	200.000
BPM	54	0	205.001
BPM	68	0	201.000
BPM	72	192	205.001
BPM	76	192	204.000
BPM	84	192	203.000
BPM	88	192	200.000
BPM	91	192	201.000
BPM	96	192	203.000
BPM	100	192	202.000
MET	0	0	4	4

TAP	2	0	3
HLD	2	0	5	144
HLD	2	144	4	144
HLD	2	288	3	96
TAP	3	0	2
TAP	3	96	2
TAP	3	192	1
TAP	3	288	2
HLD	4	0	2	144
TAP	4	0	4
HLD	4	144	3	144
HLD	4	288	4	96
TAP	5	0	5
TAP	5	96	6
TAP	5	192	4
TAP	5	192	5
TAP	5	288	5
TAP	6	0	3
HLD	6	0	6	144
HLD	6	144	4	144
HLD	6	288	3	96
TAP	7	0	1
TAP	7	96	1
TAP	7	192	2
TAP	7	192	3
TAP	7	288	2
HLD	8	0	1	144
TAP	8	0	4
HLD	8	144	3	144
HLD	8	288	4	96
TAP	9	0	6
TAP	9	96	6
TAP	9	192	2
TAP	9	192	6
TAP	10	0	5
TAP	10	48	5
TAP	10	96	4
TAP	10	96	6
TAP	10	192	5
TAP	10	240	5
TAP	10	288	4
TAP	10	288	6
TAP	11	0	5
TAP	11	48	4
TAP	11	96	6
TAP	11	144	4
TAP	11	192	5
TAP	11	240	4
TAP	11	288	3
TAP	11	288	6
TAP	12	0	2
TAP	12	48	2
TAP	12	96	1
TAP	12	96	3
TAP	12	192	2
TAP	12	240	2
TAP	12	288	1
TAP	12	288	3
TAP	13	0	2
TAP	13	48	3
TAP	13	96	1
TAP	13	144	3
TAP	13	192	2
TAP	13	240	3
TAP	13	288	1
TAP	13	288	4
TAP	14	0	5
TAP	14	48	5
TAP	14	96	4
TAP	14	96	6
TAP	14	192	5
TAP	14	240	5
TAP	14	288	4
TAP	14	288	6
TAP	15	0	5
TAP	15	48	4
TAP	15	96	6
TAP	15	144	4
TAP	15	192	5
TAP	15	240	4
TAP	15	288	3
TAP	15	288	6
TAP	16	0	6
TAP	16	48	7
TAP	16	96	0
TAP	16	96	5
TAP	16	192	1
TAP	16	240	0
TAP	16	288	2
TAP	16	288	7
STR	17	0	0
SXL	17	0	0	96	96	0
SXR	17	0	0	96	96	0
BRK	17	288	2
BRK	17	288	6
STR	18	0	1
SI_	18	0	1	96	48	5
TAP	18	48	1
STR	18	96	7
SI_	18	96	7	96	48	4
XTP	18	192	2
TAP	18	288	0
HLD	18	336	0	96
TAP	19	48	2
HLD	19	96	2	96
STR	19	192	4
SI_	19	192	4	96	48	0
XTP	19	288	7
STR	20	0	6
SI_	20	0	6	96	48	2
TAP	20	48	6
STR	20	96	0
SI_	20	96	0	96	48	3
XTP	20	192	5
TAP	20	288	7
HLD	20	336	7	96
TAP	21	48	5
HLD	21	96	5	96
STR	21	192	3
SI_	21	192	3	96	48	7
XTP	21	288	0
STR	22	0	1
SI_	22	0	1	96	48	5
TAP	22	48	1
STR	22	96	7
SI_	22	96	7	96	48	4
XTP	22	192	2
TAP	22	288	0
HLD	22	336	0	96
TAP	23	48	2
HLD	23	96	2	96
TAP	23	192	4
XTP	23	288	2
XTP	23	288	7
TAP	24	0	1
TAP	24	0	3
TAP	24	48	2
TAP	24	144	4
TAP	24	144	6
TAP	24	192	5
TAP	24	288	0
TAP	24	288	3
TAP	24	336	1
TAP	25	48	3
TAP	25	48	7
TAP	25	96	6
STR	25	192	1
SI_	25	192	1	96	48	5
TAP	25	192	5
STR	26	0	7
SCR	26	0	7	96	48	2
TAP	26	48	7
STR	26	96	3
SI_	26	96	3	96	48	0
XTP	26	192	4
TAP	26	288	5
HLD	26	336	5	96
TAP	27	48	6
HLD	27	96	6	96
STR	27	192	7
SI_	27	192	7	96	48	3
XTP	27	288	1
STR	28	0	0
SCL	28	0	0	96	48	5
TAP	28	48	0
STR	28	96	4
SI_	28	96	4	96	48	7
XTP	28	192	3
TAP	28	288	2
HLD	28	336	2	96
TAP	29	48	1
HLD	29	96	1	96
STR	29	192	0
SI_	29	192	0	96	48	4
XTP	29	288	6
STR	30	0	7
SCR	30	0	7	96	48	2
TAP	30	48	7
STR	30	96	3
SI_	30	96	3	96	48	0
XTP	30	192	4
TAP	30	288	5
HLD	30	336	5	96
TAP	31	48	6
STR	31	96	6
SI_	31	96	6	96	48	1
SI_	31	96	6	96	48	3
XTP	31	288	0
XTP	31	288	4
TAP	32	0	1
TAP	32	0	3
TAP	32	48	2
TAP	32	144	4
TAP	32	144	6
TAP	32	192	5
TAP	32	288	1
TAP	32	288	3
TAP	32	336	2
TAP	33	48	5
TAP	33	72	4
TAP	33	96	5
TAP	33	144	0
BRK	33	192	1
BRK	33	192	6
TAP	33	288	4
TAP	33	288	5
TAP	34	0	3
HLD	34	0	6	96
TAP	34	96	4
HLD	34	144	4	96
TAP	34	240	3
HLD	34	288	3	96
TAP	35	0	1
STR	35	96	1
SI_	35	96	1	96	48	3
TAP	35	96	3
STR	35	192	4
SI_	35	192	4	96	48	0
XTP	35	288	2
HLD	36	0	1	96
TAP	36	96	3
HLD	36	144	3	96
TAP	36	240	4
STR	36	288	4
SI_	36	288	4	96	48	2
STR	37	0	6
SI_	37	0	6	96	48	4
XST	37	96	1
SI_	37	96	1	96	48	4
XTP	37	192	5
HLD	38	0	1	96
TAP	38	0	4
TAP	38	96	3
HLD	38	144	3	96
TAP	38	240	4
HLD	38	288	4	96
TAP	39	0	6
TAP	39	96	4
STR	39	96	6
SI_	39	96	6	96	48	4
STR	39	192	3
SI_	39	192	3	96	48	7
XTP	39	288	5
HLD	40	0	6	96
TAP	40	96	4
HLD	40	144	4	96
TAP	40	240	3
STR	40	288	3
SI_	40	288	3	96	48	5
STR	41	0	1
SI_	41	0	1	96	48	3
XST	41	96	6
SI_	41	96	6	96	48	3
XTP	41	192	2
TAP	42	0	3
HLD	42	0	6	96
TAP	42	96	0
HLD	42	144	0	96
TAP	42	240	3
HLD	42	288	3	96
TAP	43	0	4
TAP	43	96	4
STR	43	96	6
SI_	43	96	6	96	48	4
STR	43	192	3
SI_	43	192	3	96	48	7
XTP	43	288	5
HLD	44	0	6	96
TAP	44	96	0
HLD	44	144	0	96
TAP	44	240	3
STR	44	288	3
SI_	44	288	3	96	48	5
STR	45	0	1
SI_	45	0	1	96	48	3
TAP	45	96	6
TAP	45	192	6
TAP	45	224	4
TAP	45	256	5
TAP	45	288	1
TAP	45	320	3
TAP	45	352	2
HLD	46	0	7	96
TAP	46	96	5
HLD	46	144	5	96
TAP	46	240	3
HLD	46	288	3	96
TAP	47	0	2
STR	47	96	1
SI_	47	96	1	96	48	3
TAP	47	96	3
STR	47	192	4
SI_	47	192	4	96	48	0
XTP	47	288	2
HLD	48	0	1	96
TAP	48	96	7
HLD	48	144	7	96
TAP	48	240	5
TAP	48	288	5
HLD	49	0	4	64
TAP	49	0	6
HLD	49	64	3	64
HLD	49	128	2	64
HLD	49	192	1	64
HLD	49	256	0	64
TAP	49	320	7
BRK	50	0	1
BRK	50	0	6
TAP	50	96	5
TAP	50	160	5
TAP	50	192	4
TAP	50	256	4
TAP	50	288	3
TAP	50	352	3
TAP	51	0	2
TAP	51	64	2
TAP	51	96	1
TAP	51	160	1
HLD	51	192	0	96
TAP	51	288	2
TAP	51	352	2
TAP	52	0	3
TAP	52	64	3
TAP	52	96	4
TAP	52	160	4
TAP	52	192	5
TAP	52	256	5
BRK	52	288	7
TAP	53	0	4
TAP	53	0	5
TAP	53	96	1
TAP	53	144	2
TAP	53	144	3
TAP	53	240	6
TAP	53	288	4
TAP	53	288	5
TAP	54	0	0
TAP	54	48	1
TAP	54	48	3
TAP	54	144	7
TAP	54	192	4
STR	54	192	6
SCR	54	192	6	96	96	1
STR	54	288	1
SCR	54	288	1	96	96	4
STR	55	0	4
SCR	55	0	4	96	96	7
STR	55	96	7
SI_	55	96	7	96	48	3
BRK	55	192	0
STR	56	0	1
SV_	56	0	1	96	48	4
STR	56	0	7
SV_	56	0	7	96	48	4
STR	56	192	0
SLR	56	192	0	96	96	6
TAP	56	192	6
TAP	56	288	4
STR	56	336	4
SI_	56	336	4	96	48	1
TAP	57	48	0
STR	57	96	0
SI_	57	96	0	96	48	4
BRK	57	192	7
STR	57	288	6
SI_	57	288	6	96	48	2
STR	58	0	0
SI_	58	0	0	96	48	3
TAP	58	96	5
TAP	58	192	1
STR	58	192	7
SLL	58	192	7	96	96	1
TAP	58	288	3
STR	58	336	3
SI_	58	336	3	96	48	6
XTP	59	48	7
XST	59	96	7
SI_	59	96	7	96	48	2
SI_	59	96	7	96	48	4
BRK	59	192	7
XTP	59	288	1
XTP	59	288	5
TAP	60	0	3
TAP	60	0	7
TAP	60	48	6
TAP	60	96	1
TAP	60	96	5
TAP	60	144	2
STR	60	192	3
SCL	60	192	3	96	48	0
TAP	60	192	4
TTP	60	288	6	B	0	M1
TTP	60	288	7	B	0	M1
STR	61	0	4
SCR	61	0	4	96	48	7
TTP	61	96	0	E	0	M1
STR	61	192	3
SCL	61	192	3	96	48	0
TTP	61	288	0	B	0	M1
TTP	61	288	1	B	0	M1
STR	62	0	4
SCR	62	0	4	96	48	7
TTP	62	96	0	E	0	M1
XST	62	192	2
SI_	62	192	2	96	48	5
XTP	62	288	2
XST	62	288	6
SI_	62	288	6	96	48	1
XST	63	0	2
SI_	63	0	2	96	48	5
XTP	63	0	6
XTP	63	96	2
XST	63	96	7
SCR	63	96	7	96	48	2
XTP	63	192	3
BRK	63	192	7
STR	64	0	2
SI_	64	0	2	96	48	4
STR	64	0	6
SI_	64	0	6	96	48	0
TAP	64	192	1
STR	64	192	7
SLL	64	192	7	96	96	1
TAP	64	288	3
STR	64	336	3
SI_	64	336	3	96	48	6
TAP	65	48	7
STR	65	96	7
SI_	65	96	7	96	48	3
BRK	65	192	0
STR	65	288	1
SI_	65	288	1	96	48	5
STR	66	0	7
SI_	66	0	7	96	48	4
TAP	66	96	2
STR	66	192	0
SLR	66	192	0	96	96	6
TAP	66	192	6
TAP	66	288	4
STR	66	336	4
SI_	66	336	4	96	48	1
XTP	67	48	0
XST	67	96	0
SCR	67	96	0	96	72	4
BRK	67	192	7
STR	67	288	7
SCL	67	288	7	96	72	3
BRK	68	0	0
STR	68	96	0
SCR	68	96	0	96	384	7
TTP	68	192	0	C	1	M1
HLD	70	0	2	192
HLD	70	192	4	144
HLD	70	336	5	144
STR	71	96	3
SI_	71	96	3	96	48	7
STR	72	0	1
SI_	72	0	1	96	48	6
STR	72	0	5
SI_	72	0	5	96	48	2
STR	72	192	0
SLR	72	192	0	96	96	6
TAP	72	192	4
TAP	72	288	7
STR	72	336	7
SI_	72	336	7	96	48	3
TAP	73	48	5
STR	73	96	5
SI_	73	96	5	96	48	1
BRK	73	192	7
STR	73	288	6
SI_	73	288	6	96	48	2
STR	74	0	0
SI_	74	0	0	96	48	4
TAP	74	96	5
TAP	74	192	2
STR	74	192	7
SLL	74	192	7	96	96	1
TAP	74	288	0
STR	74	336	0
SI_	74	336	0	96	48	4
XTP	75	48	3
XST	75	96	3
SI_	75	96	3	96	48	0
SI_	75	96	3	96	48	6
BRK	75	192	3
XTP	75	288	1
XTP	75	288	5
TAP	76	0	3
TAP	76	0	7
TAP	76	48	6
TAP	76	96	1
TAP	76	96	5
TAP	76	144	2
STR	76	192	3
SCL	76	192	3	96	48	0
TAP	76	192	4
XTP	76	288	3
TTP	76	288	6	B	0	M1
TTP	76	288	7	B	0	M1
STR	77	0	4
SCR	77	0	4	96	48	7
TTP	77	96	0	E	0	M1
XTP	77	96	4
STR	77	192	3
SCL	77	192	3	96	48	0
TTP	77	288	0	B	0	M1
TTP	77	288	1	B	0	M1
XTP	77	288	3
STR	78	0	4
SCR	78	0	4	96	48	7
TTP	78	96	0	E	0	M1
XTP	78	96	4
XST	78	192	2
SI_	78	192	2	96	48	5
XTP	78	288	2
XST	78	288	6
SI_	78	288	6	96	48	1
XST	79	0	2
SI_	79	0	2	96	48	5
XTP	79	0	6
XTP	79	96	2
XST	79	96	7
SCR	79	96	7	96	48	2
TTP	79	192	0	C	1	M1
BRK	79	192	7
STR	80	0	1
SI_	80	0	1	96	48	4
STR	80	0	5
SI_	80	0	5	96	48	0
TAP	80	192	3
STR	80	192	7
SLL	80	192	7	96	96	1
TAP	80	288	0
STR	80	336	0
SI_	80	336	0	96	48	4
TAP	81	48	2
STR	81	96	2
SI_	81	96	2	96	48	6
BRK	81	192	0
STR	81	288	1
SI_	81	288	1	96	48	5
STR	82	0	7
SI_	82	0	7	96	48	3
TAP	82	96	2
STR	82	192	0
SLR	82	192	0	96	96	6
TAP	82	192	5
TAP	82	288	7
STR	82	336	7
SI_	82	336	7	96	48	3
XTP	83	48	4
XST	83	96	4
SCL	83	96	4	96	72	7
BRK	83	192	7
STR	83	288	4
SCR	83	288	4	96	72	0
BRK	84	0	0
STR	84	96	3
SCL	84	96	3	96	384	4
TTP	84	192	0	C	1	M1
HLD	86	0	6	192
HLD	86	192	0	192
TAP	87	0	1
HLD	87	96	1	288
HLD	88	0	3	192
STR	88	96	2
SCL	88	96	2	96	480	3
STR	90	192	2
SCL	90	192	2	96	96	7
STR	91	0	4
SCL	91	0	4	96	96	1
STR	91	192	6
SCR	91	192	6	96	96	1
STR	92	0	4
SCR	92	0	4	96	96	7
STR	92	192	2
SCR	92	192	2	96	480	1
TAP	94	192	4
TAP	94	192	5
TAP	94	240	4
TAP	94	240	5
TAP	94	336	2
TAP	94	336	3
TAP	95	0	2
TAP	95	0	3
TAP	95	96	4
TAP	95	96	6
TAP	95	144	4
TAP	95	144	6
TAP	95	240	1
TAP	95	240	3
TAP	95	288	1
TAP	95	288	3
TAP	96	0	6
TAP	96	0	7
TAP	96	48	0
TAP	96	48	5
TAP	96	96	1
TAP	96	96	4
STR	96	192	3
SCL	96	192	3	96	48	1
TAP	96	240	3
STR	96	288	7
SI_	96	288	7	96	48	3
TAP	97	96	0
HLD	97	144	0	96
TAP	97	240	2
HLD	97	288	2	96
STR	98	0	5
SI_	98	0	5	96	48	1
TAP	98	48	5
XTP	98	96	7
STR	98	192	4
SCR	98	192	4	96	48	6
TAP	98	240	4
STR	98	288	0
SI_	98	288	0	96	48	4
TAP	99	96	7
HLD	99	144	7	96
TAP	99	240	5
HLD	99	288	5	96
STR	100	0	3
SI_	100	0	3	96	48	7
TAP	100	48	3
XTP	100	96	0
STR	100	192	1
SCR	100	192	1	96	48	3
TAP	100	240	1
STR	100	288	6
SI_	100	288	6	96	48	2
XHO	101	0	4	96
TAP	101	96	0
HLD	101	144	0	96
TAP	101	240	2
HLD	101	288	2	96
TAP	102	0	7
TAP	102	48	6
XTP	102	96	0
XTP	102	96	5
TAP	102	192	1
TAP	102	192	3
TAP	102	240	2
TAP	102	288	3
TAP	102	336	4
TAP	102	336	6
TAP	103	0	5
TAP	103	48	4
TAP	103	96	0
TAP	103	96	3
TAP	103	144	1
TAP	103	192	2
TAP	103	240	3
TAP	103	240	7
TAP	103	288	6
TAP	103	336	5
TAP	104	0	0
TAP	104	0	4
TAP	104	48	1
TAP	104	48	5
BRK	104	96	2
BRK	104	96	6
TTP	104	192	1	B	0	M1
TTP	104	240	7	B	0	M1
TTP	104	288	3	B	0	M1
TTP	104	336	5	B	0	M1
TTP	105	0	0	C	0	M1
TTP	105	96	7	E	0	M1
TTP	105	144	7	B	0	M1
TTP	105	240	3	E	0	M1
TTP	105	288	3	B	0	M1
TTP	106	0	5	B	0	M1
TTP	106	48	2	B	0	M1
TTP	106	96	5	E	0	M1
TTP	106	144	3	E	0	M1

T_REC_TAP	287
T_REC_BRK	22
T_REC_XTP	43
T_REC_HLD	62
T_REC_XHO	1
T_REC_STR	100
T_REC_BST	0
T_REC_XST	14
T_REC_TTP	28
T_REC_THO	0
T_REC_SLD	118
T_REC_ALL	675
T_NUM_TAP	472
T_NUM_BRK	22
T_NUM_HLD	63
T_NUM_SLD	118
T_NUM_ALL	675
T_JUDGE_TAP	494
T_JUDGE_HLD	148
T_JUDGE_SLD	118
T_JUDGE_ALL	760
TTM_EACHPAIRS	91
TTM_SCR_TAP	236000
TTM_SCR_BRK	57200
TTM_SCR_HLD	63000
TTM_SCR_SLD	177000
TTM_SCR_ALL	533200
TTM_SCR_S	515100
TTM_SCR_SS	531000
TTM_RAT_ACV	10041

