VERSION	0.00.00	1.03.00
FES_MODE	0
BPM_DEF	200.000	200.000	205.001	200.000
MET_DEF	4	4
RESOLUTION	384
CLK_DEF	384
COMPATIBLE_CODE	MA2

BPM	0	0	200.000
BPM	54	0	205.001
BPM	68	0	201.000
BPM	72	192	205.001
BPM	76	192	204.000
BPM	84	192	203.000
BPM	88	192	200.000
BPM	91	192	201.000
BPM	96	192	203.000
BPM	100	192	202.000
MET	0	0	4	4

HLD	2	0	2	144
HLD	2	144	4	144
TAP	2	288	3
TAP	3	0	5
TAP	3	96	5
TAP	3	288	3
TAP	3	288	4
TAP	4	0	2
HLD	4	0	5	144
HLD	4	144	4	144
TAP	4	288	3
TAP	5	0	2
TAP	5	96	2
TAP	5	192	2
TAP	5	192	3
HLD	6	0	5	144
HLD	6	144	3	144
TAP	6	288	4
TAP	7	0	2
TAP	7	96	2
TAP	7	288	3
TAP	7	288	4
HLD	8	0	2	144
TAP	8	0	5
HLD	8	144	3	144
TAP	8	288	4
TAP	9	0	5
TAP	9	96	5
TAP	9	192	4
TAP	9	192	5
TAP	10	0	2
TAP	10	96	3
TAP	10	192	4
TAP	10	240	4
TAP	10	288	3
TAP	11	0	2
TAP	11	48	2
TAP	11	96	3
TAP	11	192	2
TAP	11	192	4
TAP	11	288	3
TAP	12	0	5
TAP	12	96	4
TAP	12	192	3
TAP	12	240	3
TAP	12	288	4
TAP	13	0	5
TAP	13	48	5
TAP	13	96	4
TAP	13	192	3
TAP	13	192	5
TAP	14	0	2
TAP	14	0	4
TAP	14	96	3
TAP	14	192	5
TAP	14	240	5
TAP	14	288	4
TAP	15	0	2
TAP	15	48	2
TAP	15	96	3
TAP	15	192	4
TAP	15	288	3
TAP	15	288	5
HLD	16	0	6	96
TAP	16	96	4
HLD	16	192	1	96
TAP	16	288	3
HLD	17	0	6	96
HLD	17	96	4	96
HLD	17	192	3	96
TAP	17	288	1
BRK	18	0	0
BRK	18	0	7
STR	18	96	6
SI_	18	96	6	96	96	3
TAP	18	192	2
TAP	18	288	1
TAP	19	0	0
TAP	19	48	0
TAP	19	96	3
TAP	19	192	1
TAP	19	288	0
TAP	19	288	7
TAP	20	0	5
TAP	20	96	4
TAP	20	96	6
TAP	20	192	2
TAP	20	288	1
TAP	20	288	3
TAP	21	0	6
TAP	21	48	6
TAP	21	96	7
TAP	21	192	0
TAP	21	192	5
TAP	22	0	3
TAP	22	0	4
STR	22	96	1
SI_	22	96	1	96	96	4
TAP	22	192	5
TAP	22	288	6
TAP	23	0	7
TAP	23	48	7
TAP	23	96	4
TAP	23	192	6
TAP	23	288	0
TAP	23	288	7
TAP	24	0	2
TAP	24	96	1
TAP	24	96	3
TAP	24	192	5
TAP	24	288	4
TAP	24	288	6
TAP	25	0	1
TAP	25	48	1
TAP	25	96	0
TAP	25	192	2
TAP	25	192	7
TAP	26	0	4
TAP	26	0	5
TAP	26	96	3
STR	26	96	6
SI_	26	96	6	96	96	3
TAP	26	192	2
TAP	26	288	1
TAP	27	0	0
TAP	27	48	0
TAP	27	96	3
TAP	27	192	1
TAP	27	288	2
TAP	27	288	7
TAP	28	0	6
TAP	28	96	4
TAP	28	96	5
TAP	28	192	3
TAP	28	288	2
TAP	28	288	3
TAP	29	0	1
TAP	29	48	1
TAP	29	96	0
TAP	29	192	3
TAP	29	192	7
TAP	30	0	2
TAP	30	0	3
STR	30	96	1
SI_	30	96	1	96	96	4
TAP	30	96	4
TAP	30	192	5
TAP	30	288	6
TAP	31	0	7
TAP	31	48	7
TAP	31	96	4
TAP	31	192	6
TAP	31	288	0
TAP	31	288	5
XTP	32	0	1
TAP	32	48	1
XTP	32	144	7
TAP	32	192	7
XTP	32	288	5
TAP	32	336	5
XTP	33	48	3
TAP	33	96	3
BRK	33	192	1
BRK	33	192	6
HLD	34	0	2	192
TAP	34	192	3
TAP	34	288	3
TTP	35	0	4	B	0	M1
TTP	35	96	5	B	0	M1
TTP	35	192	4	E	0	M1
TTP	35	192	6	E	0	M1
HLD	36	0	1	192
TAP	36	192	3
TAP	36	288	3
TTP	37	0	6	B	0	M1
TTP	37	96	7	B	0	M1
TTP	37	192	0	E	0	M1
TTP	37	192	6	E	0	M1
HLD	38	0	5	192
TAP	38	192	4
TAP	38	288	4
TTP	39	0	3	B	0	M1
TTP	39	96	2	B	0	M1
TTP	39	192	2	E	0	M1
TTP	39	192	4	E	0	M1
HLD	40	0	6	192
TAP	40	192	4
TAP	40	288	4
TTP	41	0	1	B	0	M1
TTP	41	96	0	B	0	M1
TTP	41	192	0	E	0	M1
TTP	41	192	2	E	0	M1
HLD	42	0	2	192
TAP	42	192	3
TAP	42	288	4
TTP	43	0	6	B	0	M1
TTP	43	96	5	B	0	M1
TTP	43	192	5	E	0	M1
TTP	43	192	7	E	0	M1
HLD	44	0	1	192
TAP	44	192	2
TAP	44	288	3
TTP	45	0	0	B	0	M1
TTP	45	96	1	B	0	M1
TTP	45	192	0	E	0	M1
TTP	45	192	2	E	0	M1
HLD	46	0	5	192
TAP	46	192	4
TAP	46	288	3
TTP	47	0	1	B	0	M1
TTP	47	96	2	B	0	M1
TTP	47	192	1	E	0	M1
TTP	47	192	3	E	0	M1
HLD	48	0	6	192
TAP	48	192	5
TAP	48	288	4
XTP	49	0	3
XTP	49	64	3
XTP	49	128	3
XTP	49	192	4
XTP	49	256	4
XTP	49	320	4
XST	50	0	2
SCR	50	0	2	96	192	5
TAP	50	192	6
STR	50	288	6
SCR	50	288	6	96	192	1
TAP	51	96	2
STR	51	192	2
SCR	51	192	2	96	192	5
TAP	52	0	6
TAP	52	96	6
TAP	52	192	0
TAP	52	192	7
TAP	52	288	1
TAP	52	288	6
HLD	53	0	2	96
HLD	53	0	4	96
HLD	53	144	3	96
HLD	53	144	5	96
HLD	53	288	1	96
HLD	53	288	4	96
HLD	54	48	3	96
HLD	54	48	6	96
HLD	54	192	1	96
TAP	54	192	7
HLD	54	288	3	96
HLD	55	0	5	96
TAP	55	96	7
TTP	55	192	0	C	1	M1
TAP	56	0	6
TAP	56	0	7
TAP	56	96	0
TAP	56	96	5
BRK	56	192	1
BRK	56	192	4
STR	56	288	6
SI_	56	288	6	96	96	3
TAP	56	336	6
TAP	57	48	2
TAP	57	96	2
TAP	57	192	1
TAP	57	192	4
TAP	57	288	0
TAP	58	0	6
TAP	58	48	6
TAP	58	96	7
TAP	58	192	0
TAP	58	192	4
STR	58	288	1
SI_	58	288	1	96	96	4
TAP	58	336	1
TAP	59	48	5
TAP	59	96	5
BRK	59	192	3
BRK	59	192	6
TAP	60	0	0
TAP	60	48	0
TAP	60	96	7
TAP	60	144	7
STR	60	192	1
SI_	60	192	1	96	96	5
TAP	60	288	6
STR	61	0	7
SI_	61	0	7	96	96	3
TAP	61	96	0
STR	61	192	2
SI_	61	192	2	96	96	7
TAP	61	288	6
STR	62	0	4
SI_	62	0	4	96	96	0
TAP	62	96	1
TAP	62	192	2
TAP	62	288	3
TAP	62	288	4
TAP	63	0	5
TAP	63	0	6
TAP	63	96	0
TAP	63	96	7
BRK	63	192	1
BRK	63	192	6
TAP	64	0	2
TAP	64	0	3
TAP	64	96	1
TAP	64	96	4
BRK	64	192	0
BRK	64	192	5
STR	64	288	6
SI_	64	288	6	96	96	3
TAP	64	336	6
TAP	65	48	2
TAP	65	96	2
TAP	65	192	1
TAP	65	192	4
TAP	65	288	0
TAP	66	0	6
TAP	66	48	6
TAP	66	96	7
TAP	66	192	0
TAP	66	192	4
STR	66	288	1
SI_	66	288	1	96	96	4
TAP	66	336	1
TAP	67	48	5
TAP	67	96	5
STR	67	192	7
SCL	67	192	7	96	96	4
STR	68	0	0
SCR	68	0	0	96	96	3
STR	68	192	7
SXL	68	192	7	96	288	3
SXR	68	192	7	96	288	3
HLD	70	0	1	192
HLD	70	192	3	144
HLD	70	336	4	144
TAP	71	96	5
BRK	71	192	1
BRK	71	192	6
TAP	72	0	2
TAP	72	0	3
TAP	72	96	4
TAP	72	96	5
TAP	72	192	0
TAP	72	192	7
STR	72	288	6
SI_	72	288	6	96	96	2
TAP	72	336	6
TAP	73	48	0
TAP	73	96	0
TAP	73	192	1
STR	73	192	3
SI_	73	192	3	96	96	6
TAP	73	288	0
TAP	74	0	7
TAP	74	48	7
TAP	74	96	5
TAP	74	192	0
TAP	74	192	4
STR	74	288	1
SCR	74	288	1	96	96	4
TAP	74	336	1
TAP	75	48	5
TAP	75	96	5
BRK	75	192	3
BRK	75	192	6
TAP	76	0	0
TAP	76	48	0
TAP	76	96	7
TAP	76	144	7
STR	76	192	1
SCR	76	192	1	96	96	4
TAP	76	288	5
STR	77	0	7
SCL	77	0	7	96	96	4
TAP	77	96	3
STR	77	192	0
SCR	77	192	0	96	96	3
TAP	77	288	4
STR	78	0	5
SCR	78	0	5	96	96	0
TAP	78	96	4
TAP	78	192	1
TAP	78	288	2
TAP	78	288	3
TAP	79	0	4
TAP	79	0	5
TAP	79	96	6
TAP	79	96	7
BRK	79	192	0
BRK	79	192	5
TAP	80	0	4
TAP	80	0	6
TAP	80	96	1
TAP	80	96	3
TAP	80	192	0
TAP	80	192	7
STR	80	288	1
SI_	80	288	1	96	96	5
TAP	80	336	1
TAP	81	48	7
TAP	81	96	7
STR	81	192	4
SI_	81	192	4	96	96	1
TAP	81	192	6
TAP	81	288	7
TAP	82	0	0
TAP	82	48	0
TAP	82	96	2
TAP	82	192	3
TAP	82	192	7
STR	82	288	6
SCL	82	288	6	96	96	3
TAP	82	336	6
TAP	83	48	2
TAP	83	96	2
STR	83	192	0
SCR	83	192	0	96	48	3
TAP	83	192	4
STR	84	0	7
SCL	84	0	7	96	48	4
STR	84	192	0
SXL	84	192	0	96	288	4
SXR	84	192	0	96	288	4
HLD	86	0	6	384
HLD	86	192	4	192
STR	87	96	3
SCL	87	96	3	96	192	5
TTP	88	0	0	C	1	M1
TAP	88	192	1
TAP	88	240	1
TAP	88	288	0
TAP	89	0	2
TAP	89	0	7
TAP	89	96	6
TAP	89	192	5
TAP	89	288	1
TAP	89	288	3
TAP	90	0	2
TAP	90	96	4
TAP	90	96	5
TAP	90	192	6
TAP	90	240	6
TAP	90	288	7
TAP	91	0	0
TAP	91	0	5
TAP	91	96	1
STR	91	192	2
SCR	91	192	2	96	96	5
STR	92	0	6
SCR	92	0	6	96	96	1
STR	92	192	3
SF_	92	192	3	96	288	7
TAP	94	0	3
TAP	94	0	5
TAP	94	96	2
TAP	94	96	4
XTP	94	192	0
HLD	94	240	0	96
XTP	94	336	6
HLD	95	0	6	96
XTP	95	96	4
HLD	95	144	4	96
XTP	95	240	2
HLD	95	288	2	96
BRK	96	0	1
TAP	96	192	5
TAP	96	240	5
TAP	96	288	4
TAP	97	0	3
TAP	97	0	6
TAP	97	96	2
TAP	97	192	1
TAP	97	288	5
TAP	97	288	7
TAP	98	0	6
TAP	98	96	0
TAP	98	96	1
TAP	98	192	2
TAP	98	240	2
TAP	98	288	3
TAP	99	0	1
TAP	99	0	4
STR	99	96	0
SI_	99	96	0	96	96	3
STR	99	96	5
SI_	99	96	5	96	96	2
BRK	100	0	6
BRK	100	0	7
TAP	100	192	2
TAP	100	240	2
TAP	100	288	3
TAP	101	0	1
TAP	101	0	4
TAP	101	96	5
TAP	101	192	6
TAP	101	288	0
TAP	101	288	2
TAP	102	0	1
TAP	102	96	6
TAP	102	96	7
XTP	102	192	0
HLD	102	240	0	96
XTP	102	336	2
HLD	103	0	2	96
XTP	103	96	4
HLD	103	144	4	96
XTP	103	240	6
TAP	103	288	6
BST	104	0	0
SCR	104	0	0	96	48	3
BST	104	0	7
SCL	104	0	7	96	48	4
THO	104	192	0	768	C	0	M1
TTP	104	192	1	B	0	M1
TTP	104	192	2	B	0	M1
TTP	104	192	5	B	0	M1
TTP	104	192	6	B	0	M1

T_REC_TAP	319
T_REC_BRK	21
T_REC_XTP	18
T_REC_HLD	44
T_REC_XHO	0
T_REC_STR	36
T_REC_BST	2
T_REC_XST	1
T_REC_TTP	34
T_REC_THO	1
T_REC_SLD	41
T_REC_ALL	517
T_NUM_TAP	408
T_NUM_BRK	23
T_NUM_HLD	45
T_NUM_SLD	41
T_NUM_ALL	517
T_JUDGE_TAP	431
T_JUDGE_HLD	140
T_JUDGE_SLD	41
T_JUDGE_ALL	612
TTM_EACHPAIRS	85
TTM_SCR_TAP	204000
TTM_SCR_BRK	59800
TTM_SCR_HLD	45000
TTM_SCR_SLD	61500
TTM_SCR_ALL	370300
TTM_SCR_S	357000
TTM_SCR_SS	368000
TTM_RAT_ACV	10062

