VERSION	0.00.00	1.03.00
FES_MODE	0
BPM_DEF	200.000	200.000	205.001	200.000
MET_DEF	4	4
RESOLUTION	384
CLK_DEF	384
COMPATIBLE_CODE	MA2

BPM	0	0	200.000
BPM	54	0	205.001
BPM	68	0	201.000
BPM	72	192	205.001
BPM	76	192	204.000
BPM	84	192	203.000
BPM	88	192	200.000
BPM	91	192	201.000
BPM	96	192	203.000
BPM	100	192	202.000
MET	0	0	4	4

XHO	2	0	5	384
HLD	3	0	4	384
HLD	4	0	3	384
TAP	5	0	2
XHO	6	0	1	384
HLD	7	0	0	384
HLD	8	0	7	384
TAP	9	0	6
TAP	10	0	5
TAP	10	192	4
TAP	10	192	5
TAP	11	0	2
TAP	11	192	2
TAP	11	192	3
TAP	12	0	5
TAP	12	192	4
TAP	12	192	5
TAP	13	0	3
TAP	13	192	2
TAP	13	192	4
TAP	14	0	1
TAP	14	192	0
TAP	14	192	1
TAP	15	0	6
TAP	15	192	6
TAP	15	192	7
TAP	16	0	1
TAP	16	192	0
TAP	16	192	1
TAP	17	0	7
TAP	17	192	1
TAP	17	192	6
TAP	18	0	2
TAP	18	96	2
TAP	18	192	3
TAP	19	0	5
TAP	19	96	5
TAP	19	192	4
TAP	20	0	2
TAP	20	96	2
TAP	20	192	3
TAP	20	288	3
TAP	21	0	4
TAP	21	96	4
TAP	21	192	3
TAP	21	192	5
TAP	22	0	6
TAP	22	96	6
TAP	22	192	7
TAP	23	0	1
TAP	23	96	1
TAP	23	192	0
TAP	24	0	6
TAP	24	96	6
TAP	24	192	7
TAP	24	288	7
TAP	25	0	0
TAP	25	96	0
TAP	25	192	1
TAP	25	192	6
TAP	26	0	5
TAP	26	96	5
TAP	26	192	4
TAP	26	192	5
TAP	27	0	2
TAP	27	96	2
TAP	27	192	2
TAP	27	192	3
TAP	28	0	1
TAP	28	96	1
TAP	28	192	0
TAP	28	288	0
TAP	29	0	7
TAP	29	96	7
TAP	29	192	0
TAP	29	192	6
TAP	30	0	1
TAP	30	96	1
TAP	30	192	0
TAP	30	192	1
TAP	31	0	6
TAP	31	96	6
TAP	31	192	6
TAP	31	192	7
TAP	32	0	5
TAP	32	96	5
TAP	32	192	4
TAP	32	288	4
XTP	33	0	3
XTP	33	0	4
XTP	33	96	3
XTP	33	96	4
BRK	33	192	2
BRK	33	192	5
HLD	34	0	1	192
TAP	34	192	0
HLD	35	0	6	192
TAP	35	192	7
HLD	36	0	1	192
TAP	36	192	0
HLD	37	0	6	96
HLD	37	0	7	96
TAP	37	192	6
TAP	37	192	7
HLD	38	0	5	192
TAP	38	192	4
HLD	39	0	2	192
TAP	39	192	3
HLD	40	0	5	192
TAP	40	192	4
HLD	41	0	3	96
HLD	41	0	4	96
TAP	41	192	3
TAP	41	192	4
TAP	42	0	6
TAP	42	192	6
TAP	42	192	7
TAP	43	0	1
TAP	43	192	0
TAP	43	192	1
TAP	44	0	6
TAP	44	192	6
TAP	44	192	7
TAP	45	0	0
TAP	45	96	0
TAP	45	192	1
TAP	45	192	7
TAP	46	0	2
TAP	46	192	2
TAP	46	192	3
TAP	47	0	5
TAP	47	192	4
TAP	47	192	5
TAP	48	0	2
TAP	48	192	2
TAP	48	192	3
XTP	49	0	3
XTP	49	0	4
XTP	49	192	2
XTP	49	192	5
STR	50	0	1
SCR	50	0	1	96	288	5
STR	51	192	6
SCL	51	192	6	96	288	2
STR	53	0	1
SCR	53	0	1	96	288	5
TAP	54	192	6
TAP	55	0	6
TAP	55	0	7
TAP	55	192	0
TAP	55	192	7
TAP	55	288	0
TAP	55	288	7
XTP	56	0	0
XTP	56	0	7
BRK	56	192	1
TAP	56	288	1
TAP	57	0	2
TAP	57	96	2
TAP	57	192	2
TAP	57	192	3
TAP	57	288	2
TAP	57	288	3
TAP	58	0	1
TAP	58	0	4
TAP	58	192	5
TAP	58	288	5
TAP	59	0	6
TAP	59	96	6
TAP	59	192	6
TAP	59	192	7
TAP	59	288	6
TAP	59	288	7
TAP	60	0	0
TAP	60	0	5
HLD	60	192	1	192
TAP	60	288	0
TAP	61	0	0
HLD	61	192	6	192
TAP	61	288	7
TAP	62	0	7
TAP	62	192	0
TAP	62	288	0
TAP	63	0	7
TAP	63	96	7
TAP	63	192	0
TAP	63	192	7
TAP	63	288	0
TAP	63	288	7
XTP	64	0	1
XTP	64	0	6
BRK	64	192	5
TAP	64	288	5
TAP	65	0	6
TAP	65	96	6
TAP	65	192	6
TAP	65	192	7
TAP	65	288	6
TAP	65	288	7
TAP	66	0	0
TAP	66	0	5
TAP	66	192	1
TAP	66	288	1
TAP	67	0	2
TAP	67	96	2
XTP	67	192	3
XTP	67	192	4
XTP	68	0	2
XTP	68	0	5
XST	68	192	1
SLR	68	192	1	96	432	0
XST	68	192	6
SLL	68	192	6	96	432	7
TAP	70	192	6
TAP	70	192	7
TAP	71	0	0
TAP	71	0	1
TAP	71	192	0
TAP	71	192	7
TAP	71	288	0
TAP	71	288	7
XTP	72	0	1
XTP	72	0	6
BRK	72	192	2
TAP	72	288	2
TAP	73	0	2
TAP	73	0	3
TAP	73	96	2
TAP	73	96	3
TAP	73	192	1
TAP	73	288	0
TAP	74	0	1
TAP	74	0	7
TAP	74	192	6
TAP	74	288	6
TAP	75	0	6
TAP	75	0	7
TAP	75	96	6
TAP	75	96	7
TAP	75	192	5
TAP	75	288	4
TAP	76	0	2
TAP	76	0	5
HLD	76	192	1	192
TAP	76	288	0
TAP	77	0	0
HLD	77	192	6	192
TAP	77	288	7
TAP	78	0	7
TAP	78	192	0
TAP	78	288	0
TAP	79	0	7
TAP	79	96	7
XTP	79	192	0
XTP	79	192	7
XTP	79	288	0
XTP	79	288	7
TAP	80	0	1
TAP	80	0	6
TAP	80	192	6
TAP	80	288	6
TAP	81	0	6
TAP	81	0	7
TAP	81	96	6
TAP	81	96	7
TAP	81	192	5
TAP	81	288	4
TAP	82	0	3
TAP	82	0	5
TAP	82	192	2
TAP	82	288	2
TAP	83	0	1
TAP	83	96	1
XTP	83	192	0
XTP	83	192	7
XTP	84	0	1
XTP	84	0	6
XST	84	192	2
SLL	84	192	2	96	432	3
XST	84	192	5
SLR	84	192	5	96	432	4
TAP	86	192	3
TAP	86	192	4
TAP	87	0	2
TAP	87	0	5
HLD	87	192	1	192
HLD	87	192	6	192
TTP	88	192	1	B	0	L1
TTP	89	0	2	B	0	L1
TTP	89	192	3	B	0	L1
TTP	90	192	6	B	0	L1
TTP	91	0	5	B	0	L1
TTP	91	192	4	B	0	L1
TTP	92	192	1	B	0	L1
TTP	93	0	2	B	0	L1
TTP	93	192	3	B	0	L1
TTP	94	0	4	B	0	L1
TTP	94	192	5	B	0	L1
TTP	95	0	6	B	0	L1
TTP	95	192	0	C	0	L1
TTP	96	192	1	B	0	L1
TTP	97	0	2	B	0	L1
TTP	97	192	3	B	0	L1
TTP	97	192	3	E	0	L1
TTP	98	192	6	B	0	L1
TTP	99	0	5	B	0	L1
TTP	99	192	4	B	0	L1
TTP	99	192	5	E	0	L1
TTP	100	192	3	B	0	L1
TTP	101	0	2	B	0	L1
TTP	101	192	1	B	0	L1
TTP	102	0	0	B	0	L1
TTP	102	192	7	B	0	L1
TTP	103	0	6	B	0	L1
TTP	103	192	2	B	0	L1
TTP	103	192	5	B	0	L1
XTP	104	192	3
XTP	104	192	4
XTP	105	0	3
XTP	105	0	4
XTP	105	192	2
XTP	105	192	5
XTP	106	0	2
XTP	106	0	5

T_REC_TAP	220
T_REC_BRK	5
T_REC_XTP	34
T_REC_HLD	20
T_REC_XHO	2
T_REC_STR	3
T_REC_BST	0
T_REC_XST	4
T_REC_TTP	29
T_REC_THO	0
T_REC_SLD	7
T_REC_ALL	324
T_NUM_TAP	290
T_NUM_BRK	5
T_NUM_HLD	22
T_NUM_SLD	7
T_NUM_ALL	324
T_JUDGE_TAP	295
T_JUDGE_HLD	104
T_JUDGE_SLD	7
T_JUDGE_ALL	406
TTM_EACHPAIRS	77
TTM_SCR_TAP	145000
TTM_SCR_BRK	13000
TTM_SCR_HLD	22000
TTM_SCR_SLD	10500
TTM_SCR_ALL	190500
TTM_SCR_S	184300
TTM_SCR_SS	190000
TTM_RAT_ACV	10026

