VERSION	0.00.00	1.03.00
FES_MODE	0
BPM_DEF	200.000	200.000	205.001	200.000
MET_DEF	4	4
RESOLUTION	384
CLK_DEF	384
COMPATIBLE_CODE	MA2

BPM	0	0	200.000
BPM	54	0	205.001
BPM	68	0	201.000
BPM	72	192	205.001
BPM	76	192	204.000
BPM	84	192	203.000
BPM	88	192	200.000
BPM	91	192	201.000
BPM	96	192	203.000
BPM	100	192	202.000
MET	0	0	4	4

TAP	10	0	3
TAP	11	0	3
TAP	12	0	4
TAP	13	0	4
TAP	14	0	3
TAP	15	0	3
TAP	16	0	4
XTP	17	0	3
XTP	17	0	4
TAP	18	0	2
TAP	19	0	2
TAP	20	0	1
TAP	21	0	1
TAP	22	0	0
TAP	23	0	0
TAP	24	0	7
XTP	25	0	7
TAP	26	0	6
TAP	27	0	6
TAP	28	0	5
TAP	29	0	5
TAP	30	0	4
TAP	31	0	4
TAP	32	0	3
XTP	33	0	3
XTP	33	0	4
HLD	34	0	4	384
HLD	36	0	5	384
HLD	38	0	6	384
TAP	40	0	7
TAP	41	0	0
TAP	41	0	7
HLD	42	0	0	384
HLD	44	0	1	384
HLD	46	0	2	384
TAP	48	0	3
BRK	49	0	3
BRK	49	0	4
TTP	50	0	3	E	0	L1
TTP	51	192	4	E	0	L1
TTP	53	0	5	E	0	L1
TTP	54	192	0	C	1	L1
XTP	56	192	0
TAP	57	0	0
TAP	57	192	0
TAP	57	192	7
TAP	58	192	6
TAP	59	0	6
TAP	59	192	6
TAP	59	192	7
TAP	60	192	5
TAP	61	0	5
TAP	61	192	4
TAP	61	192	5
TAP	62	192	3
TAP	63	0	3
XTP	63	192	3
XTP	63	192	4
TAP	64	192	2
TAP	65	0	2
TAP	65	192	2
TAP	65	192	3
TAP	66	192	1
TAP	67	0	1
TAP	67	192	0
TAP	67	192	1
HLD	68	192	0	384
HLD	68	192	7	384
XTP	70	192	0
XTP	70	192	7
BRK	71	192	0
BRK	71	192	7
TAP	72	192	0
TAP	73	0	0
TAP	73	192	1
TAP	74	0	1
TAP	74	192	2
TAP	75	0	2
TAP	75	192	2
TAP	75	192	3
TAP	76	192	4
TAP	77	0	4
TAP	77	192	5
TAP	78	0	5
TAP	78	192	6
TAP	79	0	6
BRK	79	192	0
BRK	79	192	7
TAP	80	192	6
TAP	81	0	6
TAP	81	192	5
TAP	82	0	5
TAP	82	192	4
TAP	83	0	4
TAP	83	192	3
TAP	83	192	4
HLD	84	192	2	384
HLD	84	192	3	384
HLD	86	192	4	384
HLD	86	192	5	384
STR	88	192	6
SI_	88	192	6	96	480	2
TAP	91	192	1
STR	92	192	1
SI_	92	192	1	96	480	5
XTP	95	192	7
TAP	96	192	7
TAP	97	0	7
TAP	97	192	6
TAP	98	192	5
TAP	99	0	5
TAP	99	192	4
TAP	100	192	3
TAP	101	0	3
TAP	101	192	2
TAP	102	192	1
TAP	103	0	1
TAP	103	192	0
TAP	103	192	7
STR	104	192	0
SI_	104	192	0	96	480	3
STR	104	192	7
SI_	104	192	7	96	480	4

T_REC_TAP	82
T_REC_BRK	6
T_REC_XTP	11
T_REC_HLD	12
T_REC_XHO	0
T_REC_STR	4
T_REC_BST	0
T_REC_XST	0
T_REC_TTP	4
T_REC_THO	0
T_REC_SLD	4
T_REC_ALL	123
T_NUM_TAP	101
T_NUM_BRK	6
T_NUM_HLD	12
T_NUM_SLD	4
T_NUM_ALL	123
T_JUDGE_TAP	107
T_JUDGE_HLD	96
T_JUDGE_SLD	4
T_JUDGE_ALL	207
TTM_EACHPAIRS	20
TTM_SCR_TAP	50500
TTM_SCR_BRK	15600
TTM_SCR_HLD	12000
TTM_SCR_SLD	6000
TTM_SCR_ALL	84100
TTM_SCR_S	81000
TTM_SCR_SS	83500
TTM_RAT_ACV	10071

