VERSION	0.00.00	1.05.00
FES_MODE	0
BPM_DEF	195.000	195.000	195.000	195.000
MET_DEF	4	4
RESOLUTION	384
CLK_DEF	384
COMPATIBLE_CODE	MA2

BPM	0	0	195.000
MET	0	0	4	4

NMTAP	1	0	3
NMSTR	1	96	2
NMSUR	1	96	2	96	384	5
NMHLD	1	96	4	480
NMTAP	3	0	4
NMHLD	3	96	3	480
NMSTR	3	96	5
NMSUL	3	96	5	96	384	2
NMTAP	5	0	2
NMSTR	5	96	1
NMSUL	5	96	1	96	384	6
NMHLD	5	96	3	480
NMTAP	7	0	5
NMHLD	7	96	4	576
NMSTR	7	96	6
NMSUR	7	96	6	96	384	1
BRTAP	8	288	7
NMHLD	9	0	6	96
NMTAP	9	96	4
NMTAP	9	192	5
NMTAP	9	240	5
NMTAP	9	288	4
NMTAP	9	288	6
NMTAP	9	336	7
NMTAP	10	48	7
NMTAP	10	96	4
NMSTR	10	96	6
NMSI_	10	96	6	96	48	3
NMTAP	10	192	3
NMTAP	10	240	2
NMTAP	10	288	2
NMHLD	11	0	1	96
NMTAP	11	96	3
NMTAP	11	192	2
NMTAP	11	240	2
NMTAP	11	288	1
NMTAP	11	288	3
NMTAP	11	336	0
NMTAP	12	48	0
NMSTR	12	96	1
NMSI_	12	96	1	96	48	4
NMTAP	12	96	3
NMTAP	12	192	4
NMTAP	12	240	5
NMTAP	12	288	6
NMHLD	13	0	6	96
NMTAP	13	96	4
NMTAP	13	192	5
NMTAP	13	240	4
NMTAP	13	288	4
NMTAP	13	288	6
NMTAP	13	336	5
NMTAP	14	48	5
NMTAP	14	96	4
NMSTR	14	96	6
NMSI_	14	96	6	96	48	0
NMTAP	14	192	3
NMTAP	14	240	1
NMTAP	14	288	1
NMHLD	15	0	2	96
NMTAP	15	96	3
NMTAP	15	192	2
NMTAP	15	240	3
NMTAP	15	288	1
NMTAP	15	288	3
NMTAP	15	336	2
NMTAP	16	48	2
NMSTR	16	96	1
NMSI_	16	96	1	96	48	4
NMTAP	16	96	3
NMTAP	16	192	4
NMTAP	16	240	5
NMTAP	16	288	6
NMHLD	17	0	6	96
NMHLD	17	96	4	96
NMTAP	17	192	7
NMTAP	17	240	7
NMTAP	17	288	4
NMTAP	17	288	6
NMTAP	17	336	5
NMTAP	18	48	5
NMSTR	18	96	4
NMSI_	18	96	4	96	48	1
NMTAP	18	96	6
NMTAP	18	192	7
NMTAP	18	240	0
NMTAP	18	288	0
NMHLD	19	0	1	96
NMHLD	19	96	3	96
NMTAP	19	192	0
NMTAP	19	240	0
NMTAP	19	288	1
NMTAP	19	288	3
NMTAP	19	336	2
NMTAP	20	48	2
NMTAP	20	96	1
NMSTR	20	96	3
NMSI_	20	96	3	96	48	6
NMTAP	20	192	1
NMTAP	20	240	0
NMTAP	20	288	7
NMHLD	21	0	6	96
NMHLD	21	96	4	96
NMTAP	21	192	7
NMTAP	21	240	7
NMTAP	21	288	4
NMTAP	21	288	6
NMTAP	21	336	5
NMTAP	22	48	5
NMSTR	22	96	4
NMSI_	22	96	4	96	48	1
NMTAP	22	96	6
NMTAP	22	192	7
NMTAP	22	240	0
NMTAP	22	288	0
NMTAP	23	0	2
NMSTR	23	0	3
NMSI_	23	0	3	96	48	6
NMSTR	23	96	1
NMSI_	23	96	1	96	48	4
NMTAP	23	192	7
NMTAP	23	240	7
NMTAP	23	288	6
NMTAP	23	336	4
NMTAP	23	336	6
NMTAP	24	48	1
NMTAP	24	96	1
NMTAP	24	96	3
NMTAP	24	192	3
NMTAP	24	192	4
NMTAP	24	240	2
NMTAP	24	240	5
BRTAP	24	288	1
BRTAP	24	288	6
NMSTR	25	0	2
NMSCR	25	0	2	96	96	5
NMSTR	25	192	6
NMSUL	25	192	6	96	96	1
NMSTR	26	0	0
NMSUL	26	0	0	96	192	7
NMTAP	26	288	6
NMHLD	26	336	6	144
NMHLD	27	96	4	96
NMTAP	27	192	3
NMSTR	27	240	3
NMSXL	27	240	3	96	240	7
NMHLD	27	336	3	240
NMTAP	28	288	2
NMTAP	28	288	6
NMSTR	29	0	5
NMSV_	29	0	5	96	96	0
NMSTR	29	192	1
NMSV_	29	192	1	96	96	4
NMSTR	30	0	3
NMSXL	30	0	3	96	192	2
NMSTR	30	288	1
NMSXR	30	288	1	96	192	4
NMHLD	30	336	1	240
NMSTR	31	288	6
NMSUR	31	288	6	96	192	0
NMHLD	31	336	6	240
NMTAP	32	288	1
NMTAP	32	288	7
NMTAP	33	0	0
NMSTR	33	0	6
NMSLL	33	0	6	96	120	7
CNSI_	33	216	7	0	72	1
NMTAP	33	288	2
NMSTR	33	336	2
NMSV_	33	336	2	96	72	3
CNSI_	34	120	3	0	72	5
NMHLD	34	192	6	96
NMHLD	34	288	4	96
NMHLD	35	0	3	96
NMHLD	35	96	1	96
NMSTR	35	192	7
NMSCL	35	192	7	96	192	0
NMTAP	35	288	0
NMTAP	35	336	0
NMTAP	36	96	3
NMTAP	36	192	2
NMTAP	36	192	7
NMSTR	36	288	0
NMSCR	36	288	0	96	96	3
NMTAP	36	288	5
NMSTR	37	0	3
NMSCR	37	0	3	96	96	6
NMSTR	37	96	6
NMSCR	37	96	6	96	96	1
NMSTR	37	192	1
NMSCR	37	192	1	96	96	4
NMSTR	37	288	4
NMSXL	37	288	4	96	192	0
NMTAP	38	192	7
NMSTR	38	288	6
NMSCR	38	288	6	96	96	1
NMSTR	39	0	1
NMSCR	39	0	1	96	96	4
NMSTR	39	96	4
NMSCR	39	96	4	96	96	7
NMSTR	39	192	7
NMSCR	39	192	7	96	96	2
NMSTR	39	288	2
NMSXL	39	288	2	96	192	6
NMTAP	40	192	0
NMTAP	40	240	1
NMTAP	40	264	7
NMTAP	40	288	1
BRSTR	41	0	2
NMSI_	41	0	2	96	48	4
BRSTR	41	0	6
NMSI_	41	0	6	96	48	4
NMTAP	41	96	2
NMTAP	41	96	6
NMTAP	41	192	5
NMTAP	41	240	5
NMTAP	41	288	4
NMTAP	41	336	3
NMSTR	41	336	6
NMSI_	41	336	6	96	48	2
NMTAP	42	48	0
NMTAP	42	96	0
NMTAP	42	192	1
NMTAP	42	192	3
NMTAP	42	240	2
NMTAP	42	264	3
NMTAP	42	288	2
NMTAP	42	336	5
NMTAP	42	360	4
NMSTR	43	0	6
NMSCL	43	0	6	96	48	3
NMSCR	43	0	6	96	48	1
NMTAP	43	96	6
NMTTP	43	192	3	B	0	M1
NMTTP	43	192	4	E	0	M1
NMTTP	43	240	1	B	0	M1
NMTTP	43	240	2	E	0	M1
NMTTP	43	288	5	B	0	M1
NMTTP	43	288	6	E	0	M1
NMTTP	43	336	0	C	0	M1
NMTAP	44	48	7
NMTAP	44	96	7
NMTAP	44	192	0
NMTAP	44	192	1
NMTAP	44	240	2
NMTAP	44	240	7
BRTAP	44	288	3
BRTAP	44	288	6
NMSTR	45	0	2
NMSI_	45	0	2	96	48	0
NMSTR	45	0	5
NMSI_	45	0	5	96	48	3
NMTAP	45	96	2
NMTAP	45	96	5
NMTAP	45	192	1
NMTAP	45	240	1
NMTAP	45	288	3
NMSTR	45	336	0
NMSI_	45	336	0	96	48	4
NMTAP	45	336	4
NMTAP	46	48	7
NMHLD	46	96	7	96
NMTAP	46	192	3
NMTAP	46	240	6
NMTAP	46	264	4
NMTAP	46	288	5
NMTAP	46	336	2
NMTAP	46	360	3
NMSTR	47	0	1
NMSCL	47	0	1	96	48	6
NMSCR	47	0	1	96	48	4
NMTAP	47	96	1
NMTTP	47	192	4	B	0	M1
NMTTP	47	192	4	E	0	M1
NMTTP	47	240	6	B	0	M1
NMTTP	47	240	6	E	0	M1
NMTTP	47	288	2	B	0	M1
NMTTP	47	288	2	E	0	M1
NMTHO	47	336	0	144	C	0	M1
NMTAP	48	48	0
NMTAP	48	96	0
NMTAP	48	192	7
NMTAP	48	240	0
NMTAP	48	240	6
BRTAP	48	288	1
BRTAP	48	288	5
NMSTR	49	0	2
NMSI_	49	0	2	96	48	5
NMHLD	49	96	6	96
NMTAP	49	192	4
NMTAP	49	240	4
NMTAP	49	288	5
NMTAP	49	336	3
NMTAP	49	336	4
NMTAP	50	48	2
NMHLD	50	96	2	96
NMTAP	50	192	3
NMTAP	50	240	2
NMTAP	50	288	1
NMTAP	50	288	4
NMTAP	51	0	0
NMSTR	51	0	5
NMSI_	51	0	5	96	48	2
NMHLD	51	96	1	96
NMTAP	51	192	3
NMTAP	51	240	3
NMTAP	51	288	2
NMTAP	51	336	3
NMTAP	51	336	4
NMTAP	52	48	5
NMHLD	52	96	5	96
NMTAP	52	192	4
NMTAP	52	240	5
BRTAP	52	288	3
BRTAP	52	288	6
NMSTR	53	0	2
NMSI_	53	0	2	96	48	4
NMHLD	53	96	6	96
NMTAP	53	192	5
NMTAP	53	240	6
NMTAP	53	288	7
NMTAP	53	336	0
NMTAP	53	336	6
NMTAP	54	48	1
NMHLD	54	96	1	96
NMTAP	54	192	0
NMTAP	54	240	1
NMTAP	54	288	2
NMTAP	54	288	7
NMSTR	55	0	6
NMSI_	55	0	6	96	48	3
NMHLD	55	96	1	96
NMTAP	55	192	2
NMTAP	55	240	1
NMTAP	55	288	0
NMTAP	55	336	1
NMTAP	55	336	7
NMTAP	56	48	6
NMHLD	56	96	6	96
NMTAP	56	192	7
NMTAP	56	240	6
BRTAP	56	288	0
BRTAP	56	288	5
NMSTR	57	0	6
NMSI_	57	0	6	96	48	4
NMTAP	57	0	7
NMTAP	57	96	0
NMSTR	57	96	6
NMSLR	57	96	6	96	144	5
NMTAP	57	192	2
NMTAP	57	288	3
NMTAP	57	336	3
NMTAP	58	48	4
NMTAP	58	48	5
NMTAP	58	96	3
NMSTR	58	96	6
NMSCL	58	96	6	96	48	4
NMTAP	58	192	2
CNSI_	58	240	4	0	48	0
NMTAP	58	288	1
NMTAP	59	0	0
NMSTR	59	0	1
NMSI_	59	0	1	96	48	3
NMSTR	59	96	1
NMSLL	59	96	1	96	144	2
NMTAP	59	96	7
NMTAP	59	192	5
NMTAP	59	288	4
NMTAP	59	336	4
NMTAP	60	48	2
NMTAP	60	48	3
NMSTR	60	96	1
NMSI_	60	96	1	96	48	3
NMTAP	60	96	4
NMTAP	60	192	5
CNSI_	60	240	3	0	48	7
NMTAP	60	288	6
NMSTR	61	0	0
NMSI_	61	0	0	96	48	5
NMTAP	61	0	5
NMHLD	61	96	4	192
NMTAP	61	192	6
NMTAP	61	288	6
NMHLD	62	0	5	96
NMHLD	62	0	7	96
NMHLD	62	192	0	96
NMHLD	62	192	2	96
NMTAP	63	0	4
NMTAP	63	0	6
NMTAP	63	96	0
NMTAP	63	96	7
NMTAP	63	192	1
NMTAP	63	192	3
NMTAP	63	288	3
NMTAP	63	288	4
NMTAP	64	0	1
NMTAP	64	0	6
NMTAP	64	48	0
NMTAP	64	72	7
NMTAP	64	96	0
NMTAP	64	120	7
NMTAP	64	144	0
NMTAP	64	168	7
NMTAP	64	192	0
NMTAP	64	204	1
NMTAP	64	216	2
NMTAP	64	228	3
NMTAP	64	240	4
NMTAP	64	252	5
NMTAP	64	264	6
NMTAP	64	276	7
NMTAP	64	288	0
NMTAP	64	288	4
BXTAP	65	0	2
BXTAP	65	0	3
NMSTR	65	96	0
NMSCL	65	96	0	96	48	5
NMSTR	65	96	1
NMSV_	65	96	1	96	48	4
NMTTP	65	192	0	A	0	M1
NMTTP	65	192	1	A	0	M1
NMTTP	65	192	1	D	1	M1
BXTAP	65	336	2
BXTAP	65	336	3
NMTAP	66	48	0
NMTAP	66	48	1
NMSTR	66	96	0
NMSCL	66	96	0	96	48	5
NMSTR	66	96	1
NMSV_	66	96	1	96	48	4
NMTTP	66	192	0	A	0	M1
NMTTP	66	192	1	A	0	M1
NMTTP	66	192	1	D	1	M1
NMTAP	66	336	2
NMSTR	66	336	3
BRSLR	66	336	3	96	72	7
NMTAP	67	48	1
NMSTR	67	96	1
BRSI_	67	96	1	96	48	3
NMTAP	67	192	0
NMTAP	67	192	1
NMTAP	67	288	2
NMTAP	67	288	6
NMSTR	67	336	2
NMSXL	67	336	2	96	144	5
NMTAP	67	336	6
NMTAP	68	48	6
NMTAP	68	96	7
NMTAP	68	144	0
NMTAP	68	192	1
NMTAP	68	288	0
NMSTR	68	288	4
NMSI_	68	288	4	96	48	0
NMTAP	69	0	4
NMSTR	69	0	6
NMSI_	69	0	6	96	48	1
NMSTR	69	96	2
NMSI_	69	96	2	96	48	5
NMTAP	69	96	6
NMTAP	69	192	2
NMTAP	69	192	7
NMTAP	69	336	0
NMTAP	69	336	6
NMTAP	70	48	1
NMTAP	70	48	5
NMSTR	70	96	1
NMSI_	70	96	1	96	48	6
NMSTR	70	96	5
NMSI_	70	96	5	96	48	2
BRTAP	70	192	1
BRTAP	70	192	5
NMTAP	70	336	0
NMTAP	70	336	4
NMTAP	71	48	1
NMSTR	71	96	1
NMSXL	71	96	1	96	144	5
NMTAP	71	192	5
NMTAP	71	288	7
NMSTR	71	336	7
NMSLR	71	336	7	96	120	6
NMTAP	72	48	4
NMTAP	72	96	4
CNSI_	72	168	6	0	72	3
NMTAP	72	192	1
BRTAP	72	240	0
NMTAP	73	0	1
NMTAP	73	0	2
NMSTR	73	96	0
NMSCR	73	96	0	96	48	3
NMSTR	73	96	3
NMSCR	73	96	3	96	48	6
BRTAP	73	192	0
BRTAP	73	192	3
NMTAP	73	336	5
NMTAP	73	336	6
NMTAP	74	48	4
NMTAP	74	48	7
NMSTR	74	96	4
NMSI_	74	96	4	96	48	0
NMSTR	74	96	7
NMSI_	74	96	7	96	48	3
BRTAP	74	192	4
BRTAP	74	192	7
NMHLD	74	336	1	96
NMTAP	75	48	3
NMSTR	75	96	4
NMSI_	75	96	4	96	48	6
NMTAP	75	144	4
NMSTR	75	192	0
NMSUR	75	192	0	96	48	4
NMTAP	75	240	0
NMTAP	75	288	7
NMSTR	75	336	7
NMSCL	75	336	7	96	72	4
NMTAP	76	48	3
NMTAP	76	96	3
CNSV_	76	120	4	0	72	2
NMTAP	76	192	0
NMTAP	76	288	3
NMSTR	76	288	7
NMSI_	76	288	7	96	48	2
NMHLD	77	0	5	96
NMSTR	77	96	3
NMSI_	77	96	3	96	48	0
NMHLD	77	192	4	96
NMSTR	77	288	7
NMSI_	77	288	7	96	48	2
NMHLD	78	0	3	96
NMSTR	78	96	1
NMSI_	78	96	1	96	48	5
NMHLD	78	192	0	96
NMSTR	78	288	4
NMSCL	78	288	4	96	96	0
NMSTR	79	0	0
NMSCL	79	0	0	96	96	4
NMSTR	79	96	4
NMSCL	79	96	4	96	96	0
NMSTR	79	192	0
NMSCL	79	192	0	96	96	4
NMSTR	79	288	4
BRSLL	79	288	4	96	72	0
NMTTP	80	0	0	C	1	M1
CNSLL	80	72	0	0	72	4
NMTAP	80	192	0
NMTAP	80	240	0
NMTAP	80	288	1
NMTAP	80	288	7
NMTAP	81	0	0
NMTAP	81	0	1
NMSTR	81	96	2
NMSV_	81	96	2	96	48	7
NMSTR	81	96	3
NMSCR	81	96	3	96	48	6
NMTTP	81	192	2	A	0	M1
NMTTP	81	192	3	A	0	M1
NMTTP	81	192	3	D	1	M1
NMTAP	81	336	0
NMTAP	81	336	1
NMTAP	82	48	2
NMTAP	82	48	3
NMSTR	82	96	2
NMSV_	82	96	2	96	48	7
NMSTR	82	96	3
NMSCR	82	96	3	96	48	6
NMTTP	82	192	2	A	0	M1
NMTTP	82	192	3	A	0	M1
NMTTP	82	192	3	D	1	M1
NMSTR	82	336	0
NMSLL	82	336	0	96	72	4
NMTAP	82	336	1
NMTAP	83	48	2
NMSTR	83	96	2
NMSI_	83	96	2	96	48	0
NMTAP	83	192	2
NMTAP	83	192	3
NMTAP	83	288	1
NMTAP	83	288	5
NMSTR	83	336	1
NMSXR	83	336	1	96	144	6
NMTAP	83	336	5
NMTAP	84	48	5
NMTAP	84	96	4
NMTAP	84	144	3
NMTAP	84	192	2
NMSTR	84	288	3
NMSI_	84	288	3	96	48	7
NMTAP	84	288	7
NMSTR	85	0	1
NMSCL	85	0	1	96	48	6
NMTAP	85	0	3
EXTAP	85	96	1
NMSTR	85	96	5
NMSUR	85	96	5	96	48	2
NMTAP	85	192	5
EXTAP	85	192	7
NMTAP	85	336	3
NMTAP	85	336	7
NMTAP	86	48	1
NMTAP	86	48	5
NMSTR	86	96	1
NMSCL	86	96	1	96	48	6
NMSTR	86	96	5
NMSUR	86	96	5	96	48	2
BRTAP	86	192	1
BRTAP	86	192	5
EXTAP	86	336	1
EXSTR	86	336	3
NMSCR	86	336	3	96	48	6
NMSTR	87	48	0
NMSI_	87	48	0	96	48	4
NMTAP	87	96	0
NMSTR	87	144	5
NMSI_	87	144	5	96	48	0
NMTAP	87	192	5
NMTAP	87	240	3
NMTAP	87	288	3
NMTAP	87	336	4
NMTAP	87	336	7
NMHLD	88	48	6	48
NMHLD	88	96	4	48
NMHLD	88	144	3	48
NMHLD	88	192	1	48
BXTAP	88	240	7
NMTAP	89	0	6
NMTAP	89	0	7
NMSTR	89	96	4
NMSCL	89	96	4	96	48	1
NMSTR	89	96	5
NMSV_	89	96	5	96	48	0
NMTTP	89	192	4	A	0	M1
NMTTP	89	192	5	A	0	M1
NMTTP	89	192	5	D	1	M1
NMTAP	89	336	6
NMTAP	89	336	7
NMTAP	90	48	4
NMTAP	90	48	5
NMSTR	90	96	4
BRSCL	90	96	4	96	48	1
NMSTR	90	96	5
BRSCR	90	96	5	96	48	0
NMTTP	90	192	4	A	0	M1
NMTTP	90	192	5	A	0	M1
NMTTP	90	192	5	D	1	M1
NMHLD	90	336	6	96
NMTAP	91	48	7
NMSTR	91	96	0
NMSI_	91	96	0	96	48	4
NMTAP	91	96	5
NMTAP	91	144	0
NMSTR	91	192	6
NMSCR	91	192	6	96	48	1
NMTAP	91	240	6
NMTAP	91	288	3
NMHLD	91	336	3	96
NMTAP	92	48	2
NMTAP	92	96	0
NMTAP	92	96	1
NMTAP	92	144	4
NMTAP	92	144	5
NMTAP	92	192	6
NMSTR	92	192	7
NMSF_	92	192	7	96	48	3
NMTAP	92	288	7
NMSTR	93	0	1
NMSXR	93	0	1	96	144	6
NMSTR	93	192	5
NMSXL	93	192	5	96	144	0
NMSTR	94	0	2
NMSXR	94	0	2	96	144	4
NMTAP	94	192	5
NMSTR	94	288	7
NMSCL	94	288	7	96	48	4
NMSTR	95	0	2
NMSCL	95	0	2	96	48	7
NMTAP	95	0	7
NMTAP	95	96	2
NMSTR	95	96	5
NMSCL	95	96	5	96	48	2
NMTAP	95	192	0
NMTAP	95	192	5
NMTAP	95	288	1
NMTAP	95	288	7
NMTAP	95	336	1
NMTAP	95	336	7
NMTAP	96	0	2
NMTAP	96	0	6
NMTAP	96	48	7
NMTAP	96	72	3
NMTAP	96	96	7
NMTAP	96	120	3
NMTAP	96	144	7
NMTAP	96	168	3
BRTAP	96	192	7
BRTAP	96	240	1
BRTAP	96	240	5

T_REC_TAP	350
T_REC_BRK	23
T_REC_XTP	3
T_REC_BXX	5
T_REC_HLD	48
T_REC_XHO	0
T_REC_BHO	0
T_REC_BXH	0
T_REC_STR	109
T_REC_BST	2
T_REC_XST	1
T_REC_XBS	0
T_REC_TTP	32
T_REC_THO	1
T_REC_SLD	109
T_REC_BSL	5
T_REC_ALL	688
T_NUM_TAP	495
T_NUM_BRK	35
T_NUM_HLD	49
T_NUM_SLD	109
T_NUM_ALL	688
T_JUDGE_TAP	525
T_JUDGE_HLD	141
T_JUDGE_SLD	114
T_JUDGE_ALL	780
TTM_EACHPAIRS	129
TTM_SCR_TAP	247500
TTM_SCR_BRK	91000
TTM_SCR_HLD	49000
TTM_SCR_SLD	163500
TTM_SCR_ALL	551000
TTM_SCR_S	531100
TTM_SCR_SS	547500
TTM_RAT_ACV	10063

