VERSION	0.00.00	1.05.00
FES_MODE	0
BPM_DEF	195.000	195.000	195.000	195.000
MET_DEF	4	4
RESOLUTION	384
CLK_DEF	384
COMPATIBLE_CODE	MA2

BPM	0	0	195.000
MET	0	0	4	4

NMTAP	1	0	4
NMHLD	1	96	4	2016
NMTAP	3	0	3
NMSTR	3	96	3
NMSCL	3	96	3	96	384	0
NMTAP	5	0	0
NMHLD	5	96	0	1344
NMTAP	7	0	4
NMSTR	7	96	4
NMSCR	7	96	4	96	384	7
EXTAP	8	288	7
BRTAP	9	0	1
BRTAP	9	0	6
NMTAP	9	96	2
NMTAP	9	96	4
NMTAP	9	192	3
NMTAP	9	192	5
NMTAP	9	288	6
NMTAP	10	0	7
NMTAP	10	96	1
NMTAP	10	192	2
NMTAP	10	288	2
NMTAP	10	288	3
NMTAP	11	0	0
NMTAP	11	96	6
NMTAP	11	192	3
NMTAP	11	192	5
NMTAP	11	288	2
NMTAP	11	288	4
NMTAP	12	0	1
NMTAP	12	96	0
NMHLD	12	192	1	96
NMHLD	12	192	7	96
NMTAP	13	0	6
NMTAP	13	96	0
NMTAP	13	192	1
NMTAP	13	192	4
NMTAP	13	288	2
NMTAP	13	288	3
NMTAP	14	0	1
NMTAP	14	96	7
NMTAP	14	192	3
NMTAP	14	192	6
NMTAP	14	288	4
NMTAP	14	288	5
NMHLD	15	0	6	96
NMTAP	15	96	7
NMHLD	15	192	1	96
NMTAP	15	288	0
NMHLD	16	0	5	96
NMTAP	16	96	4
NMTAP	16	192	3
BRTAP	16	288	2
BRTAP	16	288	4
NMTAP	17	0	5
NMHLD	17	96	6	384
NMTAP	17	192	4
NMTAP	17	288	4
NMTAP	18	0	5
NMTAP	18	96	4
NMTAP	18	192	3
NMTAP	18	192	5
NMTAP	18	288	3
NMTAP	18	288	5
NMTAP	19	0	2
NMHLD	19	96	1	384
NMTAP	19	192	3
NMTAP	19	288	3
NMTAP	20	0	2
NMTAP	20	96	2
NMTAP	20	192	0
NMTAP	20	192	1
NMTAP	20	288	2
NMTAP	20	288	7
NMTAP	21	0	0
NMTAP	21	96	1
NMTAP	21	192	2
NMTAP	21	192	3
NMTAP	21	288	2
NMTAP	21	288	3
NMTAP	22	0	5
NMTAP	22	96	4
NMTAP	22	96	6
NMTAP	22	192	2
NMTAP	22	288	1
NMTAP	22	288	3
NMSTR	23	0	0
NMSCR	23	0	0	96	96	3
NMSTR	23	192	7
NMSCL	23	192	7	96	96	4
NMTAP	24	0	3
NMTAP	24	96	2
BRTAP	24	192	1
BRTAP	24	192	5
NMHLD	25	0	1	192
NMHLD	25	192	3	192
NMTAP	26	0	2
NMTAP	26	96	1
NMTAP	26	96	4
NMTAP	26	192	2
NMTAP	26	192	5
NMTAP	26	288	6
NMHLD	26	336	6	96
NMTAP	27	48	4
NMTAP	27	96	4
NMTAP	27	192	1
NMHLD	27	240	1	96
NMTAP	27	336	3
NMTAP	28	48	2
NMTAP	28	48	4
NMTAP	28	96	2
NMTAP	28	96	4
NMTAP	28	192	1
NMTAP	28	192	5
NMTAP	28	288	6
NMHLD	29	0	5	192
NMHLD	29	192	7	192
NMTAP	30	0	6
NMTAP	30	96	0
NMTAP	30	96	5
NMTAP	30	192	2
NMTAP	30	192	3
NMTAP	30	288	1
NMHLD	30	336	1	96
NMTAP	31	48	0
NMTAP	31	96	0
NMTAP	31	192	0
NMTAP	31	192	7
NMTAP	31	288	6
NMHLD	31	336	6	96
NMTAP	32	48	7
NMTAP	32	96	7
NMTAP	32	192	0
NMTAP	32	192	5
NMTAP	32	288	0
NMSTR	32	288	5
NMSUR	32	288	5	96	192	2
NMTAP	33	288	0
NMHLD	33	336	0	96
NMTAP	34	48	7
NMTAP	34	96	7
NMHLD	34	192	1	96
NMHLD	34	288	2	96
NMHLD	35	0	3	96
NMHLD	35	96	4	96
NMTAP	35	192	5
NMTAP	35	288	3
NMTAP	35	288	6
NMTAP	35	336	3
NMTAP	35	336	6
NMTAP	36	48	4
NMTAP	36	48	5
NMTAP	36	96	4
NMTAP	36	96	5
NMTAP	36	192	6
NMSTR	36	288	7
NMSCL	36	288	7	96	192	3
EXTAP	37	240	1
EXHLD	37	336	0	144
EXHLD	37	336	2	144
NMTAP	38	192	0
NMTAP	38	192	1
NMSTR	38	288	0
NMSCL	38	288	0	96	192	4
NMTAP	38	288	1
EXTAP	39	240	3
EXHLD	39	336	2	144
EXHLD	39	336	4	144
BXTAP	40	192	1
BXTAP	40	192	5
NMHLD	41	0	5	96
NMTAP	41	96	4
NMTAP	41	192	6
NMTAP	41	240	6
NMTAP	41	288	7
NMHLD	42	0	1	96
NMTAP	42	96	0
NMTAP	42	192	2
NMTAP	42	240	2
NMTAP	42	288	3
NMHLD	43	0	1	96
NMTAP	43	96	3
NMTAP	43	192	5
NMTAP	43	240	5
NMTAP	43	288	4
NMTAP	44	0	3
NMTAP	44	0	6
NMTAP	44	96	3
NMTAP	44	96	6
NMTAP	44	192	0
NMTAP	44	192	7
EXTAP	44	288	0
EXTAP	44	288	7
NMHLD	45	0	1	96
NMTAP	45	96	0
NMTAP	45	192	2
NMTAP	45	240	2
NMTAP	45	288	3
NMHLD	46	0	5	96
NMTAP	46	96	4
NMTAP	46	192	6
NMTAP	46	240	6
NMTAP	46	288	7
NMHLD	47	0	4	96
NMHLD	47	0	6	96
NMHLD	47	192	1	96
NMHLD	47	192	3	96
NMTAP	48	0	2
NMTAP	48	0	4
NMTAP	48	96	3
NMTAP	48	96	5
EXTAP	48	192	2
EXTAP	48	192	6
NMSTR	49	0	5
NMSCL	49	0	5	96	96	2
NMSTR	49	192	0
NMSI_	49	192	0	96	96	4
NMTAP	50	0	7
NMTAP	50	96	7
NMTAP	50	192	6
NMTAP	50	288	5
NMHLD	50	336	5	96
NMTAP	51	48	4
NMTAP	51	96	4
NMTAP	51	192	4
NMTAP	51	192	5
NMTAP	51	240	4
NMTAP	51	240	5
NMHLD	51	336	3	144
NMHLD	51	336	6	144
NMTAP	52	192	4
NMTAP	52	192	5
NMTAP	52	288	3
NMTAP	52	288	4
NMSTR	53	0	2
NMSCR	53	0	2	96	96	5
NMSTR	53	192	7
NMSI_	53	192	7	96	96	3
NMHLD	54	0	0	192
NMTAP	54	96	4
NMTAP	54	192	6
NMHLD	54	288	7	672
NMTAP	55	0	3
NMTAP	55	96	4
NMTAP	55	192	5
NMSTR	55	240	5
NMSI_	55	240	5	96	144	1
BXTAP	56	192	0
NMHLD	57	0	5	96
NMTAP	57	96	4
NMTAP	57	192	3
NMTAP	57	192	6
NMTAP	57	240	3
NMTAP	57	240	6
EXHLD	57	336	2	96
NMTAP	58	48	3
NMTAP	58	96	3
NMTAP	58	192	1
NMTAP	58	192	4
NMTAP	58	240	1
NMTAP	58	240	4
NMHLD	58	336	0	96
NMTAP	59	48	7
NMTAP	59	96	7
NMTAP	59	192	0
NMTAP	59	192	6
NMTAP	59	288	1
NMTAP	59	288	5
NMTAP	60	0	2
NMTAP	60	0	4
NMSTR	60	96	2
NMSCL	60	96	2	96	96	7
NMTAP	60	96	4
NMHLD	61	0	6	96
NMHLD	61	0	7	96
NMHLD	61	192	0	96
NMHLD	61	192	1	96
NMHLD	62	0	2	96
NMHLD	62	0	3	96
NMTAP	62	192	4
NMTAP	62	192	5
NMSTR	62	288	4
NMSCR	62	288	4	96	240	3
NMTAP	62	288	5
EXTAP	64	0	0
EXTAP	64	48	0
EXTAP	64	96	7
BRTAP	64	192	1
BRTAP	64	192	6
NMTAP	65	0	1
NMTAP	65	0	7
NMSTR	65	96	2
NMSCL	65	96	2	96	48	0
NMSTR	65	96	6
NMSCL	65	96	6	96	48	4
EXTAP	65	336	1
EXTAP	65	336	5
NMTAP	66	48	2
NMTAP	66	48	6
NMSTR	66	96	2
NMSCL	66	96	2	96	48	0
NMSTR	66	96	6
NMSCL	66	96	6	96	48	4
EXHLD	66	336	1	96
NMTAP	67	48	3
NMTAP	67	96	3
NMTAP	67	192	3
NMTAP	67	192	4
NMTAP	67	288	4
NMTAP	67	288	6
EXTAP	67	336	4
EXTAP	67	336	6
NMTAP	68	48	0
NMTAP	68	48	7
NMTAP	68	96	0
NMTAP	68	96	7
NMTAP	68	192	1
NMTAP	68	192	3
NMTAP	68	288	3
NMTAP	68	288	4
NMTAP	69	0	4
NMTAP	69	0	6
NMSTR	69	96	6
NMSI_	69	96	6	96	48	2
NMSTR	69	96	7
NMSI_	69	96	7	96	48	3
EXTAP	69	336	1
EXTAP	69	336	4
NMTAP	70	48	6
NMTAP	70	48	7
NMSTR	70	96	6
NMSCL	70	96	6	96	48	3
NMSTR	70	96	7
NMSCR	70	96	7	96	48	2
EXTAP	70	336	1
EXTAP	70	336	4
NMTAP	71	48	6
NMHLD	71	96	6	96
NMHLD	71	192	4	96
NMTAP	71	288	3
NMHLD	71	336	3	96
NMTAP	72	48	1
NMTAP	72	96	1
NMTAP	72	192	0
NMTAP	72	192	4
BRTAP	72	240	0
BRTAP	72	240	4
NMTAP	73	0	3
NMTAP	73	0	6
NMSTR	73	96	4
NMSI_	73	96	4	96	48	2
NMSTR	73	96	5
NMSI_	73	96	5	96	48	7
EXTAP	73	336	0
EXTAP	73	336	1
NMTAP	74	48	2
NMTAP	74	48	3
NMSTR	74	96	2
NMSI_	74	96	2	96	48	0
NMSTR	74	96	3
NMSI_	74	96	3	96	48	5
EXHLD	74	336	6	96
NMTAP	75	48	4
NMTAP	75	96	4
NMTAP	75	192	0
NMTAP	75	192	7
NMTAP	75	288	1
NMHLD	75	336	1	96
NMTAP	76	48	3
NMTAP	76	96	3
NMTAP	76	192	4
NMTAP	76	192	6
NMTAP	76	288	4
NMTAP	76	288	6
NMTAP	77	0	5
NMTAP	77	0	7
NMTAP	77	96	2
NMTAP	77	96	3
NMTAP	77	192	0
NMTAP	77	192	2
NMTAP	77	288	4
NMTAP	77	288	5
NMTAP	78	0	5
NMTAP	78	0	7
NMTAP	78	96	2
NMTAP	78	96	3
NMHLD	78	192	1	96
NMHLD	78	192	3	96
NMHLD	79	0	4	96
NMHLD	79	0	6	96
NMHLD	79	192	1	96
NMHLD	79	192	3	96
NMTAP	80	0	2
NMTAP	80	0	3
NMTAP	80	96	4
NMTAP	80	96	5
BRTAP	80	192	2
BRTAP	80	192	7
NMTAP	81	0	1
NMTAP	81	0	7
NMSTR	81	96	2
NMSCR	81	96	2	96	48	4
NMSTR	81	96	6
NMSCR	81	96	6	96	48	0
EXTAP	81	336	3
EXTAP	81	336	7
NMTAP	82	48	2
NMTAP	82	48	6
NMSTR	82	96	2
NMSCR	82	96	2	96	48	4
NMSTR	82	96	6
NMSCR	82	96	6	96	48	0
EXTAP	82	336	2
EXTAP	82	336	7
NMTAP	83	48	1
NMHLD	83	96	1	96
NMHLD	83	192	3	96
NMTAP	83	288	4
NMHLD	83	336	4	96
NMTAP	84	48	6
NMTAP	84	96	6
NMTAP	84	192	3
NMTAP	84	192	5
NMTAP	84	288	2
NMTAP	84	288	3
NMTAP	85	0	0
NMTAP	85	0	1
NMSTR	85	96	0
NMSI_	85	96	0	96	48	4
NMSTR	85	96	1
NMSI_	85	96	1	96	48	5
EXTAP	85	336	2
EXTAP	85	336	7
NMTAP	86	48	0
NMTAP	86	48	1
NMSTR	86	96	0
NMSCL	86	96	0	96	48	5
NMSTR	86	96	1
NMSCR	86	96	1	96	48	4
EXTAP	86	336	3
EXTAP	86	336	6
NMTAP	87	48	4
NMTAP	87	48	5
NMTAP	87	96	4
NMTAP	87	96	5
NMTAP	87	192	6
NMTAP	87	192	7
NMTAP	87	288	0
NMTAP	87	288	1
NMTAP	87	336	0
NMTAP	87	336	1
NMTAP	88	48	2
NMTAP	88	48	3
NMTAP	88	96	2
NMTAP	88	96	3
NMTAP	88	192	0
NMTAP	88	192	5
BRTAP	88	240	0
BRTAP	88	240	5
NMTAP	89	0	4
NMTAP	89	0	5
NMSTR	89	96	6
NMSI_	89	96	6	96	48	4
NMSTR	89	96	7
NMSI_	89	96	7	96	48	1
EXTAP	89	336	3
NMTAP	90	48	4
NMTAP	90	48	5
NMSTR	90	96	4
NMSI_	90	96	4	96	48	2
NMSTR	90	96	5
NMSI_	90	96	5	96	48	7
EXHLD	90	336	1	96
NMTAP	91	48	0
NMTAP	91	96	0
NMTAP	91	192	1
NMTAP	91	192	5
NMTAP	91	288	0
NMTAP	91	288	6
NMTAP	91	336	0
NMTAP	91	336	6
NMTAP	92	48	1
NMTAP	92	48	7
NMTAP	92	96	1
NMTAP	92	96	7
NMTAP	92	192	3
NMTAP	92	192	5
NMTAP	92	288	2
NMTAP	92	288	6
NMSTR	93	0	0
NMSI_	93	0	0	96	48	4
NMSTR	93	0	1
NMSI_	93	0	1	96	48	3
NMSTR	93	192	6
NMSI_	93	192	6	96	48	4
NMSTR	93	192	7
NMSI_	93	192	7	96	48	3
NMSTR	94	0	0
NMSI_	94	0	0	96	48	4
NMSTR	94	0	1
NMSI_	94	0	1	96	48	3
NMSTR	94	192	6
BRSI_	94	192	6	96	48	4
NMSTR	94	192	7
BRSI_	94	192	7	96	48	3
NMTAP	95	0	2
NMTAP	95	48	2
NMTAP	95	96	3
NMTAP	95	144	3
NMTAP	95	192	1
NMTAP	95	240	1
NMTAP	95	288	5
NMTAP	95	336	5
NMTAP	96	0	4
NMTAP	96	48	4
NMTAP	96	96	7
BRTAP	96	192	2
BRTAP	96	192	6
BRTAP	96	240	2
BRTAP	96	240	6

T_REC_TAP	313
T_REC_BRK	18
T_REC_XTP	29
T_REC_BXX	3
T_REC_HLD	57
T_REC_XHO	8
T_REC_BHO	0
T_REC_BXH	0
T_REC_STR	46
T_REC_BST	0
T_REC_XST	0
T_REC_XBS	0
T_REC_TTP	0
T_REC_THO	0
T_REC_SLD	44
T_REC_BSL	2
T_REC_ALL	520
T_NUM_TAP	388
T_NUM_BRK	23
T_NUM_HLD	65
T_NUM_SLD	44
T_NUM_ALL	520
T_JUDGE_TAP	409
T_JUDGE_HLD	236
T_JUDGE_SLD	46
T_JUDGE_ALL	691
TTM_EACHPAIRS	148
TTM_SCR_TAP	194000
TTM_SCR_BRK	59800
TTM_SCR_HLD	65000
TTM_SCR_SLD	66000
TTM_SCR_ALL	384800
TTM_SCR_S	371050
TTM_SCR_SS	382500
TTM_RAT_ACV	10060

