VERSION	0.00.00	1.05.00
FES_MODE	0
BPM_DEF	195.000	195.000	195.000	195.000
MET_DEF	4	4
RESOLUTION	384
CLK_DEF	384
COMPATIBLE_CODE	MA2

BPM	0	0	195.000
MET	0	0	4	4

NMTAP	9	0	1
NMTAP	9	96	1
NMTAP	9	192	1
NMTAP	10	0	2
NMTAP	10	96	2
NMTAP	10	192	2
NMTAP	11	0	3
NMTAP	11	96	3
NMTAP	11	192	3
NMTAP	12	0	4
NMTAP	12	0	5
NMTAP	12	192	4
NMTAP	12	192	5
NMTAP	13	0	6
NMTAP	13	96	6
NMTAP	13	192	6
NMTAP	14	0	5
NMTAP	14	96	5
NMTAP	14	192	5
NMTAP	15	0	4
NMTAP	15	96	4
NMTAP	15	192	4
NMTAP	16	0	2
NMTAP	16	0	3
NMTAP	16	192	2
NMTAP	16	192	3
NMTAP	17	0	2
NMTAP	17	96	2
NMTAP	17	192	2
NMTAP	18	0	1
NMTAP	18	96	1
NMTAP	18	192	1
NMTAP	19	0	0
NMTAP	19	96	0
NMTAP	19	192	0
NMTAP	20	0	6
NMTAP	20	0	7
NMTAP	20	192	6
NMTAP	20	192	7
NMTAP	21	0	5
NMTAP	21	96	5
NMTAP	21	192	5
NMTAP	22	0	6
NMTAP	22	96	6
NMTAP	22	192	6
NMTAP	23	0	7
NMTAP	23	96	7
NMTAP	23	192	7
NMTAP	24	0	0
NMTAP	24	0	1
NMTAP	24	192	0
NMTAP	24	192	1
NMSTR	25	0	2
NMSI_	25	0	2	96	192	5
NMSTR	26	0	6
NMSI_	26	0	6	96	192	3
NMSTR	27	0	1
NMSI_	27	0	1	96	192	5
NMTAP	28	0	6
NMTAP	28	192	6
NMTAP	28	192	7
NMSTR	29	0	5
NMSI_	29	0	5	96	192	2
NMSTR	30	0	1
NMSI_	30	0	1	96	192	4
NMSTR	31	0	6
NMSI_	31	0	6	96	192	2
NMTAP	32	0	1
NMTAP	32	192	0
NMTAP	32	192	7
NMTAP	33	0	7
NMTAP	33	96	7
NMTAP	33	192	6
NMTAP	34	0	5
NMTAP	34	96	5
NMTAP	34	192	4
NMTAP	35	0	3
NMTAP	35	96	3
NMTAP	35	192	2
NMTAP	36	0	1
NMTAP	36	96	1
NMTAP	36	192	0
NMTAP	36	192	1
NMTAP	37	0	0
NMTAP	37	96	0
NMTAP	37	192	1
NMTAP	38	0	2
NMTAP	38	96	2
NMTAP	38	192	3
NMTAP	39	0	4
NMTAP	39	96	4
NMTAP	39	192	5
NMTAP	40	0	6
NMTAP	40	96	6
NMTAP	40	192	6
NMTAP	40	192	7
NMHLD	41	0	5	192
NMHLD	41	192	4	192
NMHLD	42	0	3	192
NMTAP	42	192	2
NMHLD	43	0	2	192
NMHLD	43	192	3	192
NMHLD	44	0	4	192
NMTAP	44	192	5
NMHLD	45	0	6	192
NMHLD	45	192	5	192
NMHLD	46	0	4	192
NMTAP	46	192	3
NMHLD	47	0	1	192
NMHLD	47	192	2	192
NMHLD	48	0	3	192
NMTAP	48	192	4
NMTAP	49	0	2
NMTAP	49	96	2
NMTAP	49	192	2
NMTAP	49	192	3
NMTAP	50	0	1
NMTAP	50	96	1
NMTAP	50	192	0
NMTAP	50	192	1
NMTAP	51	0	7
NMTAP	51	96	7
NMTAP	51	192	6
NMTAP	51	192	7
NMTAP	52	0	4
NMTAP	52	0	5
NMTAP	52	96	4
NMTAP	52	96	5
NMTAP	52	192	4
NMTAP	52	192	5
NMTAP	53	0	5
NMTAP	53	96	5
NMTAP	53	192	4
NMTAP	53	192	5
NMTAP	54	0	6
NMTAP	54	96	6
NMTAP	54	192	6
NMTAP	54	192	7
NMTAP	55	0	0
NMTAP	55	96	0
NMTAP	55	192	0
NMTAP	55	192	1
NMTAP	56	0	2
NMTAP	56	0	3
NMTAP	56	96	2
NMTAP	56	96	3
NMTAP	56	192	2
NMTAP	56	192	3
NMTTP	57	0	1	B	0	L1
NMTTP	57	96	2	B	0	L1
NMTTP	57	192	3	B	0	L1
NMTTP	58	0	6	B	0	L1
NMTTP	58	96	5	B	0	L1
NMTTP	58	192	4	B	0	L1
NMTTP	59	0	1	B	0	L1
NMTTP	59	96	2	B	0	L1
NMTTP	59	192	3	B	0	L1
NMTTP	59	288	4	B	0	L1
NMTTP	60	0	5	B	0	L1
NMTTP	60	96	6	B	0	L1
NMTTP	60	192	0	C	0	L1
NMTTP	61	0	7	B	0	L1
NMTTP	61	96	6	B	0	L1
NMTTP	61	192	4	B	0	L1
NMTTP	61	192	5	B	0	L1
NMTTP	62	0	0	B	0	L1
NMTTP	62	96	1	B	0	L1
NMTTP	62	192	2	B	0	L1
NMTTP	62	192	3	B	0	L1
NMTTP	63	0	6	B	0	L1
NMTTP	63	96	5	B	0	L1
NMTTP	63	192	4	B	0	L1
NMTTP	63	288	3	B	0	L1
NMTTP	64	0	0	C	1	L1
NMTAP	65	0	6
NMTAP	65	96	6
NMTAP	65	192	7
NMTAP	65	288	7
NMTAP	66	0	0
NMTAP	66	96	0
NMTAP	66	192	0
NMTAP	66	192	1
NMTAP	67	0	2
NMTAP	67	96	2
NMTAP	67	192	1
NMTAP	67	288	1
NMTAP	68	0	0
NMTAP	68	96	0
NMTAP	68	192	6
NMTAP	68	192	7
NMTAP	69	0	6
NMTAP	69	96	6
NMTAP	69	192	5
NMTAP	69	288	5
NMTAP	70	0	4
NMTAP	70	96	4
NMTAP	70	192	2
NMTAP	70	192	3
NMTAP	71	0	1
NMTAP	71	96	1
NMTAP	71	192	2
NMTAP	71	288	2
NMTAP	72	0	3
NMTAP	72	96	3
NMTAP	72	192	4
NMTAP	72	192	5
NMTAP	73	0	5
NMTAP	73	96	5
NMTAP	73	192	6
NMTAP	73	192	7
NMTAP	73	288	6
NMTAP	73	288	7
NMTAP	74	0	0
NMTAP	74	96	0
NMTAP	74	192	0
NMTAP	74	192	1
NMTAP	75	0	2
NMTAP	75	96	2
NMTAP	75	192	0
NMTAP	75	192	1
NMTAP	75	288	0
NMTAP	75	288	1
NMTAP	76	0	7
NMTAP	76	96	7
NMTAP	76	192	6
NMTAP	76	192	7
NMTAP	77	0	6
NMTAP	77	96	6
NMTAP	77	192	4
NMTAP	77	192	5
NMTAP	77	288	4
NMTAP	77	288	5
NMTAP	78	0	3
NMTAP	78	96	3
NMTAP	78	192	2
NMTAP	78	192	3
NMTAP	79	0	1
NMTAP	79	96	1
NMTAP	79	192	2
NMTAP	79	192	3
NMTAP	79	288	2
NMTAP	79	288	3
NMTAP	80	0	4
NMTAP	80	96	4
BXTAP	80	192	4
BXTAP	80	192	5
NMTAP	81	0	6
NMTAP	81	96	6
NMTAP	81	192	6
NMTAP	81	288	6
NMTAP	81	288	7
NMTAP	82	0	5
NMTAP	82	96	5
NMTAP	82	192	5
NMTAP	82	288	4
NMTAP	82	288	5
NMTAP	83	0	3
NMTAP	83	96	3
NMTAP	83	192	3
NMTAP	83	288	2
NMTAP	83	288	3
NMTAP	84	0	0
NMTAP	84	0	1
NMTAP	84	96	0
NMTAP	84	96	1
NMTAP	84	192	0
NMTAP	84	192	1
NMTAP	85	0	1
NMTAP	85	96	1
NMTAP	85	192	1
NMTAP	85	288	0
NMTAP	85	288	1
NMTAP	86	0	2
NMTAP	86	96	2
NMTAP	86	192	2
NMTAP	86	288	2
NMTAP	86	288	3
NMTAP	87	0	4
NMTAP	87	96	4
NMTAP	87	192	4
NMTAP	87	288	4
NMTAP	87	288	5
NMTAP	88	0	6
NMTAP	88	0	7
NMTAP	88	96	6
NMTAP	88	96	7
NMTAP	88	192	6
NMTAP	88	192	7
NMTAP	89	0	7
NMTAP	89	96	6
NMTAP	89	192	5
NMTAP	89	288	4
NMTAP	90	0	3
NMTAP	90	96	2
NMTAP	90	192	0
NMTAP	90	192	1
NMTAP	91	0	0
NMTAP	91	96	1
NMTAP	91	192	2
NMTAP	91	288	3
NMTAP	92	0	4
NMTAP	92	96	5
NMTAP	92	192	6
NMTAP	92	192	7
NMTAP	93	0	7
NMTAP	93	96	6
NMTAP	93	192	5
NMTAP	93	288	4
NMTAP	94	0	3
NMTAP	94	96	2
NMTAP	94	192	1
NMTAP	94	288	0
NMTAP	95	0	7
NMTAP	95	96	6
NMTAP	95	192	5
NMTAP	95	288	4
NMTAP	96	0	3
NMTAP	96	0	4
NMTAP	96	96	3
NMTAP	96	96	4
BRTAP	96	192	2
BRTAP	96	192	5

T_REC_TAP	268
T_REC_BRK	2
T_REC_XTP	0
T_REC_BXX	2
T_REC_HLD	12
T_REC_XHO	0
T_REC_BHO	0
T_REC_BXH	0
T_REC_STR	6
T_REC_BST	0
T_REC_XST	0
T_REC_XBS	0
T_REC_TTP	26
T_REC_THO	0
T_REC_SLD	6
T_REC_BSL	0
T_REC_ALL	322
T_NUM_TAP	300
T_NUM_BRK	4
T_NUM_HLD	12
T_NUM_SLD	6
T_NUM_ALL	322
T_JUDGE_TAP	304
T_JUDGE_HLD	48
T_JUDGE_SLD	6
T_JUDGE_ALL	358
TTM_EACHPAIRS	57
TTM_SCR_TAP	150000
TTM_SCR_BRK	10400
TTM_SCR_HLD	12000
TTM_SCR_SLD	9000
TTM_SCR_ALL	181400
TTM_SCR_S	175600
TTM_SCR_SS	181000
TTM_RAT_ACV	10022

