VERSION	0.00.00	1.04.00
FES_MODE	0
BPM_DEF	195.000	195.000	195.000	195.000
MET_DEF	4	4
RESOLUTION	384
CLK_DEF	384
COMPATIBLE_CODE	MA2

BPM	0	0	195.000
MET	0	0	4	4

NMTAP	9	0	0
NMTAP	9	192	0
NMTAP	10	0	1
NMTAP	10	192	1
NMTAP	11	0	2
NMTAP	11	192	2
NMTAP	12	0	2
NMTAP	12	0	3
NMTAP	13	0	4
NMTAP	13	192	4
NMTAP	14	0	5
NMTAP	14	192	5
NMTAP	15	0	6
NMTAP	15	192	6
NMTAP	16	0	6
NMTAP	16	0	7
NMTAP	17	0	7
NMTAP	17	192	7
NMTAP	18	0	6
NMTAP	18	192	6
NMTAP	19	0	5
NMTAP	19	192	5
NMTAP	20	0	4
NMTAP	20	0	5
NMTAP	21	0	3
NMTAP	21	192	3
NMTAP	22	0	2
NMTAP	22	192	2
NMTAP	23	0	1
NMTAP	23	192	1
NMTAP	24	0	0
NMTAP	24	0	1
NMHLD	25	0	0	384
NMHLD	25	0	1	384
NMHLD	27	0	2	384
NMHLD	27	0	3	384
NMHLD	29	0	4	384
NMHLD	29	0	5	384
NMHLD	31	0	6	384
NMHLD	31	0	7	384
NMTAP	33	0	6
NMTAP	33	192	6
NMTAP	34	0	6
NMTAP	34	0	7
NMTAP	35	0	5
NMTAP	35	192	5
NMTAP	36	0	3
NMTAP	36	0	4
NMTAP	37	0	2
NMTAP	37	192	2
NMTAP	38	0	2
NMTAP	38	0	3
NMTAP	39	0	1
NMTAP	39	192	1
NMTAP	40	0	0
NMTAP	40	0	7
NMTAP	41	0	0
NMTAP	41	96	0
NMTAP	41	192	0
NMTAP	42	0	1
NMTAP	42	192	1
NMTAP	43	0	2
NMTAP	43	96	2
NMTAP	43	192	2
NMTAP	44	0	2
NMTAP	44	0	3
NMTAP	45	0	4
NMTAP	45	96	4
NMTAP	45	192	4
NMTAP	46	0	5
NMTAP	46	192	5
NMTAP	47	0	6
NMTAP	47	96	6
NMTAP	47	192	6
NMTAP	48	0	6
NMTAP	48	0	7
NMSTR	49	0	5
NMSI_	49	0	5	96	288	2
NMSTR	51	0	1
NMSI_	51	0	1	96	288	4
NMSTR	53	0	6
NMSI_	53	0	6	96	288	3
NMSTR	55	0	1
NMSI_	55	0	1	96	288	5
NMTTP	57	0	7	B	0	L1
NMTTP	58	0	0	B	0	L1
NMTTP	59	0	6	B	0	L1
NMTTP	60	0	1	B	0	L1
NMTTP	61	0	5	B	0	L1
NMTTP	62	0	2	B	0	L1
NMTHO	63	0	0	384	C	0	L1
BRTAP	65	0	0
NMTAP	65	96	0
NMTAP	65	192	0
NMTAP	66	0	1
NMTAP	66	96	1
NMTAP	66	192	1
NMTAP	67	0	2
NMTAP	67	96	2
NMTAP	67	192	2
NMTAP	68	0	2
NMTAP	68	0	3
NMTAP	68	192	2
NMTAP	68	192	3
NMTAP	69	0	4
NMTAP	69	96	4
NMTAP	69	192	4
NMTAP	70	0	5
NMTAP	70	96	5
NMTAP	70	192	5
NMTAP	71	0	6
NMTAP	71	96	6
NMTAP	71	192	6
NMTAP	72	0	6
NMTAP	72	0	7
NMTAP	72	192	6
NMTAP	72	192	7
NMTAP	73	0	7
NMTAP	73	96	7
NMTAP	73	192	7
NMTAP	74	0	6
NMTAP	74	96	6
NMTAP	74	192	6
NMTAP	75	0	5
NMTAP	75	96	5
NMTAP	75	192	5
NMTAP	76	0	4
NMTAP	76	0	5
NMTAP	76	192	4
NMTAP	76	192	5
NMTAP	77	0	3
NMTAP	77	96	3
NMTAP	77	192	3
NMTAP	78	0	2
NMTAP	78	96	2
NMTAP	78	192	2
NMTAP	79	0	1
NMTAP	79	96	1
NMTAP	79	192	1
NMTAP	80	0	0
NMTAP	80	0	1
NMTAP	80	192	0
NMTAP	80	192	1
BRTAP	81	0	0
NMTAP	81	96	0
NMTAP	81	192	0
NMTAP	82	0	1
NMTAP	82	96	1
NMTAP	82	192	0
NMTAP	82	192	1
NMTAP	83	0	2
NMTAP	83	96	2
NMTAP	83	192	2
NMTAP	84	0	3
NMTAP	84	96	3
NMTAP	84	192	3
NMTAP	84	192	4
NMTAP	85	0	4
NMTAP	85	96	4
NMTAP	85	192	4
NMTAP	86	0	5
NMTAP	86	96	5
NMTAP	86	192	4
NMTAP	86	192	5
NMTAP	87	0	6
NMTAP	87	96	6
NMTAP	87	192	6
NMTAP	88	0	7
NMTAP	88	96	7
NMTAP	88	192	0
NMTAP	88	192	7
NMTAP	89	0	7
NMTAP	89	96	7
NMTAP	89	192	7
NMTAP	90	0	6
NMTAP	90	96	6
NMTAP	90	192	6
NMTAP	90	192	7
NMTAP	91	0	5
NMTAP	91	96	5
NMTAP	91	192	5
NMTAP	92	0	4
NMTAP	92	96	4
NMTAP	92	192	3
NMTAP	92	192	4
NMTAP	93	0	3
NMTAP	93	96	3
NMTAP	93	192	3
NMTAP	94	0	2
NMTAP	94	96	2
NMTAP	94	192	2
NMTAP	94	192	3
NMTAP	95	0	1
NMTAP	95	96	1
NMTAP	95	192	1
NMTAP	96	0	0
NMTAP	96	96	0
BRTAP	96	192	0
BRTAP	96	192	7

T_REC_TAP	172
T_REC_BRK	4
T_REC_XTP	0
T_REC_BXX	0
T_REC_HLD	8
T_REC_XHO	0
T_REC_BHO	0
T_REC_BXH	0
T_REC_STR	4
T_REC_BST	0
T_REC_XST	0
T_REC_XBS	0
T_REC_TTP	6
T_REC_THO	1
T_REC_SLD	4
T_REC_BSL	0
T_REC_ALL	199
T_NUM_TAP	182
T_NUM_BRK	4
T_NUM_HLD	9
T_NUM_SLD	4
T_NUM_ALL	199
T_JUDGE_TAP	186
T_JUDGE_HLD	72
T_JUDGE_SLD	4
T_JUDGE_ALL	262
TTM_EACHPAIRS	30
TTM_SCR_TAP	91000
TTM_SCR_BRK	10400
TTM_SCR_HLD	9000
TTM_SCR_SLD	6000
TTM_SCR_ALL	116400
TTM_SCR_S	112550
TTM_SCR_SS	116000
TTM_RAT_ACV	10034

