VERSION	0.00.00	1.04.00
FES_MODE	0
BPM_DEF	150.000	150.000	150.000	150.000
MET_DEF	4	4
RESOLUTION	384
CLK_DEF	384
COMPATIBLE_CODE	MA2

BPM	0	0	150.000
MET	0	0	4	4

NMHLD	1	0	3	96
NMHLD	1	0	4	96
NMTAP	1	192	3
NMTAP	1	192	4
NMTAP	1	288	2
NMTAP	1	288	4
NMTAP	2	0	1
NMTAP	2	24	3
NMTAP	2	48	2
NMTAP	2	96	5
NMTAP	2	144	3
NMTAP	2	192	6
NMTAP	2	216	4
NMTAP	2	240	5
NMTAP	2	288	2
NMTAP	2	336	4
NMHLD	3	0	2	96
NMHLD	3	0	4	96
NMTAP	3	144	3
NMTAP	3	168	4
NMSTR	3	192	3
NMSLL	3	192	3	96	240	7
NMSLR	3	192	3	96	240	7
CNSI_	4	144	7	0	144	2
CNSI_	4	144	7	0	144	4
NMTAP	5	48	1
NMTAP	5	96	2
NMTAP	5	144	3
NMTAP	5	192	2
NMTAP	5	240	3
NMTAP	5	288	4
NMHLD	5	336	5	96
NMTAP	6	48	3
NMTAP	6	96	4
NMTAP	6	144	5
NMTAP	6	192	6
NMTAP	6	240	7
NMTAP	6	288	0
NMTAP	6	336	1
NMHLD	7	0	2	96
NMHLD	7	0	6	96
NMTAP	7	144	6
NMTAP	7	168	3
NMHLD	7	192	6	96
NMTAP	7	336	2
NMTAP	7	360	4
NMHLD	8	0	2	96
NMTAP	8	144	5
NMTAP	8	168	4
NMHLD	8	192	5	96
NMTAP	8	336	3
NMTAP	8	336	5
NMTAP	9	48	5
NMTAP	9	96	5
NMTAP	9	144	5
NMTAP	9	192	5
NMTAP	9	240	4
NMTAP	9	288	3
NMHLD	9	336	2	96
NMTAP	10	48	4
NMTAP	10	96	3
NMTAP	10	144	2
NMTAP	10	192	3
NMTAP	10	240	2
NMTAP	10	288	1
NMTAP	10	336	0
NMSTR	11	0	0
NMSI_	11	0	0	96	48	5
NMSTR	11	0	7
NMSI_	11	0	7	96	48	5
NMSTR	11	192	1
NMSI_	11	192	1	96	48	5
NMSTR	11	192	7
NMSI_	11	192	7	96	48	5
NMSTR	12	0	2
NMSI_	12	0	2	96	48	5
NMSTR	12	0	7
NMSI_	12	0	7	96	48	5
NMSTR	12	192	3
NMSI_	12	192	3	96	48	5
NMSTR	12	192	7
NMSI_	12	192	7	96	48	5
NMHLD	13	0	2	336
NMTAP	13	48	3
NMTAP	13	96	3
NMTAP	13	144	3
NMTAP	13	192	4
NMTAP	13	240	4
NMTAP	13	288	4
NMHLD	13	336	4	336
NMTAP	14	48	5
NMTAP	14	96	5
NMTAP	14	144	5
NMTAP	14	192	6
NMTAP	14	240	6
NMSTR	14	288	6
NMSI_	14	288	6	96	48	0
NMSTR	15	96	1
NMSV_	15	96	1	96	48	3
NMSTR	15	96	5
NMSV_	15	96	5	96	48	3
NMTTP	15	288	2	A	0	M1
NMTTP	15	304	3	D	0	M1
NMTTP	15	320	3	A	0	M1
NMTTP	15	336	4	D	0	M1
NMTTP	15	352	4	A	0	M1
NMTTP	15	368	5	D	0	M1
NMTTP	16	0	5	A	0	M1
NMSTR	16	96	1
NMSI_	16	96	1	96	96	5
NMSTR	16	96	6
NMSI_	16	96	6	96	96	2
NMSTR	17	0	1
NMSI_	17	0	1	96	48	3
NMSTR	17	96	7
NMSI_	17	96	7	96	48	5
NMSTR	17	192	0
NMSI_	17	192	0	96	48	4
NMTAP	17	288	5
NMSTR	18	0	6
NMSI_	18	0	6	96	48	4
NMSTR	18	96	0
NMSI_	18	96	0	96	48	2
NMSTR	18	192	7
NMSI_	18	192	7	96	48	3
NMTAP	18	288	2
NMHLD	19	0	3	96
NMHLD	19	0	4	96
NMTAP	19	144	3
NMTAP	19	168	4
NMTAP	19	192	3
NMTAP	19	240	2
NMTAP	19	240	5
NMTAP	19	288	2
NMTAP	19	288	5
BRTAP	20	0	0
BRTAP	20	0	7
NMTAP	20	96	1
NMTAP	20	192	2
NMTAP	20	288	3
NMHLD	21	0	3	192
NMSTR	21	0	5
NMSCL	21	0	5	96	96	2
NMTAP	21	336	1
NMTAP	21	360	0
NMSTR	22	0	2
NMSI_	22	0	2	96	48	4
NMSTR	22	192	5
NMSI_	22	192	5	96	48	3
NMHLD	23	0	2	96
NMHLD	23	0	4	96
NMTAP	23	192	1
NMTAP	23	192	5
NMSTR	23	288	0
NMSUR	23	288	0	96	288	3
NMSTR	23	288	7
NMSUL	23	288	7	96	288	4
NMHLD	25	0	2	192
NMHLD	25	192	4	192
NMHLD	26	0	6	192
NMTAP	26	192	7
NMTAP	26	240	7
NMTAP	26	288	0
NMSTR	26	288	7
NMSI_	26	288	7	96	288	3
NMHLD	27	0	1	288
NMTTP	28	0	0	B	0	M1
NMTTP	28	0	0	C	1	M1
NMTTP	28	0	0	A	0	M1
NMTTP	28	0	4	B	0	M1
NMTTP	28	0	4	A	0	M1
EXSTR	28	288	0
NMSCR	28	288	0	96	96	2
NMSTR	29	0	2
NMSCR	29	0	2	96	96	4
NMSTR	29	96	4
NMSCR	29	96	4	96	96	6
NMSTR	29	192	6
NMSCR	29	192	6	96	96	1
NMSTR	29	288	1
NMSCR	29	288	1	96	96	4
NMSTR	30	0	4
NMSI_	30	0	4	96	96	7
NMSUL	30	0	4	96	96	7
CNSLL	30	192	7	0	96	3
CNSLR	30	192	7	0	96	3
NMTAP	31	0	2
NMTAP	31	0	4
NMTAP	31	48	1
NMTAP	31	72	3
NMTAP	31	96	2
NMTAP	31	144	6
NMTAP	31	168	4
NMTAP	31	192	5
NMTAP	31	240	2
NMTAP	31	264	3
NMTAP	31	288	2
NMTAP	31	336	5
NMTAP	31	360	4
NMTAP	32	0	6
NMTAP	32	24	4
NMTAP	32	48	5
NMTAP	32	72	3
NMTAP	32	96	4
NMTAP	32	120	2
NMTAP	32	144	3
NMTAP	32	192	1
NMTAP	32	192	3
NMSTR	32	288	0
NMSCR	32	288	0	96	48	3
NMSTR	32	288	4
NMSCR	32	288	4	96	48	7
NMSTR	33	96	0
NMSUL	33	96	0	96	48	4
NMSTR	33	96	4
NMSUL	33	96	4	96	48	0
NMSTR	33	288	0
NMSCR	33	288	0	96	48	3
NMSTR	33	288	4
NMSCR	33	288	4	96	48	7
NMSTR	34	96	0
NMSUL	34	96	0	96	48	4
NMSTR	34	96	4
NMSUL	34	96	4	96	48	0
EXSTR	34	192	0
NMSCR	34	192	0	96	48	3
EXSTR	34	192	4
NMSCR	34	192	4	96	48	7
EXHLD	35	0	7	336
NMTAP	35	48	5
NMTAP	35	96	5
NMTAP	35	144	5
NMTAP	35	192	5
NMTAP	35	240	5
NMTAP	35	288	5
NMTAP	35	336	5
NMHLD	36	48	0	144
NMTAP	36	96	2
NMTAP	36	144	2
NMTAP	36	192	2
NMSTR	36	288	1
NMSV_	36	288	1	96	48	4
NMSTR	36	288	7
NMSV_	36	288	7	96	48	4
NMSTR	37	96	5
NMSI_	37	96	5	96	48	7
NMSTR	37	192	3
NMSI_	37	192	3	96	48	1
CNSI_	37	240	7	0	48	3
NMTAP	38	0	0
NMTAP	38	48	0
NMTAP	38	96	2
NMTAP	38	144	2
NMTAP	38	192	5
NMTAP	38	240	5
NMTAP	38	288	7
NMTAP	38	336	7
NMHLD	39	0	0	72
NMTAP	39	0	7
NMHLD	39	72	1	72
NMTAP	39	144	2
NMHLD	39	192	7	72
NMHLD	39	264	6	72
NMTAP	39	336	5
NMHLD	40	0	4	72
NMHLD	40	72	3	72
NMTAP	40	144	2
NMTAP	40	192	1
NMTAP	40	240	0
NMTAP	40	288	6
NMTAP	40	336	7
NMSTR	41	0	0
NMSI_	41	0	0	96	48	2
NMSTR	41	0	7
NMSI_	41	0	7	96	48	5
NMSTR	41	192	3
NMSI_	41	192	3	96	48	0
NMSTR	41	192	4
NMSI_	41	192	4	96	48	7
NMTAP	42	0	0
NMTAP	42	48	1
NMTAP	42	96	2
NMTAP	42	96	3
NMTAP	42	192	7
NMTAP	42	240	6
NMTAP	42	288	4
NMTAP	42	288	5
NMTTP	43	0	3	B	0	M1
NMTTP	43	24	2	B	0	M1
NMTTP	43	48	1	B	0	M1
NMTTP	43	72	0	B	0	M1
NMTTP	43	96	4	B	0	M1
NMTTP	43	120	5	B	0	M1
NMTTP	43	144	6	B	0	M1
NMTTP	43	168	7	B	0	M1
NMTTP	43	192	3	A	0	M1
NMTTP	43	216	2	A	0	M1
NMTTP	43	240	1	A	0	M1
NMTTP	43	264	0	A	0	M1
NMTTP	43	288	4	A	0	M1
NMTTP	43	312	5	A	0	M1
NMTTP	43	336	6	A	0	M1
NMTTP	43	360	7	A	0	M1
NMTTP	44	0	0	C	1	M1
NMTAP	44	96	7
NMTAP	44	192	2
NMTAP	44	192	6
NMTAP	44	288	1
NMTAP	44	288	5
NMTAP	45	0	0
NMHLD	45	0	5	192
NMTTP	45	48	0	E	0	M1
NMTTP	45	72	7	E	0	M1
NMTTP	45	96	6	E	0	M1
NMTTP	45	120	5	E	0	M1
NMTTP	45	144	4	E	0	M1
NMHLD	45	192	1	192
NMTTP	45	240	0	E	0	M1
NMTTP	45	264	1	E	0	M1
NMTTP	45	288	2	E	0	M1
NMTTP	45	312	3	E	0	M1
NMTTP	45	336	4	E	0	M1
NMHLD	46	0	6	192
NMTTP	46	48	7	E	0	M1
NMTTP	46	72	6	E	0	M1
NMTTP	46	96	5	E	0	M1
NMTTP	46	120	4	E	0	M1
NMTTP	46	144	3	E	0	M1
NMHLD	46	192	0	192
NMTTP	46	240	1	E	0	M1
NMTTP	46	264	2	E	0	M1
NMTTP	46	288	3	E	0	M1
NMTTP	46	312	4	E	0	M1
NMTTP	46	336	5	E	0	M1
NMHLD	47	0	7	192
NMTTP	47	48	6	E	0	M1
NMTTP	47	72	5	E	0	M1
NMTTP	47	96	4	E	0	M1
NMTTP	47	120	3	E	0	M1
NMTTP	47	144	2	E	0	M1
NMTAP	47	192	0
NMSTR	47	288	1
NMSCL	47	288	1	96	192	4
NMSTR	47	288	6
NMSCR	47	288	6	96	192	3
NMTAP	48	288	3
NMTAP	48	288	4
NMTTP	49	0	0	C	0	M1
NMTTP	49	0	6	B	0	M1
NMTTP	49	0	6	A	0	M1
NMTTP	49	0	7	B	0	M1
NMTTP	49	0	7	E	1	M1
NMTTP	49	0	7	A	0	M1
NMTTP	49	144	0	C	0	M1
NMTTP	49	144	2	B	0	M1
NMTTP	49	144	2	A	0	M1
NMTTP	49	144	3	B	0	M1
NMTTP	49	144	3	E	1	M1
NMTTP	49	144	3	A	0	M1
NMTTP	49	288	0	C	0	M1
NMTTP	49	288	4	B	0	M1
NMTTP	49	288	4	A	0	M1
NMTTP	49	288	5	B	0	M1
NMTTP	49	288	5	E	1	M1
NMTTP	49	288	5	A	0	M1
NMTTP	50	48	0	B	0	M1
NMTTP	50	48	0	C	0	M1
NMTTP	50	48	0	A	0	M1
NMTTP	50	48	1	B	0	M1
NMTTP	50	48	1	E	1	M1
NMTTP	50	48	1	A	0	M1
NMTAP	50	192	4
NMTAP	50	192	5
NMTAP	50	288	2
NMHLD	50	288	3	96
NMTAP	51	0	0
NMHLD	51	96	1	96
NMTAP	51	96	2
NMTAP	51	192	7
NMHLD	51	288	4	96
NMTAP	51	288	5
NMTAP	52	0	7
NMTAP	52	96	5
NMHLD	52	96	6	96
NMTAP	52	192	0
NMHLD	52	288	2	96
NMTAP	52	288	3
NMTAP	53	0	7
NMTAP	53	96	4
NMHLD	53	96	5	96
NMTAP	53	192	0
NMTAP	53	288	2
NMSTR	53	288	3
NMSF_	53	288	3	96	96	7
BRTAP	54	192	0
BRTAP	54	192	6
NMTAP	55	0	4
NMSTR	55	0	5
NMSI_	55	0	5	96	48	0
NMTAP	55	48	6
NMTAP	55	96	4
NMTAP	55	96	5
NMTAP	55	144	3
NMTAP	55	192	4
NMSTR	55	192	5
NMSI_	55	192	5	96	48	0
NMTAP	55	240	6
NMTAP	55	288	4
NMTAP	55	288	5
NMTAP	55	336	3
NMTAP	56	0	4
NMSTR	56	0	5
NMSI_	56	0	5	96	48	0
NMTAP	56	48	6
NMTAP	56	96	4
NMTAP	56	96	5
NMTAP	56	144	3
NMSTR	56	192	3
NMSCL	56	192	3	96	144	4
NMTAP	56	192	5
NMTAP	56	288	4
NMSTR	56	336	4
NMSUR	56	336	4	96	96	2
NMTAP	57	48	3
NMTAP	57	96	3
NMSTR	57	192	4
BRSCR	57	192	4	96	144	3
NMTAP	57	288	3
NMSTR	57	336	3
BRSUL	57	336	3	96	96	5
NMTAP	58	48	4
NMTAP	58	96	4
NMSTR	58	192	6
NMSI_	58	192	6	96	48	2
NMSTR	58	192	7
NMSI_	58	192	7	96	48	3
BRTAP	58	288	6
BRTAP	58	288	7
NMSTR	59	0	1
NMSUL	59	0	1	96	48	5
NMSTR	59	0	2
NMSI_	59	0	2	96	48	5
NMSTR	59	192	5
NMSUL	59	192	5	96	48	1
NMSTR	59	192	6
NMSI_	59	192	6	96	48	1
NMSTR	60	0	0
NMSI_	60	0	0	96	48	3
NMSCL	60	0	0	96	48	5
NMTAP	60	192	2
NMSTR	60	192	4
NMSCR	60	192	4	96	144	3
NMTAP	60	288	3
NMSTR	60	336	3
NMSUL	60	336	3	96	96	5
NMTAP	61	48	4
NMTAP	61	96	4
NMSTR	61	192	3
BRSCL	61	192	3	96	144	4
NMTAP	61	288	4
NMSTR	61	336	4
BRSUR	61	336	4	96	96	2
NMTAP	62	48	3
NMTAP	62	96	3
NMSTR	62	192	0
NMSI_	62	192	0	96	48	4
NMSTR	62	192	1
NMSI_	62	192	1	96	48	5
BRTAP	62	288	0
BRTAP	62	288	1
NMSTR	63	0	2
NMSV_	63	0	2	96	48	4
NMSTR	63	0	6
NMSCR	63	0	6	96	48	2
NMSTR	63	192	1
NMSCL	63	192	1	96	48	5
NMSTR	63	192	5
NMSV_	63	192	5	96	48	3
NMSTR	64	0	2
NMSV_	64	0	2	96	48	4
NMSTR	64	0	6
NMSCR	64	0	6	96	48	2
NMSTR	64	192	3
NMSCL	64	192	3	96	144	4
NMTAP	64	288	4
NMSTR	64	336	4
NMSUR	64	336	4	96	96	2
NMTAP	65	48	3
NMTAP	65	96	3
NMSTR	65	192	4
BRSCR	65	192	4	96	144	3
NMTAP	65	288	3
NMSTR	65	336	3
BRSUL	65	336	3	96	96	5
NMTAP	66	48	4
NMTAP	66	96	4
NMSTR	66	192	2
NMSI_	66	192	2	96	48	7
NMSTR	66	192	4
NMSI_	66	192	4	96	48	7
BRTAP	66	288	2
BRTAP	66	288	4
NMSTR	67	0	6
NMSLR	67	0	6	96	96	4
NMSTR	67	96	4
NMSI_	67	96	4	96	48	2
NMTAP	67	192	1
NMTAP	67	288	1
NMSTR	68	0	0
NMSI_	68	0	0	96	48	3
NMSI_	68	0	0	96	48	5
NMTAP	68	96	0
NMSTR	68	192	2
NMSCL	68	192	2	96	144	5
NMTAP	68	288	5
NMSTR	68	336	5
NMSUR	68	336	5	96	96	2
NMTAP	69	48	4
NMTAP	69	96	4
NMTAP	69	192	3
NMTAP	69	192	4
NMHLD	69	288	1	96
NMHLD	69	288	6	96
NMTAP	70	48	3
NMTAP	70	72	4
NMTAP	70	96	2
NMTAP	70	120	3
NMTAP	70	144	1
NMTAP	70	168	4
NMTAP	70	192	0
NMTAP	70	216	5
NMTAP	70	240	7
NMTAP	70	264	6
NMTTP	70	288	0	E	0	M1
NMTTP	70	300	1	E	0	M1
NMTTP	70	312	2	E	0	M1
NMTTP	70	324	3	E	0	M1
NMTTP	70	336	4	E	0	M1
NMTTP	70	348	5	E	0	M1
NMTTP	70	360	6	E	0	M1
NMTTP	70	372	7	E	0	M1
NMTTP	71	0	0	C	1	M1
NMTTP	71	0	0	E	0	M1

T_REC_TAP	213
T_REC_BRK	10
T_REC_XTP	0
T_REC_BXX	0
T_REC_HLD	42
T_REC_XHO	1
T_REC_BHO	0
T_REC_BXH	0
T_REC_STR	87
T_REC_BST	0
T_REC_XST	3
T_REC_XBS	0
T_REC_TTP	88
T_REC_THO	0
T_REC_SLD	88
T_REC_BSL	6
T_REC_ALL	538
T_NUM_TAP	391
T_NUM_BRK	16
T_NUM_HLD	43
T_NUM_SLD	88
T_NUM_ALL	538
T_JUDGE_TAP	401
T_JUDGE_HLD	124
T_JUDGE_SLD	94
T_JUDGE_ALL	619
TTM_EACHPAIRS	69
TTM_SCR_TAP	195500
TTM_SCR_BRK	41600
TTM_SCR_HLD	43000
TTM_SCR_SLD	132000
TTM_SCR_ALL	412100
TTM_SCR_S	398200
TTM_SCR_SS	410500
TTM_RAT_ACV	10038

